<?xml version="1.0" standalone="no"?>
<!DOCTYPE svg PUBLIC "-//W3C//DTD SVG 1.1//EN" "http://www.w3.org/Graphics/SVG/1.1/DTD/svg11.dtd" >
<svg xmlns="http://www.w3.org/2000/svg" xmlns:xlink="http://www.w3.org/1999/xlink" version="1.1">
<metadata></metadata>
<defs>
<font id="hk_grotesksemibold" horiz-adv-x="1187" >
<font-face units-per-em="2048" ascent="1638" descent="-410" />
<missing-glyph horiz-adv-x="518" />
<glyph unicode="&#xfb01;" horiz-adv-x="1105" d="M18 840v170h168v75q0 168 117 264.5t289 96.5q209 0 364 -100l-98 -150q-113 80 -256 80q-101 0 -153 -50.5t-52 -144.5v-71h557v-1010h-211v840h-346v-840h-211v840h-168z" />
<glyph unicode="&#xfb02;" horiz-adv-x="1196" d="M18 840v170h166v75q0 168 115.5 264.5t286.5 96.5q119 0 200.5 -20.5t204.5 -82.5v-1087q0 -45 19.5 -63.5t58.5 -18.5q40 0 86 14v-178q-100 -28 -164 -28q-211 0 -211 229v1024q-80 41 -184 41q-100 0 -150.5 -50.5t-50.5 -144.5v-71h211l-2 -170h-209v-840h-211v840 h-166z" />
<glyph horiz-adv-x="0" />
<glyph horiz-adv-x="682" />
<glyph unicode=" "  horiz-adv-x="518" />
<glyph unicode="&#x09;" horiz-adv-x="518" />
<glyph unicode="&#xa0;" horiz-adv-x="518" />
<glyph unicode="!" horiz-adv-x="643" d="M201 0v252h239v-252h-239zM217 1427h209l-25 -1005h-159z" />
<glyph unicode="&#x22;" horiz-adv-x="897" d="M188 897v530h179v-530h-179zM530 897v530h179v-530h-179z" />
<glyph unicode="#" horiz-adv-x="1406" d="M90 422v151h272l64 304h-250v157h283l90 393h168l-88 -401h284l86 401h166l-90 -401h242v-149h-275l-63 -304h256v-151h-289l-90 -422h-166l90 422h-286l-86 -422h-166l90 422h-242zM530 573h285l62 304h-285z" />
<glyph unicode="$" horiz-adv-x="1224" d="M100 395l217 56q17 -134 103.5 -202.5t214.5 -68.5q121 0 190.5 58.5t69.5 150.5q0 51 -24 92t-64.5 69.5t-93.5 53t-111 47t-116 47t-111 58t-93.5 74t-64.5 100.5t-24 133q0 150 93.5 249.5t241.5 125.5v217h193v-217q219 -37 328 -236l-183 -112q-40 78 -104 119.5 t-146 41.5q-88 0 -146 -50t-58 -128q0 -46 24 -83.5t65 -63.5t93.5 -49t111 -45.5t117 -47t111 -58.5t93.5 -76.5t65 -104t24 -137.5q0 -167 -110.5 -280t-282.5 -138v-228l-193 -2v232q-166 26 -284.5 130t-145.5 273z" />
<glyph unicode="%" horiz-adv-x="1472" d="M100 1118q0 140 77.5 234t205.5 94q124 0 204.5 -94t80.5 -236q0 -137 -79 -230t-200 -93q-130 0 -209.5 93t-79.5 232zM240 0l843 1427h150l-842 -1427h-151zM244 1118q0 -80 38 -131t107 -51q59 0 97 51t38 129q0 83 -38.5 135t-102.5 52q-67 0 -103 -52t-36 -133z M805 309q0 139 77 232.5t203 93.5q124 0 205.5 -94t81.5 -234q0 -139 -79.5 -232t-200.5 -93q-130 0 -208.5 94t-78.5 233zM948 309q0 -81 38 -132.5t106 -51.5q61 0 99 51t38 131q0 81 -39 133t-105 52q-64 0 -100.5 -52t-36.5 -131z" />
<glyph unicode="&#x26;" horiz-adv-x="1409" d="M98 332q0 63 19.5 120t49 99.5t77 84t90.5 70t102 62.5q-176 182 -176 342q0 99 56.5 176.5t144 117.5t186.5 40q153 0 261 -96.5t108 -235.5q0 -64 -21.5 -120.5t-63 -103.5t-86.5 -83.5t-108 -75.5l242 -272q48 115 51 243l205 -22q-12 -213 -117 -381l211 -238 l-149 -131l-189 215q-184 -163 -434 -163q-201 0 -330 94t-129 258zM303 328q0 -81 67.5 -124.5t180.5 -43.5q186 0 315 129l-297 342q-62 -37 -103 -65.5t-82 -66.5t-61 -80.5t-20 -90.5zM465 1106q0 -88 137 -248q107 63 163 120t56 130q0 72 -46.5 121t-125.5 49 q-78 0 -131 -46.5t-53 -125.5z" />
<glyph unicode="'" horiz-adv-x="555" d="M188 926v501h179v-501h-179z" />
<glyph unicode="(" horiz-adv-x="579" d="M113 713q0 268 64.5 477.5t178.5 341.5h191q-266 -330 -266 -823q0 -255 64.5 -447.5t199.5 -367.5h-185q-112 118 -179.5 353.5t-67.5 465.5z" />
<glyph unicode=")" horiz-adv-x="579" d="M31 1532h192q114 -131 178 -341t64 -478q0 -229 -67.5 -465t-178.5 -354h-186q137 174 201.5 367t64.5 448q0 493 -268 823z" />
<glyph unicode="*" horiz-adv-x="882" d="M125 1145l53 158l205 -89l-29 213h170l-28 -213l204 89l54 -158l-226 -35l156 -168l-137 -96l-111 217l-106 -217l-137 96l155 168z" />
<glyph unicode="+" horiz-adv-x="1236" d="M98 545v176h434v432h177v-432h432v-176h-432v-434h-177v434h-434z" />
<glyph unicode="," horiz-adv-x="649" d="M145 -309l152 575h250l-262 -575h-140z" />
<glyph unicode="-" horiz-adv-x="878" d="M152 535v157h575v-157h-575z" />
<glyph unicode="." horiz-adv-x="661" d="M217 0v252h227v-252h-227z" />
<glyph unicode="/" horiz-adv-x="901" d="M-20 -434l741 1861h199l-742 -1861h-198z" />
<glyph unicode="0" d="M121 713q0 75 4 140.5t17 142.5t34 139t57 122t84 101t117.5 65.5t155.5 24.5q109 0 193.5 -42t137.5 -111t87 -166.5t47.5 -199.5t13.5 -218t-13 -217t-46.5 -197t-85 -164t-133.5 -109.5t-187 -41.5q-483 0 -483 731zM338 713q0 -63 1.5 -110t7.5 -105.5t17 -100.5 t30.5 -85t46 -69.5t67 -43.5t90.5 -17q54 0 95 20.5t67 60.5t43.5 87t26 112t11.5 122.5t3 130.5q0 76 -3 134t-12 123t-27 111t-45 85t-69.5 59t-97.5 20q-49 0 -87.5 -16.5t-64.5 -43t-45 -69t-29.5 -84.5t-16.5 -101t-7.5 -107.5t-1.5 -112.5z" />
<glyph unicode="1" d="M242 1028v174h207q70 0 105.5 30t35.5 97v98h205v-1427h-211v1028h-342z" />
<glyph unicode="2" d="M96 0v178q70 43 129 82t136 95.5t137.5 110t123 120.5t104 131.5t67.5 139t26 147.5q0 109 -58 173t-171 64q-71 0 -124.5 -26.5t-84.5 -72.5t-46.5 -101.5t-17.5 -120.5l-206 16q0 101 31.5 192t90.5 161.5t151.5 112.5t205.5 42q196 0 318 -117t122 -313 q0 -98 -33 -197.5t-87.5 -185.5t-129.5 -167t-155.5 -146t-167.5 -119h635v-199h-996z" />
<glyph unicode="3" d="M61 442l209 13q0 -128 88.5 -200.5t229.5 -72.5q131 0 217 65.5t86 188.5q0 51 -15.5 90.5t-45.5 63.5t-63 39.5t-80 22.5t-83.5 9.5t-85.5 2.5v170q297 0 297 206q0 100 -64 152.5t-165 52.5q-112 0 -179.5 -60.5t-68.5 -166.5l-207 14q0 189 129.5 301.5t321.5 112.5 q119 0 218.5 -44t162.5 -132t63 -205q0 -99 -47.5 -176.5t-134.5 -118.5q123 -33 190.5 -128t67.5 -226q0 -137 -72 -237t-188 -148.5t-258 -48.5q-108 0 -202 29.5t-166 85.5t-113.5 145t-41.5 200z" />
<glyph unicode="4" d="M31 338v129l706 960h187v-888h229v-201h-229v-338h-211v338h-682zM299 539h414v579z" />
<glyph unicode="5" d="M80 406l209 34q14 -108 93 -183t204 -75q135 0 213 92.5t78 219.5q0 121 -73.5 201.5t-209.5 80.5q-172 0 -268 -147l-201 51l133 747h776v-202h-602l-61 -332q110 80 252 80q137 0 247 -65.5t170 -174.5t60 -239q0 -101 -38.5 -194.5t-105.5 -163.5t-164 -112t-206 -42 q-197 0 -337.5 121.5t-168.5 302.5z" />
<glyph unicode="6" d="M86 469q0 135 78 262l428 696h242l-306 -479q119 19 226 -14q152 -47 251 -174.5t99 -288.5q0 -133 -68 -245.5t-185 -178t-255 -65.5q-137 0 -254.5 65.5t-186.5 177.5t-69 244zM303 471q0 -119 85.5 -204t207.5 -85t207.5 85t85.5 204t-85 203t-208 84t-208 -84 t-85 -203z" />
<glyph unicode="7" d="M80 1225v202h1028v-116l-653 -1311h-242l629 1225h-762z" />
<glyph unicode="8" d="M80 416q0 123 58.5 216t168.5 144q-72 44 -112.5 116t-40.5 167q0 117 63.5 207t162.5 135t214 45q117 0 216.5 -46t161.5 -136t62 -207q0 -186 -153 -281q109 -51 167 -144t58 -216q0 -106 -42.5 -190t-114.5 -136.5t-162.5 -80t-192.5 -27.5q-101 0 -192 27.5 t-163.5 80t-115.5 137t-43 189.5zM291 434q0 -121 85.5 -186.5t217.5 -65.5q131 0 216 65.5t85 186.5q0 120 -83.5 189t-217.5 69q-136 0 -219.5 -69t-83.5 -189zM365 1044q0 -96 63 -152t166 -56q104 0 166.5 55.5t62.5 150.5q0 92 -63.5 147.5t-165.5 55.5 q-99 0 -164 -54.5t-65 -146.5z" />
<glyph unicode="9" d="M84 956q0 202 149.5 346t358.5 144q138 0 255.5 -65.5t186 -178t68.5 -244.5q0 -135 -78 -262l-428 -696h-242l308 479q-118 -19 -228 15q-152 47 -251 174t-99 288zM299 956q0 -119 86 -202.5t207 -83.5q123 0 209 83.5t86 202.5t-86 204t-209 85q-121 0 -207 -85 t-86 -204z" />
<glyph unicode=":" horiz-adv-x="684" d="M221 0v252h240v-252h-240zM221 711v254h240v-254h-240z" />
<glyph unicode=";" horiz-adv-x="673" d="M106 -309l154 575h250l-262 -575h-142zM262 711v254h242v-254h-242z" />
<glyph unicode="&#x3c;" horiz-adv-x="1314" d="M61 604l1069 610l78 -139l-823 -471l823 -469l-78 -139z" />
<glyph unicode="=" horiz-adv-x="1294" d="M236 375v176h823v-176h-823zM236 809v176h823v-176h-823z" />
<glyph unicode="&#x3e;" horiz-adv-x="1314" d="M104 135l824 469l-824 471l80 139l1069 -610l-1069 -608z" />
<glyph unicode="?" horiz-adv-x="1028" d="M63 1016q0 200 118.5 315t314.5 115q126 0 226.5 -44t162 -135t61.5 -216q0 -75 -19.5 -133.5t-50 -95t-68 -64.5t-75 -48t-68 -38.5t-50 -43.5t-19.5 -57v-153h-180v155q0 66 19 115t49.5 78.5t67 52.5t73 43t67 43.5t49.5 61t19 88.5q0 107 -68.5 161t-189.5 54 q-126 0 -189 -65.5t-63 -188.5h-187zM387 0v252h242v-252h-242z" />
<glyph unicode="@" horiz-adv-x="2066" d="M119 526q0 192 67.5 361.5t187 293t293 195.5t375.5 72q204 0 376.5 -72t288 -195t179.5 -285.5t64 -342.5q0 -95 -17.5 -184.5t-55.5 -170.5t-91.5 -141t-131.5 -95.5t-171 -35.5q-97 0 -160 42t-86 124q-15 54 -18 109q-135 -154 -320 -154q-107 0 -183 54.5 t-111.5 142t-35.5 196.5q0 104 33.5 213t94 202t156.5 152.5t210 59.5q99 0 166.5 -43t99.5 -119l23 113h172q-14 -73 -55 -243.5t-68 -309t-29 -227.5q-2 -73 21.5 -105.5t85.5 -32.5q79 0 140.5 40.5t96.5 108t52.5 146t17.5 162.5q0 147 -52 279t-146 232t-235 159 t-309 59q-223 0 -397.5 -101t-268 -273t-93.5 -384q0 -165 59.5 -300.5t161 -224t236 -137t286.5 -48.5q134 0 252 41l57 -158q-143 -55 -311 -55q-149 0 -285.5 39t-249 115t-196 181t-130 245t-46.5 300zM729 434q0 -105 46 -162t138 -57q83 0 153 44.5t113.5 114.5 t67 151t23.5 159q0 215 -185 215q-83 0 -153 -44t-113 -113.5t-66.5 -149.5t-23.5 -158z" />
<glyph unicode="A" horiz-adv-x="1345" d="M31 0l557 1427h170l557 -1427h-240l-117 324h-571l-119 -324h-237zM459 522h428l-213 586z" />
<glyph unicode="B" horiz-adv-x="1294" d="M199 0v1427h477q209 0 326.5 -94.5t117.5 -263.5q0 -104 -44 -183t-124 -120q119 -38 180.5 -128t61.5 -226q0 -195 -121.5 -303.5t-339.5 -108.5h-534zM418 203h297q123 0 191.5 60t68.5 167q0 102 -64 157.5t-182 55.5h-311v-440zM418 842h268q103 0 159 48.5t56 139.5 q0 94 -59 144.5t-166 50.5h-258v-383z" />
<glyph unicode="C" horiz-adv-x="1466" d="M98 715q0 338 183.5 535.5t498.5 197.5q222 0 381.5 -103t235.5 -298l-201 -78q-51 133 -156.5 201.5t-259.5 68.5q-221 0 -342 -136.5t-121 -385.5q0 -250 121 -388.5t338 -138.5q154 0 261.5 71t158.5 206l205 -78q-76 -196 -238.5 -301.5t-386.5 -105.5 q-312 0 -495 198t-183 535z" />
<glyph unicode="D" horiz-adv-x="1437" d="M199 0v1427h403q353 0 546 -189t193 -536q0 -341 -190 -521.5t-551 -180.5h-401zM418 203h162q281 0 410.5 122t129.5 386q0 262 -127 388t-393 126h-182v-1022z" />
<glyph unicode="E" horiz-adv-x="1263" d="M199 0v1427h944v-202h-725v-391h665v-203h-665v-428h725v-203h-944z" />
<glyph unicode="F" horiz-adv-x="1255" d="M199 0v1427h997v-202h-778v-391h684v-203h-684v-631h-219z" />
<glyph unicode="G" horiz-adv-x="1550" d="M96 717q0 156 47 289.5t133 232t216 154t288 55.5q220 0 380 -104.5t237 -296.5l-203 -78q-50 131 -156 200.5t-260 69.5q-220 0 -341.5 -138.5t-121.5 -379.5q0 -247 124.5 -389t355.5 -142q180 0 287.5 90t107.5 257v26h-328v197h543v-760h-160l-28 170 q-63 -89 -177.5 -138.5t-259.5 -49.5q-304 0 -494 204t-190 531z" />
<glyph unicode="H" horiz-adv-x="1499" d="M199 0v1427h219v-593h663v593h219v-1427h-219v631h-663v-631h-219z" />
<glyph unicode="I" horiz-adv-x="614" d="M199 0v1427h219v-1427h-219z" />
<glyph unicode="J" horiz-adv-x="1161" d="M45 436l215 25q21 -277 260 -277q252 0 252 328v713h-553v202h772v-927q0 -243 -125.5 -380.5t-345.5 -137.5q-206 0 -333 121t-142 333z" />
<glyph unicode="K" horiz-adv-x="1445" d="M199 0v1427h219v-718l686 718h289l-525 -532l543 -895h-254l-438 741l-301 -307v-434h-219z" />
<glyph unicode="L" horiz-adv-x="1077" d="M199 0v1427h219v-1224h622v-203h-841z" />
<glyph unicode="M" horiz-adv-x="1828" d="M199 0v1427h315l399 -1052l402 1052h315v-1427h-219v1124l-391 -1001h-213l-389 1001v-1124h-219z" />
<glyph unicode="N" horiz-adv-x="1478" d="M199 0v1427h227l635 -1044v1044h219v-1427h-229l-633 1051v-1051h-219z" />
<glyph unicode="O" horiz-adv-x="1540" d="M98 713q0 328 185.5 530.5t486.5 202.5t486.5 -202.5t185.5 -530.5q0 -216 -84 -382t-237 -257.5t-351 -91.5t-351 91.5t-237 257.5t-84 382zM317 713q0 -239 123 -381t330 -142t330 142.5t123 380.5q0 239 -123 381.5t-330 142.5t-330 -141.5t-123 -382.5z" />
<glyph unicode="P" horiz-adv-x="1189" d="M199 0v1427h446q235 0 358 -104t123 -303q0 -203 -124 -310.5t-357 -107.5h-229v-602h-217zM416 805h207q146 0 214 51.5t68 159.5q0 109 -67.5 159t-214.5 50h-207v-420z" />
<glyph unicode="Q" horiz-adv-x="1579" d="M96 713q0 328 185.5 530.5t486.5 202.5t486.5 -202.5t185.5 -530.5q0 -295 -156 -494l211 -207l-135 -129l-213 207q-160 -108 -379 -108q-198 0 -351 91.5t-237 257.5t-84 382zM315 713q0 -239 123 -381t330 -142q125 0 219 54l-196 190l135 133l200 -196q95 137 95 342 q0 239 -123 381.5t-330 142.5t-330 -141.5t-123 -382.5z" />
<glyph unicode="R" horiz-adv-x="1282" d="M199 0v1427h446q243 0 362 -104.5t119 -300.5q0 -152 -70 -250.5t-204 -138.5l387 -633h-256l-348 606h-90h-129v-606h-217zM416 807h207q143 0 212.5 49.5t69.5 161.5q0 111 -69 159t-213 48h-207v-418z" />
<glyph unicode="S" horiz-adv-x="1153" d="M61 395l220 56q15 -126 100 -198.5t217 -72.5q118 0 189 57t71 152q0 83 -67 141.5t-236 124.5q-221 85 -310 176t-89 232q0 173 118 278t312 105q142 0 251 -62.5t175 -181.5l-183 -112q-40 76 -105.5 118.5t-143.5 42.5q-88 0 -146.5 -52t-58.5 -126q0 -72 65.5 -125.5 t229.5 -116.5q231 -88 319 -181t88 -242q0 -191 -133.5 -307.5t-349.5 -116.5q-209 0 -355.5 113t-177.5 298z" />
<glyph unicode="T" horiz-adv-x="1214" d="M35 1225v202h1145v-202h-463v-1225h-221v1225h-461z" />
<glyph unicode="U" horiz-adv-x="1404" d="M168 516v911h219v-886q0 -185 73 -265.5t240 -80.5q169 0 243.5 81.5t74.5 266.5v884h219v-901q0 -268 -136.5 -406t-400.5 -138q-262 0 -397 135t-135 399z" />
<glyph unicode="V" horiz-adv-x="1363" d="M31 1427h241l412 -1073l410 1073h241l-567 -1427h-168z" />
<glyph unicode="W" horiz-adv-x="2019" d="M43 1427h229l316 -1093l327 1014h189l330 -1014l313 1093h229l-424 -1427h-215l-327 999l-328 -999h-215z" />
<glyph unicode="X" horiz-adv-x="1353" d="M43 0l483 715l-479 712h262l367 -559l368 559h263l-480 -712l486 -715h-264l-375 557l-369 -557h-262z" />
<glyph unicode="Y" horiz-adv-x="1337" d="M16 1427h258l392 -663l395 663h260l-541 -874v-553h-221v553z" />
<glyph unicode="Z" horiz-adv-x="1294" d="M68 0v156l852 1069h-805v202h1095v-161l-843 -1063h843v-203h-1142z" />
<glyph unicode="[" horiz-adv-x="653" d="M190 -154v1731h418v-141h-248v-1446h248v-144h-418z" />
<glyph unicode="\" horiz-adv-x="937" d="M-20 1530h196l782 -1964h-196z" />
<glyph unicode="]" horiz-adv-x="653" d="M45 -10h248v1446h-248v141h418v-1731h-418v144z" />
<glyph unicode="^" horiz-adv-x="1222" d="M72 436l538 1065l541 -1065h-223l-318 668l-313 -668h-225z" />
<glyph unicode="_" horiz-adv-x="1144" d="M150 0h845v-160h-845v160z" />
<glyph unicode="`" horiz-adv-x="524" d="M35 1427h225l213 -290h-160z" />
<glyph unicode="a" horiz-adv-x="1085" d="M63 303q0 176 140 246q102 51 307 51h235v35q0 98 -56.5 153.5t-156.5 55.5q-169 0 -284 -158l-154 129q174 213 441 213q197 0 309 -104.5t112 -288.5v-635h-192l-16 143q-50 -77 -134.5 -119t-191.5 -42q-161 0 -260 88t-99 233zM274 299q0 -64 50.5 -101.5 t136.5 -37.5q123 0 203.5 77t80.5 197v4h-210q-89 0 -138 -9t-78 -32q-45 -29 -45 -98z" />
<glyph unicode="b" d="M160 0v1427h211v-530q47 61 129 97t176 36q195 0 313.5 -141t118.5 -383q0 -234 -113.5 -379t-318.5 -145q-94 0 -174 33t-131 98v-113h-211zM350 504q0 -148 71 -239t208 -91q132 0 200 87.5t68 242.5q0 158 -69.5 247t-200.5 89q-134 0 -205.5 -93t-71.5 -243z" />
<glyph unicode="c" horiz-adv-x="1021" d="M72 502q0 102 29.5 194.5t86.5 167.5t150 119.5t209 44.5q149 0 260 -73t168 -218l-201 -78q-25 86 -85 135.5t-142 49.5q-88 0 -148.5 -50t-86 -124.5t-25.5 -167.5q0 -68 15 -127t45 -106.5t82 -75t120 -27.5q80 0 140 49t83 133l193 -74q-51 -140 -160 -216t-256 -76 q-115 0 -207.5 43t-150.5 116t-88.5 165.5t-30.5 195.5z" />
<glyph unicode="d" d="M80 506q0 242 118.5 383t313.5 141q94 0 176 -36t129 -97v530h211v-1427h-211v113q-51 -65 -131 -98t-174 -33q-205 0 -318.5 145t-113.5 379zM291 504q0 -155 68 -242.5t200 -87.5q137 0 208 91t71 239q0 150 -71.5 243t-205.5 93q-131 0 -200.5 -89t-69.5 -247z" />
<glyph unicode="e" horiz-adv-x="1071" d="M74 500q0 104 28.5 197t84.5 168t147.5 119t208.5 44q114 0 203 -40.5t143 -110t82 -158t28 -189.5q0 -46 -6 -92h-708q6 -124 77.5 -195t198.5 -71q156 0 258 115l148 -127q-86 -93 -184 -135.5t-224 -42.5q-98 0 -178.5 27.5t-136.5 75.5t-95 113.5t-57 141.5t-18 160z M285 600h512v12q-3 108 -72.5 174t-181.5 66q-117 0 -183.5 -73.5t-74.5 -178.5z" />
<glyph unicode="f" horiz-adv-x="690" d="M18 840v170h201v129q0 87 23.5 149.5t65.5 95.5t91 47.5t109 14.5q100 0 186 -39l-69 -164q-49 27 -95 27q-102 0 -102 -127v-133h254v-170h-254v-840h-211v840h-199z" />
<glyph unicode="g" horiz-adv-x="1056" d="M72 -121q0 25 4 45l153 107q-127 65 -127 205q0 123 101 198q-84 100 -84 232q0 158 116.5 260t286.5 102q136 0 242 -70l149 129l111 -135l-143 -116q47 -80 47 -183q0 -160 -115.5 -260t-284.5 -100q-104 0 -198 43q-41 -24 -41 -70q0 -42 38.5 -68t100.5 -38t137 -21 t150 -25t137 -42.5t100.5 -81t38.5 -133.5q0 -148 -122.5 -220.5t-331.5 -72.5q-223 0 -344 81t-121 234zM281 -137q0 -37 22 -65t60.5 -43t83.5 -22t98 -7q104 0 169.5 27.5t65.5 84.5q0 32 -21.5 54t-65.5 35t-86 20.5t-110 17t-110 17.5l-104 -101q-2 -8 -2 -18zM328 659 q0 -85 51.5 -138.5t144.5 -53.5t143 53t50 139q0 88 -51.5 140.5t-139.5 52.5q-89 0 -143.5 -53.5t-54.5 -139.5z" />
<glyph unicode="h" horiz-adv-x="1167" d="M160 0v1427h211v-542q103 143 313 143q169 0 258.5 -99.5t89.5 -287.5v-641h-211v588q0 132 -48.5 194t-149.5 62q-129 0 -190.5 -102.5t-61.5 -317.5v-424h-211z" />
<glyph unicode="i" horiz-adv-x="526" d="M150 1206v221h225v-221h-225zM158 0v1010h211v-1010h-211z" />
<glyph unicode="j" horiz-adv-x="528" d="M-4 -238q43 -14 84 -14q80 0 80 80v1182h209v-1194q0 -126 -60.5 -189t-161.5 -63q-69 0 -151 28v170zM152 1206v221h225v-221h-225z" />
<glyph unicode="k" horiz-adv-x="1120" d="M160 0v1427h211v-868l413 451h285l-375 -387l422 -623h-252l-313 492l-180 -197v-295h-211z" />
<glyph unicode="l" horiz-adv-x="563" d="M147 233v1194h211v-1179q0 -80 80 -80q41 0 84 14v-172q-79 -28 -151 -28q-103 0 -163.5 63t-60.5 188z" />
<glyph unicode="m" horiz-adv-x="1738" d="M158 1010h202v-127q88 145 275 145q217 0 295 -199q104 199 327 199q89 0 157 -30.5t109.5 -84.5t62 -123t20.5 -151v-639h-211v578q0 266 -189 266q-43 0 -76.5 -13t-56.5 -34t-39.5 -55t-25 -67t-13.5 -80.5t-6.5 -85.5t-1.5 -91v-418h-211v573q0 271 -188 271 q-49 0 -86.5 -16t-60.5 -48t-37.5 -68t-21.5 -90t-9 -97.5t-2 -106.5v-418h-211z" />
<glyph unicode="n" horiz-adv-x="1165" d="M158 0v1010h211v-125q52 71 133.5 107t181.5 36q167 0 256.5 -100.5t89.5 -286.5v-641h-211v588q0 41 -3.5 73t-15.5 68t-32.5 59.5t-57.5 39.5t-87 16q-63 0 -109.5 -24t-74 -62.5t-43.5 -96t-21.5 -114t-5.5 -127.5v-420h-211z" />
<glyph unicode="o" horiz-adv-x="1134" d="M68 506q0 146 60.5 264t175 188t263.5 70q148 0 262.5 -70t175 -188t60.5 -264q0 -145 -60.5 -263.5t-175 -189.5t-262.5 -71q-149 0 -264 71t-175 189.5t-60 263.5zM279 506q0 -148 73.5 -244t214.5 -96t214 96.5t73 243.5q0 148 -73.5 243t-213.5 95q-141 0 -214.5 -95 t-73.5 -243z" />
<glyph unicode="p" d="M160 -418v1428h211v-113q51 66 131.5 99.5t173.5 33.5q203 0 317.5 -145t114.5 -381q0 -239 -117.5 -380.5t-314.5 -141.5q-95 0 -176.5 35.5t-128.5 97.5v-533h-211zM350 506q0 -153 70.5 -246.5t206.5 -93.5q133 0 201.5 90.5t68.5 249.5q0 162 -68 250t-200 88 q-136 0 -207.5 -91.5t-71.5 -246.5z" />
<glyph unicode="q" horiz-adv-x="1185" d="M78 504q0 235 115.5 380.5t318.5 145.5q93 0 173 -33t132 -100v113h211v-1428h-211v533q-50 -62 -131 -97.5t-174 -35.5q-198 0 -316 141.5t-118 380.5zM289 506q0 -159 69 -249.5t201 -90.5q136 0 206.5 93.5t70.5 246.5q0 155 -71.5 246.5t-207.5 91.5 q-131 0 -199.5 -88.5t-68.5 -249.5z" />
<glyph unicode="r" horiz-adv-x="827" d="M158 0v1010h213v-166q36 91 112.5 137.5t165.5 46.5q103 0 187 -51l-103 -184q-58 34 -125 34q-115 0 -177 -76t-62 -225v-526h-211z" />
<glyph unicode="s" horiz-adv-x="929" d="M51 258l170 76q64 -174 242 -174q87 0 135.5 40t48.5 97q0 41 -30 68.5t-77.5 43.5t-105.5 30t-115.5 34.5t-105 50t-77.5 84t-30 129.5q0 136 103.5 213.5t259.5 77.5q127 0 223 -55.5t152 -159.5l-164 -90q-73 135 -219 135q-70 0 -112 -29t-42 -75q0 -37 30 -62 t78.5 -41t107 -31t116.5 -37t106.5 -54t78.5 -88t30 -132q0 -81 -32.5 -145.5t-87 -103t-122 -58.5t-141.5 -20q-154 0 -268 77.5t-152 198.5z" />
<glyph unicode="t" horiz-adv-x="727" d="M31 840v170h166v252l211 155v-407h247v-170h-247v-553q0 -127 127 -127q49 0 120 22l2 -172q-92 -28 -174 -28q-128 0 -207 70.5t-79 215.5v572h-166z" />
<glyph unicode="u" horiz-adv-x="1163" d="M133 383v627h211v-574q0 -39 2.5 -68.5t14 -70t31 -67t58.5 -45.5t93 -19q63 0 110 26t73.5 66t42.5 100t21 116t5 126v410h211v-1010h-211v127q-52 -72 -134 -108.5t-178 -36.5q-176 0 -263 110t-87 291z" />
<glyph unicode="v" horiz-adv-x="1013" d="M6 1010h232l268 -738l270 738h230l-412 -1010h-176z" />
<glyph unicode="w" horiz-adv-x="1490" d="M25 1010h225l186 -688l217 688h183l215 -686l190 686h223l-305 -1010h-192l-222 713l-223 -713h-190z" />
<glyph unicode="x" horiz-adv-x="1032" d="M23 0l352 508l-352 502h258l235 -359l236 359h258l-355 -502l355 -508h-258l-236 362l-235 -362h-258z" />
<glyph unicode="y" horiz-adv-x="1038" d="M6 1010h232l286 -744l275 744h231l-567 -1428h-227l176 441z" />
<glyph unicode="z" horiz-adv-x="1003" d="M57 0v143l611 688h-580v179h844v-156l-590 -676h588v-178h-873z" />
<glyph unicode="{" horiz-adv-x="622" d="M68 604v144q31 11 50 20t40 27.5t31 48t10 71.5v328q0 130 57.5 201.5t165.5 71.5h143v-136h-73q-115 0 -115 -141v-328q0 -92 -34 -146.5t-103 -82.5v-12q69 -31 103 -83t34 -141v-317q0 -143 112 -143h76v-138h-147q-107 0 -163 74t-56 203v319q0 40 -10 68t-31 45.5 t-39.5 26.5t-50.5 20z" />
<glyph unicode="|" horiz-adv-x="636" d="M240 -518v2068h157v-2068h-157z" />
<glyph unicode="}" horiz-adv-x="622" d="M59 -14h76q111 0 111 143v317q0 90 35.5 142t103.5 82v12q-70 29 -104.5 82t-34.5 147v328q0 141 -115 141h-72v136h144q108 0 165.5 -71.5t57.5 -201.5v-328q0 -29 4.5 -52.5t15.5 -40t20.5 -27.5t28 -20.5t28.5 -14t32 -12.5v-144q-32 -12 -48 -20t-38.5 -25.5 t-32.5 -46t-10 -68.5v-319q0 -129 -56.5 -203t-164.5 -74h-146v138z" />
<glyph unicode="~" horiz-adv-x="1249" d="M178 403q0 147 72 236.5t192 89.5q49 0 89 -13t65.5 -34.5t47 -47t38.5 -51t33.5 -47t38.5 -34.5t49 -13q47 0 76.5 58.5t29.5 148.5h162q0 -155 -73.5 -251.5t-194.5 -96.5q-65 0 -112.5 24.5t-75 59.5t-51 70t-53.5 59.5t-69 24.5q-49 0 -75.5 -49t-26.5 -134h-162z " />
<glyph unicode="&#xa1;" horiz-adv-x="641" d="M201 758v252h239v-252h-239zM215 -418l25 1006h161l25 -1006h-211z" />
<glyph unicode="&#xa2;" horiz-adv-x="1148" d="M131 502q0 122 39 227.5t124.5 184.5t205.5 104v213h192v-209q244 -40 342 -285l-200 -78q-25 86 -85.5 135.5t-142.5 49.5q-88 0 -148.5 -50t-86 -124.5t-25.5 -167.5q0 -68 15 -127t45 -106.5t82 -75t120 -27.5q80 0 140 49t83 133l193 -74q-42 -119 -128.5 -192.5 t-203.5 -93.5v-217l-192 -2v223q-177 37 -273 179.5t-96 330.5z" />
<glyph unicode="&#xa3;" horiz-adv-x="1251" d="M150 0v184q108 41 183 119t75 166q0 51 -37 164h-217v178h174q-16 39 -27.5 103.5t-11.5 123.5q0 179 114.5 298.5t305.5 119.5q157 0 268 -83.5t145 -225.5l-164 -64q-22 101 -87.5 148t-159.5 47q-113 0 -178.5 -63.5t-65.5 -182.5q0 -54 13 -116.5t32 -104.5h412v-178 h-371q29 -109 29 -166q0 -185 -146 -289h682v-178h-968z" />
<glyph unicode="&#xa4;" horiz-adv-x="1384" d="M201 262l104 105q-87 120 -87 271.5t87 270.5l-102 103l112 118l105 -108q122 89 273.5 90t271.5 -88l104 104l115 -112l-107 -105q89 -120 89 -272.5t-89 -273.5l107 -103l-113 -117l-106 107q-120 -88 -272.5 -88t-274.5 88l-107 -107zM378 636q0 -131 89 -220 q96 -93 224.5 -93t221.5 93q93 94 93 222t-93 222q-92 92 -222 92t-224 -94q-89 -91 -89 -222z" />
<glyph unicode="&#xa5;" horiz-adv-x="1454" d="M76 1427h266l385 -663l383 663h268l-436 -712h232v-170h-332v-158h332v-170h-332v-217h-228v217h-333v170h333v158h-333v170h233z" />
<glyph unicode="&#xa6;" horiz-adv-x="651" d="M238 -311v735h174v-735h-174zM238 739v750h174v-750h-174z" />
<glyph unicode="&#xa7;" horiz-adv-x="1234" d="M115 614q0 171 116 287q-34 76 -34 162q0 117 59 205.5t156.5 133t216.5 44.5q135 0 245 -60t179 -184l-183 -112q-41 79 -105.5 120t-143.5 41q-88 0 -146.5 -50t-58.5 -128q0 -21 6 -41t13 -35.5t24 -31.5t28.5 -27t37.5 -25t40 -21.5t47 -21.5t47.5 -19.5t51.5 -19.5 q42 -16 65.5 -25.5t63.5 -27t63.5 -31.5t57 -36t53.5 -42.5t42.5 -49.5t34.5 -60t20.5 -69.5t8.5 -81.5q0 -171 -119 -287q37 -69 37 -160q0 -177 -124 -281t-308 -104q-136 0 -246 60.5t-178 183.5l183 112q40 -78 104.5 -119.5t144.5 -41.5q88 0 146.5 50.5t58.5 129.5 q0 21 -6 40.5t-13 34.5t-24 31.5t-28.5 27t-38 24.5t-40 21t-47.5 21t-48 19.5t-52 19.5q-54 21 -83.5 33.5t-79 36.5t-78.5 45t-64.5 54.5t-55 68.5t-33 83t-13.5 103zM334 633q0 -24 6 -46t13.5 -39.5t25 -35t30 -29.5t38.5 -27t41.5 -23.5t48 -22.5t48.5 -20.5t52 -20.5 q150 -59 219 -105q43 49 43 125q0 31 -9.5 58t-22 47.5t-38.5 41.5t-45.5 34t-58 31t-61 27t-68.5 27q-149 58 -217 103q-45 -51 -45 -125z" />
<glyph unicode="&#xa8;" horiz-adv-x="886" d="M154 1206v221h192v-221h-192zM543 1206v221h192v-221h-192z" />
<glyph unicode="&#xa9;" horiz-adv-x="1763" d="M123 713q0 151 60 288.5t162 236.5t242.5 157.5t295.5 58.5t295.5 -58.5t242 -157.5t161.5 -236.5t60 -288.5q0 -202 -101.5 -372t-276 -269t-381.5 -99q-155 0 -295.5 58.5t-242.5 157.5t-162 236t-60 288zM256 713q0 -164 83.5 -303t228 -220t315.5 -81q127 0 243 48 t200 128.5t133.5 192.5t49.5 235q0 165 -83.5 304.5t-228 220.5t-314.5 81q-171 0 -315.5 -81t-228 -220.5t-83.5 -304.5zM500 711q0 86 25.5 165t73.5 142.5t126 101t176 37.5q127 0 222 -62.5t141 -183.5l-166 -63q-22 68 -74.5 110.5t-122.5 42.5q-74 0 -126.5 -43 t-75.5 -107t-23 -140q0 -119 57 -202t168 -83q71 0 123 41.5t74 110.5l155 -62q-40 -117 -132.5 -182.5t-217.5 -65.5q-97 0 -175 36.5t-127 98.5t-75 141t-26 167z" />
<glyph unicode="&#xaa;" horiz-adv-x="905" d="M123 934q0 109 77.5 163t207.5 54h200q0 24 -6 51q-21 127 -166 127q-110 0 -190 -110l-103 67q62 85 130.5 122.5t166.5 37.5q137 0 215 -77t78 -208v-432h-117l-4 100q-91 -116 -243 -116q-103 0 -174.5 61t-71.5 160zM260 934q0 -42 40 -71t91 -29q65 0 118 33.5 t81 90.5q15 41 18 78h-190q-75 0 -116.5 -27t-41.5 -75z" />
<glyph unicode="&#xab;" horiz-adv-x="1026" d="M33 516l422 354v-184l-207 -170l207 -170v-184zM453 516l421 354v-184l-206 -170l206 -170v-184z" />
<glyph unicode="&#xac;" horiz-adv-x="1325" d="M145 616v189h942v-512h-200v323h-742z" />
<glyph unicode="&#xad;" horiz-adv-x="1021" d="M152 535v157h718v-157h-718z" />
<glyph unicode="&#xae;" horiz-adv-x="1763" d="M123 713q0 151 60 288.5t162 236.5t242.5 157.5t295.5 58.5t295.5 -58.5t242 -157.5t161.5 -236.5t60 -288.5q0 -202 -101.5 -372t-276 -269t-381.5 -99q-155 0 -295.5 58.5t-242.5 157.5t-162 236t-60 288zM256 713q0 -164 83.5 -303t228 -220t315.5 -81q127 0 243 48 t200 128.5t133.5 192.5t49.5 235q0 165 -83.5 304.5t-228 220.5t-314.5 81q-171 0 -315.5 -81t-228 -220.5t-83.5 -304.5zM635 285v858h264q133 0 215 -69t82 -183q0 -76 -45.5 -135.5t-122.5 -85.5l236 -385h-162l-211 370h-47h-70v-370h-139zM774 770h137q70 3 108 35 t38 86q0 59 -41.5 92t-114.5 33h-127v-246z" />
<glyph unicode="&#xaf;" horiz-adv-x="858" d="M150 1182v125h559v-125h-559z" />
<glyph unicode="&#xb0;" horiz-adv-x="917" d="M164 1153q0 120 87 206.5t208 86.5t208 -86.5t87 -206.5q0 -121 -87 -208t-208 -87t-208 87t-87 208zM307 1153q0 -63 44.5 -107.5t107.5 -44.5q65 0 109 44t44 108q0 63 -44.5 106.5t-108.5 43.5q-63 0 -107.5 -44t-44.5 -106z" />
<glyph unicode="&#xb1;" horiz-adv-x="1341" d="M123 0h1091v-160h-1091v160zM123 633v162h467v442h162v-442h467v-162h-467v-443h-162v443h-467z" />
<glyph unicode="&#xb4;" horiz-adv-x="534" d="M47 1137l225 290h228l-295 -290h-158z" />
<glyph unicode="&#xb5;" horiz-adv-x="1310" d="M238 -338v1348h208v-586q0 -115 55 -181.5t156 -66.5q116 0 181 66.5t65 199.5v568h211v-1010h-211v135q-54 -77 -135.5 -115t-167.5 -38q-123 0 -190 61v-381h-172z" />
<glyph unicode="&#xb6;" horiz-adv-x="1302" d="M86 1028q0 92 38 168.5t102 126t146.5 77t172.5 27.5h145v-1675h-145v877q-90 0 -172.5 27.5t-146.5 77t-102 126t-38 168.5zM913 -248v1675h152v-1675h-152z" />
<glyph unicode="&#xb7;" horiz-adv-x="643" d="M176 745q0 60 42.5 102t103.5 42q60 0 101.5 -41.5t41.5 -102.5q0 -62 -41.5 -104.5t-101.5 -42.5q-61 0 -103.5 42.5t-42.5 104.5z" />
<glyph unicode="&#xb8;" horiz-adv-x="575" d="M70 -395l118 49q9 -25 32 -41t52 -16q43 0 69 24t26 64q0 52 -47 84t-127 34q-9 0 -33.5 1t-40.5 1l119 193h124l-77 -109q18 -3 59 -12q72 -20 110 -67.5t38 -116.5q0 -94 -64 -156.5t-162 -62.5q-62 0 -116.5 36.5t-79.5 94.5z" />
<glyph unicode="&#xba;" horiz-adv-x="944" d="M117 1083q0 152 100 257.5t256 105.5q154 0 254 -105.5t100 -257.5q0 -153 -99.5 -257.5t-254.5 -104.5q-156 0 -256 104.5t-100 257.5zM264 1083q0 -104 53 -170.5t156 -66.5t156 66.5t53 170.5q0 105 -53 171.5t-156 66.5t-156 -66.5t-53 -171.5z" />
<glyph unicode="&#xbb;" horiz-adv-x="1026" d="M147 162v184l207 170l-207 170v184l422 -354zM567 162v184l207 170l-207 170v184l422 -354z" />
<glyph unicode="&#xbf;" horiz-adv-x="1026" d="M82 -41q0 75 19.5 133.5t50 94.5t68 64t75 48t68 38.5t50 43.5t19.5 57v154h178v-156q0 -66 -19 -115t-49.5 -78.5t-67 -52t-73 -42.5t-67 -43.5t-49.5 -61t-19 -88.5q0 -107 68.5 -161t189.5 -54q126 0 189 65.5t63 188.5h187q0 -200 -118 -315t-315 -115 q-193 0 -320.5 104.5t-127.5 290.5zM399 758v252h240v-252h-240z" />
<glyph unicode="&#xc0;" horiz-adv-x="1345" d="M31 0l557 1427h170l557 -1427h-240l-117 324h-571l-119 -324h-237zM315 1845h226l213 -291h-160zM459 522h428l-213 586z" />
<glyph unicode="&#xc1;" horiz-adv-x="1345" d="M31 0l557 1427h170l557 -1427h-240l-117 324h-571l-119 -324h-237zM459 522h428l-213 586zM594 1554l225 291h228l-295 -291h-158z" />
<glyph unicode="&#xc2;" horiz-adv-x="1345" d="M31 0l557 1427h170l557 -1427h-240l-117 324h-571l-119 -324h-237zM358 1530l316 346l315 -346h-166l-149 166l-148 -166h-168zM459 522h428l-213 586z" />
<glyph unicode="&#xc3;" horiz-adv-x="1345" d="M31 0l557 1427h170l557 -1427h-240l-117 324h-571l-119 -324h-237zM336 1577q0 130 56 202t153 72q49 0 90 -24t64 -52.5t52 -52.5t56 -24q32 0 52 39t20 108h129q0 -132 -54.5 -205t-148.5 -73q-45 0 -81 16t-59 38.5t-42.5 44.5t-41 38t-44.5 16q-37 0 -57.5 -37 t-20.5 -106h-123zM459 522h428l-213 586z" />
<glyph unicode="&#xc4;" horiz-adv-x="1345" d="M31 0l557 1427h170l557 -1427h-240l-117 324h-571l-119 -324h-237zM383 1624v221h192v-221h-192zM459 522h428l-213 586zM772 1624v221h193v-221h-193z" />
<glyph unicode="&#xc5;" horiz-adv-x="1345" d="M31 0l551 1411q-59 26 -95 81t-36 120q0 92 65 157.5t156 65.5q90 0 156.5 -65t66.5 -158q0 -65 -36 -120t-95 -81l551 -1411h-240l-117 324h-571l-119 -324h-237zM459 522h428l-213 586zM565 1614q0 -46 31.5 -77.5t75.5 -31.5q47 0 76.5 31.5t29.5 77.5t-28.5 75 t-77.5 29q-47 0 -77 -29t-30 -75z" />
<glyph unicode="&#xc6;" horiz-adv-x="1968" d="M31 0l557 1427h1274v-192h-732v-428h639v-184h-639v-424h732v-199h-953v322h-524l-117 -322h-237zM459 516h450v727h-188z" />
<glyph unicode="&#xc7;" horiz-adv-x="1466" d="M98 715q0 338 183.5 535.5t498.5 197.5q222 0 381.5 -103t235.5 -298l-201 -78q-51 133 -156.5 201.5t-259.5 68.5q-221 0 -342 -136.5t-121 -385.5q0 -250 121 -388.5t338 -138.5q154 0 261.5 71t158.5 206l205 -78q-70 -182 -214.5 -286t-346.5 -119l-68 -95 q71 -13 111 -34q96 -55 96 -162q0 -94 -62.5 -156.5t-160.5 -62.5q-106 0 -178 75l67 103q50 -55 115 -55q44 0 70 24.5t26 67.5t-31.5 69.5t-81.5 36.5q-65 10 -137 10l109 179q-285 20 -451 216t-166 515z" />
<glyph unicode="&#xc8;" horiz-adv-x="1263" d="M199 0v1427h944v-202h-725v-391h665v-203h-665v-428h725v-203h-944zM311 1845h226l213 -291h-160z" />
<glyph unicode="&#xc9;" horiz-adv-x="1263" d="M199 0v1427h944v-202h-725v-391h665v-203h-665v-428h725v-203h-944zM592 1554l225 291h227l-294 -291h-158z" />
<glyph unicode="&#xca;" horiz-adv-x="1263" d="M199 0v1427h944v-202h-725v-391h665v-203h-665v-428h725v-203h-944zM354 1530l316 346l315 -346h-166l-149 166l-148 -166h-168z" />
<glyph unicode="&#xcb;" horiz-adv-x="1263" d="M199 0v1427h944v-202h-725v-391h665v-203h-665v-428h725v-203h-944zM381 1624v221h192v-221h-192zM770 1624v221h193v-221h-193z" />
<glyph unicode="&#xcc;" horiz-adv-x="614" d="M-49 1845h225l213 -291h-160zM199 0v1427h219v-1427h-219z" />
<glyph unicode="&#xcd;" horiz-adv-x="614" d="M199 0v1427h219v-1427h-219zM229 1554l226 291h227l-295 -291h-158z" />
<glyph unicode="&#xce;" horiz-adv-x="614" d="M-6 1530l315 346l316 -346h-166l-150 166l-147 -166h-168zM199 0v1427h219v-1427h-219z" />
<glyph unicode="&#xcf;" horiz-adv-x="614" d="M18 1624v221h193v-221h-193zM199 0v1427h219v-1427h-219zM408 1624v221h192v-221h-192z" />
<glyph unicode="&#xd0;" horiz-adv-x="1437" d="M39 643v141h160v643h403q353 0 546 -189t193 -536q0 -341 -190 -521.5t-551 -180.5h-401v643h-160zM418 203h162q281 0 410.5 122t129.5 386q0 262 -127 388t-393 126h-182v-441h246v-141h-246v-440z" />
<glyph unicode="&#xd1;" horiz-adv-x="1478" d="M199 0v1427h227l635 -1044v1044h219v-1427h-229l-633 1051v-1051h-219zM403 1577q0 130 56 202t153 72q49 0 90 -24t64 -52.5t52 -52.5t56 -24q32 0 52 39t20 108h129q0 -132 -54.5 -205t-148.5 -73q-45 0 -81 16t-59 38.5t-42.5 44.5t-41 38t-44.5 16q-37 0 -57.5 -37 t-20.5 -106h-123z" />
<glyph unicode="&#xd2;" horiz-adv-x="1540" d="M98 713q0 328 185.5 530.5t486.5 202.5t486.5 -202.5t185.5 -530.5q0 -216 -84 -382t-237 -257.5t-351 -91.5t-351 91.5t-237 257.5t-84 382zM317 713q0 -239 123 -381t330 -142t330 142.5t123 380.5q0 239 -123 381.5t-330 142.5t-330 -141.5t-123 -382.5zM412 1845h225 l213 -291h-160z" />
<glyph unicode="&#xd3;" horiz-adv-x="1540" d="M98 713q0 328 185.5 530.5t486.5 202.5t486.5 -202.5t185.5 -530.5q0 -216 -84 -382t-237 -257.5t-351 -91.5t-351 91.5t-237 257.5t-84 382zM317 713q0 -239 123 -381t330 -142t330 142.5t123 380.5q0 239 -123 381.5t-330 142.5t-330 -141.5t-123 -382.5zM692 1554 l226 291h227l-295 -291h-158z" />
<glyph unicode="&#xd4;" horiz-adv-x="1540" d="M98 713q0 328 185.5 530.5t486.5 202.5t486.5 -202.5t185.5 -530.5q0 -216 -84 -382t-237 -257.5t-351 -91.5t-351 91.5t-237 257.5t-84 382zM317 713q0 -239 123 -381t330 -142t330 142.5t123 380.5q0 239 -123 381.5t-330 142.5t-330 -141.5t-123 -382.5zM455 1530 l315 346l315 -346h-165l-150 166l-147 -166h-168z" />
<glyph unicode="&#xd5;" horiz-adv-x="1540" d="M98 713q0 328 185.5 530.5t486.5 202.5t486.5 -202.5t185.5 -530.5q0 -216 -84 -382t-237 -257.5t-351 -91.5t-351 91.5t-237 257.5t-84 382zM317 713q0 -239 123 -381t330 -142t330 142.5t123 380.5q0 239 -123 381.5t-330 142.5t-330 -141.5t-123 -382.5zM434 1577 q0 130 56 202t153 72q49 0 90 -24t64 -52.5t52 -52.5t56 -24q32 0 52 39t20 108h129q0 -132 -54.5 -205t-148.5 -73q-45 0 -81 16t-59 38.5t-42.5 44.5t-41 38t-44.5 16q-37 0 -57.5 -37t-20.5 -106h-123z" />
<glyph unicode="&#xd6;" horiz-adv-x="1540" d="M98 713q0 328 185.5 530.5t486.5 202.5t486.5 -202.5t185.5 -530.5q0 -216 -84 -382t-237 -257.5t-351 -91.5t-351 91.5t-237 257.5t-84 382zM317 713q0 -239 123 -381t330 -142t330 142.5t123 380.5q0 239 -123 381.5t-330 142.5t-330 -141.5t-123 -382.5zM479 1624v221 h193v-221h-193zM868 1624v221h193v-221h-193z" />
<glyph unicode="&#xd7;" horiz-adv-x="1101" d="M121 307l307 309l-307 308l123 125l305 -310l309 308l123 -123l-307 -308l307 -309l-123 -121l-309 306l-305 -306z" />
<glyph unicode="&#xd8;" horiz-adv-x="1540" d="M98 713q0 328 185.5 530.5t486.5 202.5q179 0 322 -76l34 57h170l-86 -139q111 -98 171.5 -245.5t60.5 -329.5q0 -216 -84 -382t-237 -257.5t-351 -91.5q-180 0 -321 75l-35 -57h-170l86 139q-111 98 -171.5 245t-60.5 329zM317 713q0 -248 127 -387l535 864 q-89 47 -209 47q-207 0 -330 -141.5t-123 -382.5zM561 238q91 -48 209 -48q207 0 330 142.5t123 380.5q0 244 -129 389z" />
<glyph unicode="&#xd9;" horiz-adv-x="1404" d="M168 516v911h219v-886q0 -185 73 -265.5t240 -80.5q169 0 243.5 81.5t74.5 266.5v884h219v-901q0 -268 -136.5 -406t-400.5 -138q-262 0 -397 135t-135 399zM344 1845h225l213 -291h-159z" />
<glyph unicode="&#xda;" horiz-adv-x="1404" d="M168 516v911h219v-886q0 -185 73 -265.5t240 -80.5q169 0 243.5 81.5t74.5 266.5v884h219v-901q0 -268 -136.5 -406t-400.5 -138q-262 0 -397 135t-135 399zM625 1554l225 291h227l-295 -291h-157z" />
<glyph unicode="&#xdb;" horiz-adv-x="1404" d="M168 516v911h219v-886q0 -185 73 -265.5t240 -80.5q169 0 243.5 81.5t74.5 266.5v884h219v-901q0 -268 -136.5 -406t-400.5 -138q-262 0 -397 135t-135 399zM387 1530l315 346l316 -346h-166l-150 166l-147 -166h-168z" />
<glyph unicode="&#xdc;" horiz-adv-x="1404" d="M168 516v911h219v-886q0 -185 73 -265.5t240 -80.5q169 0 243.5 81.5t74.5 266.5v884h219v-901q0 -268 -136.5 -406t-400.5 -138q-262 0 -397 135t-135 399zM414 1624v221h192v-221h-192zM803 1624v221h192v-221h-192z" />
<glyph unicode="&#xdd;" horiz-adv-x="1337" d="M16 1427h258l392 -663l395 663h260l-541 -874v-553h-221v553zM590 1554l225 291h227l-294 -291h-158z" />
<glyph unicode="&#xde;" horiz-adv-x="1169" d="M199 0v1427h198v-198h269q209 0 324.5 -106t115.5 -296q0 -198 -129 -308.5t-359 -110.5h-221v-408h-198zM397 590h221q287 0 287 229q0 116 -73 176t-214 60h-221v-465z" />
<glyph unicode="&#xdf;" horiz-adv-x="1306" d="M160 0v901q0 547 520 547q208 0 335.5 -82.5t127.5 -222.5q0 -64 -22.5 -114.5t-59 -81t-80 -53.5t-87 -39.5t-80 -32t-59 -37.5t-22.5 -50q0 -33 29.5 -55.5t76.5 -36.5t103.5 -27t113.5 -34.5t104 -52.5t76.5 -87.5t29.5 -132.5q0 -81 -32.5 -145.5t-87 -103 t-122 -58.5t-141.5 -20q-153 0 -267.5 78.5t-152.5 197.5l170 76q26 -74 84 -125t155 -51q88 0 136.5 41t48.5 98q0 41 -29.5 69t-76.5 44t-103.5 30.5t-113.5 35t-104 49.5t-76.5 82t-29.5 126q0 64 22.5 113t59 77.5t80 49t87 35t80 29t59 37t22.5 52.5q0 58 -72 91.5 t-174 33.5q-64 0 -114 -13.5t-82 -32.5t-54.5 -51.5t-33.5 -59t-17 -67.5t-7 -64.5t-1 -61.5v-901h-219z" />
<glyph unicode="&#xe0;" horiz-adv-x="1085" d="M63 303q0 176 140 246q102 51 307 51h235v35q0 98 -56.5 153.5t-156.5 55.5q-169 0 -284 -158l-154 129q174 213 441 213q197 0 309 -104.5t112 -288.5v-635h-192l-16 143q-50 -77 -134.5 -119t-191.5 -42q-161 0 -260 88t-99 233zM174 1427h225l213 -290h-159zM274 299 q0 -64 50.5 -101.5t136.5 -37.5q123 0 203.5 77t80.5 197v4h-210q-89 0 -138 -9t-78 -32q-45 -29 -45 -98z" />
<glyph unicode="&#xe1;" horiz-adv-x="1085" d="M63 303q0 176 140 246q102 51 307 51h235v35q0 98 -56.5 153.5t-156.5 55.5q-169 0 -284 -158l-154 129q174 213 441 213q197 0 309 -104.5t112 -288.5v-635h-192l-16 143q-50 -77 -134.5 -119t-191.5 -42q-161 0 -260 88t-99 233zM274 299q0 -64 50.5 -101.5 t136.5 -37.5q123 0 203.5 77t80.5 197v4h-210q-89 0 -138 -9t-78 -32q-45 -29 -45 -98zM455 1137l225 290h227l-295 -290h-157z" />
<glyph unicode="&#xe2;" horiz-adv-x="1085" d="M63 303q0 176 140 246q102 51 307 51h235v35q0 98 -56.5 153.5t-156.5 55.5q-169 0 -284 -158l-154 129q174 213 441 213q197 0 309 -104.5t112 -288.5v-635h-192l-16 143q-50 -77 -134.5 -119t-191.5 -42q-161 0 -260 88t-99 233zM217 1112l315 346l316 -346h-166 l-150 166l-147 -166h-168zM274 299q0 -64 50.5 -101.5t136.5 -37.5q123 0 203.5 77t80.5 197v4h-210q-89 0 -138 -9t-78 -32q-45 -29 -45 -98z" />
<glyph unicode="&#xe3;" horiz-adv-x="1085" d="M63 303q0 176 140 246q102 51 307 51h235v35q0 98 -56.5 153.5t-156.5 55.5q-169 0 -284 -158l-154 129q174 213 441 213q197 0 309 -104.5t112 -288.5v-635h-192l-16 143q-50 -77 -134.5 -119t-191.5 -42q-161 0 -260 88t-99 233zM197 1159q0 130 56 202.5t153 72.5 q40 0 74 -16t57 -38.5t43.5 -45t42.5 -38.5t45 -16q32 0 51.5 39t19.5 108h129q0 -132 -54.5 -205t-147.5 -73q-45 0 -81.5 16t-59.5 38.5t-42.5 45t-41 38.5t-44.5 16q-37 0 -57.5 -37.5t-20.5 -106.5h-122zM274 299q0 -64 50.5 -101.5t136.5 -37.5q123 0 203.5 77 t80.5 197v4h-210q-89 0 -138 -9t-78 -32q-45 -29 -45 -98z" />
<glyph unicode="&#xe4;" horiz-adv-x="1085" d="M63 303q0 176 140 246q102 51 307 51h235v35q0 98 -56.5 153.5t-156.5 55.5q-169 0 -284 -158l-154 129q174 213 441 213q197 0 309 -104.5t112 -288.5v-635h-192l-16 143q-50 -77 -134.5 -119t-191.5 -42q-161 0 -260 88t-99 233zM242 1206v221h192v-221h-192zM274 299 q0 -64 50.5 -101.5t136.5 -37.5q123 0 203.5 77t80.5 197v4h-210q-89 0 -138 -9t-78 -32q-45 -29 -45 -98zM631 1206v221h192v-221h-192z" />
<glyph unicode="&#xe5;" horiz-adv-x="1085" d="M63 303q0 176 140 246q102 51 307 51h235v35q0 98 -56.5 153.5t-156.5 55.5q-169 0 -284 -158l-154 129q174 213 441 213q197 0 309 -104.5t112 -288.5v-635h-192l-16 143q-50 -77 -134.5 -119t-191.5 -42q-161 0 -260 88t-99 233zM274 299q0 -64 50.5 -101.5 t136.5 -37.5q123 0 203.5 77t80.5 197v4h-210q-89 0 -138 -9t-78 -32q-45 -29 -45 -98zM311 1309q0 92 65 157.5t156 65.5q90 0 157 -65t67 -158q0 -91 -66 -156.5t-158 -65.5q-91 0 -156 66t-65 156zM426 1311q0 -46 31 -77.5t75 -31.5q47 0 77 31.5t30 77.5t-29 75t-78 29 q-47 0 -76.5 -29t-29.5 -75z" />
<glyph unicode="&#xe6;" horiz-adv-x="1712" d="M61 301q0 58 18 104.5t45 77t68.5 52.5t80 33.5t89 18t84 8t76.5 1.5h228v39q0 99 -57.5 154t-157.5 55q-166 0 -283 -158l-154 129q169 213 449 213q122 0 209.5 -43.5t128.5 -126.5q56 79 133 120.5t188 41.5q112 0 197 -37t135.5 -102.5t75 -149.5t24.5 -184 q0 -57 -6 -109h-688q19 -262 258 -262q154 0 256 111l150 -127q-89 -92 -186.5 -132t-219.5 -40q-276 0 -377 200h-22q-129 -206 -371 -206q-177 0 -274 88.5t-97 230.5zM276 297q0 -61 48.5 -99t134.5 -38q121 0 198.5 73.5t92.5 194.5v14h-215q-259 0 -259 -145zM944 592 h498q2 54 -23 110q-25 62 -83 102t-142 40q-118 0 -184 -74.5t-66 -177.5z" />
<glyph unicode="&#xe7;" horiz-adv-x="1021" d="M72 502q0 102 29.5 194.5t86.5 167.5t150 119.5t209 44.5q149 0 260 -73t168 -218l-201 -78q-25 86 -85 135.5t-142 49.5q-88 0 -148.5 -50t-86 -124.5t-25.5 -167.5q0 -68 15 -127t45 -106.5t82 -75t120 -27.5q80 0 140 49t83 133l193 -74q-49 -137 -155.5 -213 t-248.5 -79l-67 -93q69 -13 110 -34q96 -55 96 -162q0 -94 -62.5 -156.5t-160.5 -62.5q-106 0 -178 75l68 103q50 -55 114 -55q44 0 70.5 24.5t26.5 67.5t-31.5 69.5t-81.5 36.5q-65 10 -137 10l114 187q-120 24 -205 101t-125 182t-40 227z" />
<glyph unicode="&#xe8;" horiz-adv-x="1071" d="M74 500q0 104 28.5 197t84.5 168t147.5 119t208.5 44q114 0 203 -40.5t143 -110t82 -158t28 -189.5q0 -46 -6 -92h-708q6 -124 77.5 -195t198.5 -71q156 0 258 115l148 -127q-86 -93 -184 -135.5t-224 -42.5q-98 0 -178.5 27.5t-136.5 75.5t-95 113.5t-57 141.5t-18 160z M186 1427h226l213 -290h-160zM285 600h512v12q-3 108 -72.5 174t-181.5 66q-117 0 -183.5 -73.5t-74.5 -178.5z" />
<glyph unicode="&#xe9;" horiz-adv-x="1071" d="M74 500q0 104 28.5 197t84.5 168t147.5 119t208.5 44q114 0 203 -40.5t143 -110t82 -158t28 -189.5q0 -46 -6 -92h-708q6 -124 77.5 -195t198.5 -71q156 0 258 115l148 -127q-86 -93 -184 -135.5t-224 -42.5q-98 0 -178.5 27.5t-136.5 75.5t-95 113.5t-57 141.5t-18 160z M285 600h512v12q-3 108 -72.5 174t-181.5 66q-117 0 -183.5 -73.5t-74.5 -178.5zM467 1137l225 290h228l-295 -290h-158z" />
<glyph unicode="&#xea;" horiz-adv-x="1071" d="M74 500q0 104 28.5 197t84.5 168t147.5 119t208.5 44q114 0 203 -40.5t143 -110t82 -158t28 -189.5q0 -46 -6 -92h-708q6 -124 77.5 -195t198.5 -71q156 0 258 115l148 -127q-86 -93 -184 -135.5t-224 -42.5q-98 0 -178.5 27.5t-136.5 75.5t-95 113.5t-57 141.5t-18 160z M229 1112l316 346l315 -346h-166l-149 166l-148 -166h-168zM285 600h512v12q-3 108 -72.5 174t-181.5 66q-117 0 -183.5 -73.5t-74.5 -178.5z" />
<glyph unicode="&#xeb;" horiz-adv-x="1071" d="M74 500q0 104 28.5 197t84.5 168t147.5 119t208.5 44q114 0 203 -40.5t143 -110t82 -158t28 -189.5q0 -46 -6 -92h-708q6 -124 77.5 -195t198.5 -71q156 0 258 115l148 -127q-86 -93 -184 -135.5t-224 -42.5q-98 0 -178.5 27.5t-136.5 75.5t-95 113.5t-57 141.5t-18 160z M256 1206v221h193v-221h-193zM285 600h512v12q-3 108 -72.5 174t-181.5 66q-117 0 -183.5 -73.5t-74.5 -178.5zM645 1206v221h193v-221h-193z" />
<glyph unicode="&#xec;" horiz-adv-x="526" d="M-96 1427h225l213 -290h-160zM158 0v1010h211v-1010h-211z" />
<glyph unicode="&#xed;" horiz-adv-x="526" d="M158 0v1010h211v-1010h-211zM184 1137l226 290h227l-295 -290h-158z" />
<glyph unicode="&#xee;" horiz-adv-x="526" d="M-53 1112l315 346l316 -346h-166l-150 166l-147 -166h-168zM158 0v1010h211v-1010h-211z" />
<glyph unicode="&#xef;" horiz-adv-x="526" d="M-27 1206v221h193v-221h-193zM158 0v1010h211v-1010h-211zM362 1206v221h193v-221h-193z" />
<glyph unicode="&#xf0;" horiz-adv-x="1208" d="M66 451q0 123 45 231t120 181t173 115t204 42q177 0 299 -107q-6 180 -102 287l-342 -96l-27 96l273 76q-126 74 -312 80l17 141q318 -20 491 -166l158 45l29 -96l-107 -31q135 -177 135 -504q0 -160 -39.5 -297.5t-113.5 -240t-187.5 -161t-253.5 -58.5 q-213 0 -336.5 129t-123.5 334zM262 453q0 -135 79 -209t198 -74q83 0 153.5 33.5t115.5 87.5t71.5 119.5t29.5 132.5q2 45 -7 88t-30 82.5t-52.5 69.5t-79 47.5t-105.5 17.5q-88 0 -160.5 -34t-118 -90t-70 -126t-24.5 -145z" />
<glyph unicode="&#xf1;" horiz-adv-x="1165" d="M158 0v1010h211v-125q52 71 133.5 107t181.5 36q167 0 256.5 -100.5t89.5 -286.5v-641h-211v588q0 41 -3.5 73t-15.5 68t-32.5 59.5t-57.5 39.5t-87 16q-63 0 -109.5 -24t-74 -62.5t-43.5 -96t-21.5 -114t-5.5 -127.5v-420h-211zM250 1159q0 130 56 202.5t153 72.5 q40 0 74 -16t57 -38.5t43.5 -45t42.5 -38.5t45 -16q32 0 52 39t20 108h129q0 -132 -54.5 -205t-148.5 -73q-45 0 -81 16t-59 38.5t-42.5 45t-41 38.5t-44.5 16q-37 0 -57.5 -37.5t-20.5 -106.5h-123z" />
<glyph unicode="&#xf2;" horiz-adv-x="1134" d="M68 506q0 146 60.5 264t175 188t263.5 70q148 0 262.5 -70t175 -188t60.5 -264q0 -145 -60.5 -263.5t-175 -189.5t-262.5 -71q-149 0 -264 71t-175 189.5t-60 263.5zM209 1427h225l213 -290h-160zM279 506q0 -148 73.5 -244t214.5 -96t214 96.5t73 243.5q0 148 -73.5 243 t-213.5 95q-141 0 -214.5 -95t-73.5 -243z" />
<glyph unicode="&#xf3;" horiz-adv-x="1134" d="M68 506q0 146 60.5 264t175 188t263.5 70q148 0 262.5 -70t175 -188t60.5 -264q0 -145 -60.5 -263.5t-175 -189.5t-262.5 -71q-149 0 -264 71t-175 189.5t-60 263.5zM279 506q0 -148 73.5 -244t214.5 -96t214 96.5t73 243.5q0 148 -73.5 243t-213.5 95q-141 0 -214.5 -95 t-73.5 -243zM487 1137l226 290h227l-295 -290h-158z" />
<glyph unicode="&#xf4;" horiz-adv-x="1134" d="M68 506q0 146 60.5 264t175 188t263.5 70q148 0 262.5 -70t175 -188t60.5 -264q0 -145 -60.5 -263.5t-175 -189.5t-262.5 -71q-149 0 -264 71t-175 189.5t-60 263.5zM252 1112l315 346l316 -346h-166l-150 166l-147 -166h-168zM279 506q0 -148 73.5 -244t214.5 -96 t214 96.5t73 243.5q0 148 -73.5 243t-213.5 95q-141 0 -214.5 -95t-73.5 -243z" />
<glyph unicode="&#xf5;" horiz-adv-x="1134" d="M68 506q0 146 60.5 264t175 188t263.5 70q148 0 262.5 -70t175 -188t60.5 -264q0 -145 -60.5 -263.5t-175 -189.5t-262.5 -71q-149 0 -264 71t-175 189.5t-60 263.5zM229 1159q0 130 56 202.5t153 72.5q40 0 74 -16t57 -38.5t43.5 -45t42.5 -38.5t45 -16q32 0 52 39 t20 108h129q0 -132 -54.5 -205t-148.5 -73q-45 0 -81 16t-59 38.5t-42.5 45t-41 38.5t-44.5 16q-37 0 -57.5 -37.5t-20.5 -106.5h-123zM279 506q0 -148 73.5 -244t214.5 -96t214 96.5t73 243.5q0 148 -73.5 243t-213.5 95q-141 0 -214.5 -95t-73.5 -243z" />
<glyph unicode="&#xf6;" horiz-adv-x="1134" d="M68 506q0 146 60.5 264t175 188t263.5 70q148 0 262.5 -70t175 -188t60.5 -264q0 -145 -60.5 -263.5t-175 -189.5t-262.5 -71q-149 0 -264 71t-175 189.5t-60 263.5zM276 1206v221h193v-221h-193zM279 506q0 -148 73.5 -244t214.5 -96t214 96.5t73 243.5q0 148 -73.5 243 t-213.5 95q-141 0 -214.5 -95t-73.5 -243zM666 1206v221h192v-221h-192z" />
<glyph unicode="&#xf7;" horiz-adv-x="1030" d="M104 549v176h822v-176h-822zM399 145v252h232v-252h-232zM399 872v252h232v-252h-232z" />
<glyph unicode="&#xf8;" horiz-adv-x="1134" d="M68 506q0 146 60.5 264t175 188t263.5 70q114 0 211 -43l72 117h160l-117 -191q83 -70 127.5 -175.5t44.5 -229.5q0 -145 -60.5 -263.5t-175 -189.5t-262.5 -71q-117 0 -215 45l-73 -119h-158l117 192q-82 72 -126 177.5t-44 228.5zM279 506q0 -146 65 -234l336 551 q-58 21 -113 21q-141 0 -214.5 -95t-73.5 -243zM451 188q52 -22 116 -22q141 0 214 96.5t73 243.5q0 139 -66 233z" />
<glyph unicode="&#xf9;" horiz-adv-x="1163" d="M133 383v627h211v-574q0 -39 2.5 -68.5t14 -70t31 -67t58.5 -45.5t93 -19q63 0 110 26t73.5 66t42.5 100t21 116t5 126v410h211v-1010h-211v127q-52 -72 -134 -108.5t-178 -36.5q-176 0 -263 110t-87 291zM211 1427h225l213 -290h-160z" />
<glyph unicode="&#xfa;" horiz-adv-x="1163" d="M133 383v627h211v-574q0 -39 2.5 -68.5t14 -70t31 -67t58.5 -45.5t93 -19q63 0 110 26t73.5 66t42.5 100t21 116t5 126v410h211v-1010h-211v127q-52 -72 -134 -108.5t-178 -36.5q-176 0 -263 110t-87 291zM489 1137l226 290h227l-295 -290h-158z" />
<glyph unicode="&#xfb;" horiz-adv-x="1163" d="M133 383v627h211v-574q0 -39 2.5 -68.5t14 -70t31 -67t58.5 -45.5t93 -19q63 0 110 26t73.5 66t42.5 100t21 116t5 126v410h211v-1010h-211v127q-52 -72 -134 -108.5t-178 -36.5q-176 0 -263 110t-87 291zM254 1112l315 346l316 -346h-166l-150 166l-147 -166h-168z" />
<glyph unicode="&#xfc;" horiz-adv-x="1163" d="M133 383v627h211v-574q0 -39 2.5 -68.5t14 -70t31 -67t58.5 -45.5t93 -19q63 0 110 26t73.5 66t42.5 100t21 116t5 126v410h211v-1010h-211v127q-52 -72 -134 -108.5t-178 -36.5q-176 0 -263 110t-87 291zM279 1206v221h192v-221h-192zM668 1206v221h192v-221h-192z" />
<glyph unicode="&#xfd;" horiz-adv-x="1038" d="M6 1010h232l286 -744l275 744h231l-567 -1428h-227l176 441zM440 1137l226 290h227l-295 -290h-158z" />
<glyph unicode="&#xfe;" d="M160 -418v1845h211v-530q52 67 132 100t173 33q203 0 318.5 -145.5t115.5 -380.5q0 -239 -118 -380.5t-316 -141.5q-94 0 -176 36t-129 97v-533h-211zM352 506q0 -153 70.5 -246.5t206.5 -93.5q132 0 201 90.5t69 249.5q0 162 -69 250t-201 88q-136 0 -206.5 -91 t-70.5 -247z" />
<glyph unicode="&#xff;" horiz-adv-x="1038" d="M6 1010h232l286 -744l275 744h231l-567 -1428h-227l176 441zM229 1206v221h193v-221h-193zM618 1206v221h193v-221h-193z" />
<glyph unicode="&#x152;" horiz-adv-x="2297" d="M98 713q0 328 185.5 530.5t486.5 202.5q285 0 467 -182v163h946v-202h-727v-391h668v-203h-668v-428h727v-203h-946v164q-182 -182 -467 -182q-198 0 -351 91.5t-237 257.5t-84 382zM317 713q0 -239 123 -381t330 -142t330 142.5t123 380.5q0 239 -123 381.5t-330 142.5 t-330 -141.5t-123 -382.5z" />
<glyph unicode="&#x153;" horiz-adv-x="1875" d="M66 506q0 143 63 262t180 189.5t266 70.5q122 0 223.5 -48.5t170.5 -133.5q61 85 157 133.5t222 48.5q99 0 179 -30.5t130.5 -80t84.5 -115.5t48 -132t14 -135t-8 -97h-709q14 -126 83 -196t194 -70q153 0 260 115l145 -127q-85 -92 -182 -135t-223 -43q-263 0 -397 182 q-69 -86 -170 -134t-222 -48q-149 0 -266 71t-180 190.5t-63 262.5zM287 506q0 -146 74 -244t214 -98t214.5 98t74.5 244q0 147 -74 243.5t-215 96.5t-214.5 -96.5t-73.5 -243.5zM1090 598h507q0 31 -6 55q-18 90 -82 143.5t-163 53.5q-213 0 -256 -252z" />
<glyph unicode="&#x178;" horiz-adv-x="1337" d="M16 1427h258l392 -663l395 663h260l-541 -874v-553h-221v553zM379 1624v221h192v-221h-192zM768 1624v221h193v-221h-193z" />
<glyph unicode="&#x2c6;" horiz-adv-x="679" d="M25 1112l315 346l315 -346h-166l-149 166l-147 -166h-168z" />
<glyph unicode="&#x2dc;" horiz-adv-x="894" d="M111 1159q0 130 55.5 202.5t152.5 72.5q40 0 74 -16t57.5 -38.5t44 -45t42.5 -38.5t45 -16q32 0 51.5 39t19.5 108h129q0 -132 -54.5 -205t-147.5 -73q-45 0 -81.5 16t-59.5 38.5t-42.5 45t-41 38.5t-44.5 16q-37 0 -57.5 -37.5t-20.5 -106.5h-122z" />
<glyph unicode="&#x2000;" horiz-adv-x="938" />
<glyph unicode="&#x2001;" horiz-adv-x="1876" />
<glyph unicode="&#x2002;" horiz-adv-x="938" />
<glyph unicode="&#x2003;" horiz-adv-x="1876" />
<glyph unicode="&#x2004;" horiz-adv-x="625" />
<glyph unicode="&#x2005;" horiz-adv-x="469" />
<glyph unicode="&#x2006;" horiz-adv-x="312" />
<glyph unicode="&#x2007;" horiz-adv-x="312" />
<glyph unicode="&#x2008;" horiz-adv-x="234" />
<glyph unicode="&#x2009;" horiz-adv-x="375" />
<glyph unicode="&#x200a;" horiz-adv-x="104" />
<glyph unicode="&#x2010;" horiz-adv-x="878" d="M152 535v157h575v-157h-575z" />
<glyph unicode="&#x2011;" horiz-adv-x="878" d="M152 535v157h575v-157h-575z" />
<glyph unicode="&#x2012;" horiz-adv-x="878" d="M152 535v157h575v-157h-575z" />
<glyph unicode="&#x2013;" horiz-adv-x="1062" d="M152 535v157h759v-157h-759z" />
<glyph unicode="&#x2014;" horiz-adv-x="2068" d="M0 535v157h2068v-157h-2068z" />
<glyph unicode="&#x2018;" horiz-adv-x="581" d="M68 850l262 577h141l-160 -577h-243z" />
<glyph unicode="&#x2019;" horiz-adv-x="583" d="M111 852l157 575h244l-262 -575h-139z" />
<glyph unicode="&#x201a;" horiz-adv-x="583" d="M111 -309l157 575h244l-262 -575h-139z" />
<glyph unicode="&#x201c;" horiz-adv-x="960" d="M68 850l262 577h141l-160 -577h-243zM444 850l263 577h141l-160 -577h-244z" />
<glyph unicode="&#x201d;" horiz-adv-x="960" d="M111 852l157 575h244l-262 -575h-139zM487 852l158 575h246l-264 -575h-140z" />
<glyph unicode="&#x201e;" horiz-adv-x="976" d="M111 -309l157 575h244l-262 -575h-139zM506 -309l158 575h243l-262 -575h-139z" />
<glyph unicode="&#x2022;" horiz-adv-x="798" d="M160 485q0 100 70 171t169 71q100 0 170 -71t70 -171q0 -99 -70.5 -169t-169.5 -70t-169 70t-70 169z" />
<glyph unicode="&#x2026;" horiz-adv-x="1497" d="M217 0v252h227v-252h-227zM635 0v252h227v-252h-227zM1053 0v252h227v-252h-227z" />
<glyph unicode="&#x202f;" horiz-adv-x="375" />
<glyph unicode="&#x2039;" horiz-adv-x="606" d="M33 516l422 354v-184l-207 -170l207 -170v-184z" />
<glyph unicode="&#x203a;" horiz-adv-x="606" d="M147 162v184l207 170l-207 170v184l422 -354z" />
<glyph unicode="&#x205f;" horiz-adv-x="469" />
<glyph unicode="&#x20ac;" horiz-adv-x="1443" d="M125 498l2 143h104q-2 25 -2 78q0 32 4 90h-104v141h129q58 228 228 362t423 134q260 0 418 -125l-115 -182q-118 100 -303 100q-157 0 -266 -77.5t-158 -211.5h590l-2 -141h-620q-7 -51 -7 -90q0 -15 5 -78h622l-2 -143h-592q47 -144 156.5 -226t271.5 -82 q187 0 310 105l114 -182q-166 -131 -424 -131q-257 0 -427.5 139.5t-225.5 376.5h-129z" />
<glyph unicode="&#x2122;" horiz-adv-x="1538" d="M143 1305v122h432v-122h-147v-420h-133v420h-152zM688 885v542h217l92 -340l93 340h213v-542h-134v405l-129 -393h-84l-135 393v-405h-133z" />
<glyph unicode="&#x25fc;" horiz-adv-x="1013" d="M0 0v1014h1014v-1014h-1014z" />
<glyph unicode="&#xfb03;" horiz-adv-x="1689" d="M18 840v170h168v77q0 163 120 261t294 98q162 0 289 -84q110 84 272 84q213 0 365 -100l-99 -150q-116 80 -256 80q-101 0 -151.5 -50.5t-50.5 -144.5v-71h569v-1010h-211v840h-358v-840h-211v840h-361v-840h-211v840h-168zM397 1010h361v75q0 83 30 144q-76 47 -178 47 q-104 0 -158.5 -51.5t-54.5 -139.5v-75z" />
<glyph unicode="&#xfb04;" horiz-adv-x="1744" d="M18 840v170h168v77q0 163 120 261t294 98q166 0 287 -82q114 82 274 82q114 0 202 -25.5t175 -81.5v-1083q0 -82 78 -82q40 0 86 14v-178q-103 -28 -166 -28q-98 0 -153.5 53t-55.5 164v1046q-81 31 -156 31q-101 0 -151.5 -50.5t-50.5 -144.5v-71h205v-170h-205v-840 h-211v840h-361v-840h-211v840h-168zM397 1010h361v75q0 83 28 144q-73 47 -176 47q-104 0 -158.5 -51.5t-54.5 -139.5v-75z" />
</font>
</defs>
</svg>
