<?xml version="1.0" standalone="no"?>
<!DOCTYPE svg PUBLIC "-//W3C//DTD SVG 1.1//EN" "http://www.w3.org/Graphics/SVG/1.1/DTD/svg11.dtd" >
<svg xmlns="http://www.w3.org/2000/svg" xmlns:xlink="http://www.w3.org/1999/xlink" version="1.1">
<metadata></metadata>
<defs>
<font id="hk_groteskregular" horiz-adv-x="1161" >
<font-face units-per-em="2048" ascent="1638" descent="-410" />
<missing-glyph horiz-adv-x="559" />
<glyph unicode="&#xfb01;" horiz-adv-x="1058" d="M35 891v119h174v82q0 172 101 262t259 90q174 0 314 -96l-68 -99q-108 78 -240 78q-225 0 -225 -237v-80h533v-1010h-142v891h-391v-891h-141v891h-174z" />
<glyph unicode="&#xfb02;" horiz-adv-x="1118" d="M35 891v119h168v82q0 172 97.5 262t250.5 90q95 0 166.5 -21t165.5 -77v-1117q0 -69 23.5 -92.5t72.5 -23.5q40 0 96 18v-121q-91 -26 -139 -26q-193 0 -193 249v1041q-80 53 -186 53q-213 0 -213 -237v-80h223l-2 -119h-221v-891h-141v891h-168z" />
<glyph horiz-adv-x="0" />
<glyph horiz-adv-x="682" />
<glyph unicode=" "  horiz-adv-x="559" />
<glyph unicode="&#x09;" horiz-adv-x="559" />
<glyph unicode="&#xa0;" horiz-adv-x="559" />
<glyph unicode="!" horiz-adv-x="661" d="M240 0v225h182v-225h-182zM260 1427h141l-16 -1024h-109z" />
<glyph unicode="&#x22;" horiz-adv-x="886" d="M221 944v483h121v-483h-121zM545 944v483h121v-483h-121z" />
<glyph unicode="#" horiz-adv-x="1443" d="M121 432v103h272l80 383h-266v106h287l90 403h112l-86 -407h351l86 407h112l-88 -407h254v-102h-276l-80 -383h272v-103h-293l-92 -432h-113l91 432h-353l-88 -432h-112l90 432h-250zM506 535h352l78 383h-350z" />
<glyph unicode="$" horiz-adv-x="1273" d="M152 381l145 35q21 -147 119 -223t239 -76q140 0 226 75t86 189q0 59 -25 106t-67 79.5t-97 59.5t-115.5 50.5t-120.5 48t-115 56t-97 71t-67 97t-25 128.5q0 147 96.5 245.5t245.5 117.5v215h129v-215q224 -22 342 -228l-123 -75q-95 176 -289 176q-109 0 -182.5 -65.5 t-73.5 -164.5q0 -67 40.5 -118t105 -83.5t142 -61.5t155.5 -63.5t142.5 -78.5t105 -116.5t40.5 -168.5q0 -164 -112.5 -274.5t-286.5 -128.5v-223l-129 -3v226q-168 18 -287 120t-147 271z" />
<glyph unicode="%" horiz-adv-x="1550" d="M143 1120q0 84 29 156t91.5 120t146.5 48q118 0 194 -93t76 -233q0 -137 -74.5 -228t-189.5 -91q-86 0 -149.5 47t-93.5 118.5t-30 155.5zM242 1120q0 -92 44 -157.5t130 -65.5q72 0 119 62t47 159t-46 162.5t-126 65.5q-83 0 -125.5 -66.5t-42.5 -159.5zM319 0l807 1427 h103l-805 -1427h-105zM870 307q0 83 29 154.5t91.5 119.5t146.5 48q118 0 194 -92.5t76 -231.5t-74.5 -230t-189.5 -91q-87 0 -150.5 48t-93 120t-29.5 155zM969 307q0 -93 44 -159t130 -66q73 0 119.5 63t46.5 160q0 96 -45.5 160.5t-126.5 64.5q-82 0 -125 -65.5 t-43 -157.5z" />
<glyph unicode="&#x26;" horiz-adv-x="1447" d="M143 328q0 65 20.5 122t51.5 98.5t81 82t95 67.5t107 60q-88 98 -123 154q-70 108 -70 202q0 145 109 236.5t262 91.5q146 0 248 -95t102 -231q0 -56 -18.5 -106t-46.5 -87.5t-73.5 -75t-87 -63t-100.5 -57.5l318 -365q81 146 90 332l137 -14q-18 -248 -139 -422 l207 -238l-101 -86l-190 224q-180 -174 -440 -174q-195 0 -317 92t-122 252zM281 326q0 -103 80.5 -162.5t216.5 -59.5q216 0 360 150l-352 412q-56 -30 -95 -53.5t-81.5 -56.5t-68.5 -65.5t-43 -75t-17 -89.5zM442 1112q0 -16 3.5 -33.5t8.5 -33t15 -35t17.5 -33t21.5 -33 t21.5 -30t23 -29.5t20.5 -25.5t20.5 -24t16.5 -18.5q54 28 89.5 48.5t76.5 50t64 57t39 64.5t16 77q0 90 -61 152.5t-158 62.5q-101 0 -167.5 -60t-66.5 -157z" />
<glyph unicode="'" horiz-adv-x="563" d="M221 973v454h121v-454h-121z" />
<glyph unicode="(" horiz-adv-x="589" d="M147 713q0 235 62 440t176 340h131q-132 -162 -194 -365.5t-62 -418.5q0 -223 65 -422.5t189 -354.5h-127q-109 122 -174.5 348t-65.5 433z" />
<glyph unicode=")" horiz-adv-x="589" d="M74 1493h131q115 -137 176 -340t61 -440q0 -207 -65 -433t-174 -348h-127q124 155 189 355t65 422q0 217 -63 421t-193 363z" />
<glyph unicode="*" horiz-adv-x="940" d="M164 1157l45 135l221 -98l-33 233h142l-33 -233l221 98l45 -135l-244 -37l170 -186l-116 -82l-115 233l-117 -233l-114 82l170 186z" />
<glyph unicode="+" horiz-adv-x="1308" d="M137 573v119h459v459h119v-459h456v-119h-456v-458h-119v458h-459z" />
<glyph unicode="," horiz-adv-x="675" d="M168 -317l184 581h183l-271 -581h-96z" />
<glyph unicode="-" horiz-adv-x="899" d="M176 573v109h547v-109h-547z" />
<glyph unicode="." horiz-adv-x="696" d="M256 0v225h184v-225h-184z" />
<glyph unicode="/" horiz-adv-x="903" d="M18 -432l732 1859h135l-733 -1859h-134z" />
<glyph unicode="0" d="M133 713q0 733 442 733q99 0 177 -39.5t129.5 -107t85.5 -162t48.5 -200t14.5 -226.5q0 -120 -14 -224.5t-47 -198t-83 -160t-125.5 -105.5t-170.5 -39q-79 0 -145 23t-112.5 62.5t-82 96t-57.5 119t-36 137.5t-19 144.5t-5 146.5zM279 713q0 -80 5 -147.5t17 -138 t34.5 -123.5t55 -96t82.5 -66t113 -23q293 0 293 594q0 104 -8.5 189t-29.5 163t-55 130.5t-87.5 84t-123.5 31.5q-61 0 -108.5 -22.5t-79.5 -65.5t-53.5 -96t-33.5 -124t-16.5 -139.5t-4.5 -150.5z" />
<glyph unicode="1" d="M252 1067v131h237q58 0 88.5 24.5t30.5 84.5v120h142v-1427h-142v1067h-356z" />
<glyph unicode="2" d="M84 0v131q86 54 149.5 95.5t149.5 104.5t148.5 118t128.5 126t107.5 138.5t68 146.5t26.5 158q0 133 -74 211t-210 78q-156 0 -236 -100.5t-82 -262.5l-139 10q0 139 52 248t157 174.5t248 65.5q193 0 310.5 -114t117.5 -312q0 -106 -37.5 -210.5t-99.5 -192.5 t-152.5 -176t-186 -159.5t-211.5 -144.5h752v-133h-987z" />
<glyph unicode="3" d="M68 426l139 8q0 -147 100 -231t264 -84q157 0 257 80t100 219q0 58 -18.5 104t-52.5 75t-73.5 48.5t-91.5 29.5t-96 13.5t-96 3.5v119q162 0 257 63.5t95 192.5q0 118 -77 180t-197 62q-136 0 -219.5 -72t-84.5 -199l-137 11q0 180 122 287.5t312 107.5q114 0 209 -41.5 t154 -125t59 -194.5q0 -121 -64 -206.5t-151 -114.5q126 -23 208.5 -115t82.5 -241q0 -129 -67 -226.5t-179.5 -146.5t-253.5 -49q-144 0 -256 50t-178.5 151.5t-66.5 240.5z" />
<glyph unicode="4" d="M37 340v92l725 995h131v-952h231v-135h-231v-340h-141v340h-715zM225 475h527v739z" />
<glyph unicode="5" d="M90 395l139 23q24 -132 117 -215.5t229 -83.5q154 0 250.5 106.5t96.5 257.5q0 146 -89.5 243t-240.5 97q-194 0 -313 -172l-144 39l129 737h740v-135h-623l-82 -463q133 125 309 125q199 0 331 -136.5t132 -334.5q0 -134 -64 -248.5t-178.5 -182.5t-253.5 -68 q-189 0 -321 117t-164 294z" />
<glyph unicode="6" d="M96 457q0 132 74 254l430 716h160l-330 -536q128 47 252 24q164 -30 274.5 -158.5t110.5 -297.5q0 -128 -65 -237.5t-176.5 -173.5t-243.5 -64q-131 0 -243 63.5t-177.5 172.5t-65.5 237zM240 459q0 -140 100 -240t242 -100q141 0 241.5 100t100.5 240 q0 139 -100.5 238.5t-241.5 99.5t-241.5 -99.5t-100.5 -238.5z" />
<glyph unicode="7" d="M66 1292v135h1021v-88l-696 -1339h-160l682 1292h-847z" />
<glyph unicode="8" d="M98 403q0 134 71 233t196 140q-86 42 -136.5 123.5t-50.5 185.5q0 109 60 192.5t151 125t195 41.5q169 0 285 -102t116 -265q0 -102 -51 -182t-135 -119q123 -41 192.5 -140t69.5 -233q0 -82 -26.5 -151t-72 -118t-106.5 -83t-130.5 -50.5t-143.5 -16.5 q-93 0 -178.5 26.5t-154.5 77t-110 132t-41 183.5zM240 414q0 -141 98.5 -218t243.5 -77q93 0 168.5 32t123.5 100t48 163q0 138 -94.5 221.5t-245.5 83.5q-152 0 -247 -83.5t-95 -221.5zM319 1073q0 -117 73.5 -186.5t191.5 -69.5q116 0 189 68.5t73 181.5q0 106 -73.5 174 t-188.5 68q-110 0 -187.5 -64.5t-77.5 -171.5z" />
<glyph unicode="9" d="M94 969q0 128 65 237.5t177 173.5t244 64q131 0 242.5 -63.5t177 -172.5t65.5 -237q0 -132 -74 -254l-430 -717h-160l330 537q-130 -47 -252 -25q-164 30 -274.5 158.5t-110.5 298.5zM238 969q0 -139 100.5 -238.5t241.5 -99.5t241.5 99.5t100.5 238.5q0 140 -100 240 t-242 100q-141 0 -241.5 -100t-100.5 -240z" />
<glyph unicode=":" horiz-adv-x="702" d="M260 0v225h182v-225h-182zM260 739v226h182v-226h-182z" />
<glyph unicode=";" horiz-adv-x="692" d="M121 -317l184 581h182l-270 -581h-96zM309 739v226h185v-226h-185z" />
<glyph unicode="&#x3c;" horiz-adv-x="1320" d="M113 616l1007 576l54 -94l-842 -482l842 -479l-54 -94z" />
<glyph unicode="=" horiz-adv-x="1347" d="M276 420v121h795v-121h-795zM276 819v119h795v-119h-795z" />
<glyph unicode="&#x3e;" horiz-adv-x="1320" d="M147 137l840 479l-840 482l54 94l1007 -576l-1007 -573z" />
<glyph unicode="?" horiz-adv-x="1083" d="M109 1042q0 186 113.5 294t301.5 108q193 0 312.5 -100t119.5 -279q0 -73 -20 -130t-52 -92t-70.5 -63t-77 -49.5t-70.5 -43.5t-52 -52.5t-20 -69.5v-166h-121v168q0 62 19.5 109t51.5 76t70 52.5t76 46t70 49t51.5 69t19.5 98.5q0 125 -80.5 191.5t-222.5 66.5 q-140 0 -216.5 -75t-78.5 -208h-124zM442 0v225h185v-225h-185z" />
<glyph unicode="@" horiz-adv-x="2148" d="M166 524q0 260 115 471t326 333t478 122q265 0 472 -120t317.5 -322t110.5 -449q0 -95 -17 -184t-54.5 -170t-90.5 -141.5t-130.5 -96t-170.5 -35.5q-100 0 -159.5 55t-66.5 163q-5 57 -2 126q-65 -102 -158.5 -162.5t-205.5 -60.5q-152 0 -234 103t-82 268 q0 82 20 169.5t62.5 171.5t100.5 149.5t140.5 106t176.5 40.5q113 0 183 -57t92 -162l34 168l117 -2q-13 -67 -51.5 -234t-66 -306t-33.5 -230q-6 -93 22 -141t107 -48q91 0 162 44.5t112 119t61.5 163t20.5 185.5q0 162 -57 305t-158.5 248t-250.5 166t-323 61 q-176 0 -327.5 -62.5t-256 -171t-163.5 -259t-59 -322.5q0 -178 63 -324.5t171 -242.5t250.5 -148.5t303.5 -52.5q140 0 270 45l39 -106q-143 -53 -311 -53q-185 0 -348.5 61.5t-285.5 172.5t-193.5 278.5t-71.5 367.5zM723 420q0 -120 55 -186t162 -66q77 0 144 33.5 t113.5 88.5t80 124.5t49.5 142t16 141.5q0 120 -53.5 184t-161.5 64q-96 0 -175.5 -50t-128 -129t-75 -169.5t-26.5 -177.5z" />
<glyph unicode="A" horiz-adv-x="1335" d="M74 0l532 1427h121l535 -1427h-162l-135 383h-594l-138 -383h-159zM414 508h506l-252 713z" />
<glyph unicode="B" horiz-adv-x="1306" d="M233 0v1427h439q201 0 313.5 -93.5t112.5 -262.5q0 -110 -49 -191.5t-140 -119.5q127 -32 194.5 -125t67.5 -236q0 -192 -118 -295.5t-338 -103.5h-482zM379 135h326q154 0 236.5 71.5t82.5 205.5q0 126 -74 196t-207 70h-364v-543zM379 805h321q118 0 185 64.5t67 177.5 q0 117 -73 181t-207 64h-293v-487z" />
<glyph unicode="C" horiz-adv-x="1492" d="M139 717q0 341 175.5 534t484.5 193q215 0 363.5 -97.5t223.5 -289.5l-135 -51q-113 299 -452 299q-246 0 -380 -153.5t-134 -434.5q0 -283 132 -438.5t371 -155.5q168 0 285.5 77.5t177.5 227.5l140 -51q-79 -192 -234 -292.5t-369 -100.5q-304 0 -476.5 195t-172.5 538 z" />
<glyph unicode="D" horiz-adv-x="1484" d="M233 0v1427h388q348 0 538.5 -189.5t190.5 -535.5q0 -341 -188.5 -521.5t-543.5 -180.5h-385zM379 135h227q299 0 447.5 142.5t148.5 431.5q0 290 -147 436.5t-437 146.5h-239v-1157z" />
<glyph unicode="E" horiz-adv-x="1294" d="M233 0v1427h936v-135h-790v-497h711v-136h-711v-524h790v-135h-936z" />
<glyph unicode="F" horiz-adv-x="1286" d="M233 0v1427h969v-135h-823v-497h721v-136h-721v-659h-146z" />
<glyph unicode="G" horiz-adv-x="1568" d="M139 717q0 159 42 291t123 229.5t207.5 152t287.5 54.5q221 0 368 -100.5t219 -286.5l-135 -51q-113 299 -452 299q-251 0 -382.5 -156.5t-131.5 -425.5q0 -103 18 -191.5t57.5 -164.5t97.5 -129.5t142 -84t188 -30.5q95 0 176 25.5t146 78t102 141t37 205.5v45h-344v119 h481v-737h-116l-21 223q-58 -115 -182 -177t-289 -62q-203 0 -349 96t-218 260t-72 377z" />
<glyph unicode="H" horiz-adv-x="1501" d="M233 0v1427h146v-630h741v630h148v-1427h-148v659h-741v-659h-146z" />
<glyph unicode="I" horiz-adv-x="612" d="M233 0v1427h146v-1427h-146z" />
<glyph unicode="J" horiz-adv-x="1196" d="M82 418l143 16q10 -150 92 -231.5t222 -81.5q305 0 305 397v774h-578v135h723v-917q0 -252 -117.5 -389t-332.5 -137q-198 0 -320 116t-137 318z" />
<glyph unicode="K" horiz-adv-x="1456" d="M233 0v1427h146v-811l780 811h193l-510 -520l538 -907h-168l-471 805l-362 -373v-432h-146z" />
<glyph unicode="L" horiz-adv-x="1099" d="M233 0v1427h146v-1292h651v-135h-797z" />
<glyph unicode="M" horiz-adv-x="1826" d="M233 0v1427h213l467 -1138l467 1138h213v-1427h-147v1233l-461 -1114h-143l-463 1118v-1237h-146z" />
<glyph unicode="N" horiz-adv-x="1474" d="M233 0v1427h158l705 -1173v1173h145v-1427h-160l-702 1180v-1180h-146z" />
<glyph unicode="O" horiz-adv-x="1581" d="M137 713q0 328 180.5 529.5t473.5 201.5t473 -201.5t180 -529.5q0 -327 -180 -528t-473 -201t-473.5 201t-180.5 528zM283 713q0 -269 138 -429.5t370 -160.5t369.5 160.5t137.5 429.5q0 270 -137.5 431t-369.5 161t-370 -161t-138 -431z" />
<glyph unicode="P" horiz-adv-x="1214" d="M233 0v1427h408q227 0 349 -103.5t122 -295.5q0 -195 -122.5 -300t-348.5 -105h-262v-623h-146zM379 758h248q167 0 252.5 68t85.5 200q0 266 -338 266h-248v-534z" />
<glyph unicode="Q" horiz-adv-x="1605" d="M135 713q0 328 180 529.5t473 201.5t473.5 -201.5t180.5 -529.5q0 -333 -182 -531l208 -205l-94 -88l-213 207q-154 -112 -373 -112q-293 0 -473 201t-180 528zM281 713q0 -269 137.5 -429.5t369.5 -160.5q151 0 271 74l-230 223l99 88l229 -225q139 158 139 430 q0 270 -138 431t-370 161t-369.5 -161t-137.5 -431z" />
<glyph unicode="R" horiz-adv-x="1296" d="M233 0v1427h408q230 0 350.5 -101t120.5 -294q0 -304 -293 -381l389 -651h-170l-364 633h-96h-199v-633h-146zM379 768h248q338 0 338 262t-338 262h-248v-524z" />
<glyph unicode="S" horiz-adv-x="1175" d="M100 381l146 35q20 -138 116.5 -218.5t241.5 -80.5q140 0 225.5 73t85.5 191q0 100 -75.5 168.5t-264.5 140.5q-216 81 -302.5 167.5t-86.5 219.5q0 166 112 266.5t294 100.5q135 0 239 -59t168 -173l-122 -75q-46 84 -121.5 130t-167.5 46q-111 0 -183.5 -66.5 t-72.5 -163.5q0 -88 74 -148.5t249 -127.5q231 -88 319.5 -182t88.5 -232q0 -189 -126.5 -298t-334.5 -109q-198 0 -335.5 107.5t-166.5 287.5z" />
<glyph unicode="T" horiz-adv-x="1275" d="M70 1292v135h1136v-135h-495v-1292h-148v1292h-493z" />
<glyph unicode="U" horiz-adv-x="1431" d="M203 516v911h145v-897q0 -204 90.5 -303.5t276.5 -99.5q187 0 277.5 101.5t90.5 308.5v890h146v-901q0 -265 -131.5 -403.5t-382.5 -138.5q-249 0 -380.5 136.5t-131.5 395.5z" />
<glyph unicode="V" horiz-adv-x="1394" d="M74 1427h162l462 -1200l463 1200h160l-563 -1427h-119z" />
<glyph unicode="W" horiz-adv-x="2021" d="M86 1427h152l344 -1210l364 1135h129l365 -1135l342 1210h153l-413 -1427h-148l-362 1120l-365 -1120h-147z" />
<glyph unicode="X" horiz-adv-x="1355" d="M82 0l496 719l-488 708h176l412 -606l414 606h174l-488 -708l498 -719h-176l-424 612l-418 -612h-176z" />
<glyph unicode="Y" horiz-adv-x="1359" d="M61 1427h172l445 -739l446 739h174l-544 -880v-547h-148v547z" />
<glyph unicode="Z" horiz-adv-x="1327" d="M94 0v111l938 1181h-891v135h1080v-114l-932 -1178h928v-135h-1123z" />
<glyph unicode="[" horiz-adv-x="681" d="M223 -129v1681h381v-96h-266v-1487h266v-98h-381z" />
<glyph unicode="\" horiz-adv-x="935" d="M16 1528h134l770 -1960h-134z" />
<glyph unicode="]" horiz-adv-x="681" d="M78 -31h266v1487h-266v96h381v-1681h-381v98z" />
<glyph unicode="^" horiz-adv-x="1200" d="M127 459l471 1022l475 -1022h-149l-326 749l-319 -749h-152z" />
<glyph unicode="_" horiz-adv-x="1169" d="M176 0h817v-109h-817v109z" />
<glyph unicode="`" horiz-adv-x="516" d="M72 1427h151l213 -288h-110z" />
<glyph unicode="a" horiz-adv-x="1095" d="M90 293q0 155 117 227q58 33 147 47.5t236 14.5h207v47q0 132 -67.5 202t-194.5 70q-186 0 -308 -168l-102 86q160 207 412 207q191 0 296 -104t105 -293v-629h-129l-8 156q-122 -172 -363 -172q-164 0 -256 81.5t-92 227.5zM231 285q0 -85 67 -135t181 -50 q146 0 232 95.5t86 257.5v14h-195q-141 0 -210 -11t-105 -40q-56 -44 -56 -131z" />
<glyph unicode="b" horiz-adv-x="1216" d="M186 0v1427h142v-553q119 154 334 154q209 0 328.5 -141.5t119.5 -380.5q0 -153 -49.5 -269t-152 -184.5t-246.5 -68.5q-215 0 -334 151v-135h-142zM315 506q0 -177 85.5 -287t240.5 -110q157 0 242.5 109.5t85.5 287.5q0 181 -87.5 289t-240.5 108q-151 0 -238.5 -108 t-87.5 -289z" />
<glyph unicode="c" horiz-adv-x="1040" d="M102 502q0 81 17.5 156.5t55 142.5t90.5 117t128 79t164 29q138 0 244.5 -70t165.5 -208l-136 -54q-35 97 -107 152t-167 55q-103 0 -175 -57.5t-104 -145.5t-32 -196t32 -194.5t104.5 -142.5t176.5 -56q96 0 166.5 54t99.5 150l131 -49q-50 -136 -154 -208t-243 -72 q-142 0 -247.5 71.5t-157.5 187.5t-52 259z" />
<glyph unicode="d" horiz-adv-x="1216" d="M106 506q0 238 120 380t329 142q215 0 334 -154v553h141v-1427h-141v135q-119 -151 -334 -151q-144 0 -246.5 68.5t-152.5 184.5t-50 269zM248 506q0 -178 85 -287.5t242 -109.5q155 0 240.5 110t85.5 287q0 181 -87.5 289t-238.5 108q-152 0 -239.5 -107.5t-87.5 -289.5 z" />
<glyph unicode="e" horiz-adv-x="1089" d="M104 500q0 145 50 262.5t153.5 190.5t245.5 73q111 0 198 -41t137.5 -109.5t76.5 -150t26 -170.5q0 -51 -6 -88h-739q3 -166 89.5 -260t235.5 -94q88 0 156.5 28t134.5 99l99 -86q-87 -92 -179.5 -131t-212.5 -39q-149 0 -256 70t-158 185t-51 261zM246 586h610l-1 10 q-1 11 -1 22q-8 128 -87 208.5t-214 80.5q-132 0 -215 -91.5t-92 -229.5z" />
<glyph unicode="f" horiz-adv-x="714" d="M35 891v119h215v155q0 77 21 133.5t58 87t80.5 44.5t94.5 14q89 0 180 -39l-49 -113q-71 33 -117 33q-60 0 -94.5 -39.5t-34.5 -109.5v-166h291v-119h-291v-891h-141v891h-213z" />
<glyph unicode="g" horiz-adv-x="1067" d="M90 -123q0 21 4 45l164 139q-131 59 -131 193q0 118 109 192q-86 99 -86 230q0 152 110.5 251t274.5 99q145 0 251 -82l140 121l73 -92l-137 -115q56 -88 56 -190q0 -153 -109 -248.5t-272 -95.5q-118 0 -209 51q-66 -37 -66 -103q0 -49 39 -80t102 -45.5t138.5 -25 t151.5 -26.5t139 -42t102 -79t39 -130q0 -138 -117 -208t-315 -70q-213 0 -332 81t-119 230zM229 -127q0 -52 25 -89.5t70 -58.5t100 -30.5t123 -9.5q136 0 210 37.5t74 109.5q0 32 -14.5 57t-42 41.5t-60 28t-78 20t-86 14.5t-92 14.5t-89.5 17.5l-138 -134q-2 -10 -2 -18z M289 672q0 -100 67 -166t179 -66t176.5 65t64.5 167q0 105 -65.5 170t-173.5 65t-178 -65.5t-70 -169.5z" />
<glyph unicode="h" horiz-adv-x="1153" d="M186 0v1427h142v-565q50 77 138 120.5t196 43.5q163 0 246 -103.5t83 -304.5v-618h-141v584q0 164 -53.5 240.5t-167.5 76.5q-145 0 -223 -113.5t-78 -322.5v-465h-142z" />
<glyph unicode="i" horiz-adv-x="514" d="M174 1219v208h164v-208h-164zM186 0v1010h142v-1010h-142z" />
<glyph unicode="j" horiz-adv-x="512" d="M-6 -408l2 115q47 -16 94 -16q96 0 96 114v1205h140v-1213q0 -116 -51 -173.5t-142 -57.5q-56 0 -139 26zM174 1219v208h164v-208h-164z" />
<glyph unicode="k" horiz-adv-x="1116" d="M186 0v1427h142v-952l503 535h191l-367 -379l424 -631h-168l-352 543l-231 -246v-297h-142z" />
<glyph unicode="l" horiz-adv-x="552" d="M178 219v1208h141v-1200q0 -114 93 -114q40 0 96 18l2 -121q-80 -26 -139 -26q-90 0 -141.5 59.5t-51.5 175.5z" />
<glyph unicode="m" horiz-adv-x="1732" d="M184 1010h138v-123q88 139 278 139q222 0 297 -195q100 195 332 195q175 0 258.5 -105t83.5 -290v-631h-141v592q0 27 -0.5 45t-5 53.5t-12.5 60t-24 55t-39 49.5t-59 32.5t-82 13.5q-260 0 -260 -416v-485h-141v584q0 67 -11 121t-36 99.5t-70.5 71t-109.5 25.5 q-252 0 -252 -416v-485h-142z" />
<glyph unicode="n" horiz-adv-x="1153" d="M186 0v1010h142v-148q50 77 138 120.5t196 43.5q163 0 246 -103.5t83 -304.5v-618h-141v584q0 163 -53.5 240t-167.5 77q-143 0 -222 -117.5t-79 -330.5v-453h-142z" />
<glyph unicode="o" horiz-adv-x="1165" d="M98 506q0 226 134.5 373t349.5 147q214 0 349.5 -147t135.5 -373q0 -225 -135.5 -373.5t-349.5 -148.5q-142 0 -253 68t-171 186.5t-60 267.5zM240 506q0 -176 92 -286.5t250 -110.5q159 0 251.5 112t92.5 285q0 175 -92.5 285t-251.5 110t-250.5 -110t-91.5 -285z" />
<glyph unicode="p" horiz-adv-x="1216" d="M186 -418v1428h142v-136q119 154 334 154q209 0 328.5 -141.5t119.5 -380.5q0 -153 -49.5 -269t-152 -184.5t-246.5 -68.5q-215 0 -334 151v-553h-142zM315 506q0 -177 85.5 -287t240.5 -110q157 0 242.5 109.5t85.5 287.5q0 181 -87.5 289t-240.5 108 q-151 0 -238.5 -108t-87.5 -289z" />
<glyph unicode="q" horiz-adv-x="1216" d="M106 506q0 238 120 380t329 142q215 0 334 -154v136h141v-1428h-141v553q-119 -151 -334 -151q-144 0 -246.5 68.5t-152.5 184.5t-50 269zM248 506q0 -178 85 -287.5t242 -109.5q155 0 240.5 110t85.5 287q0 181 -87.5 289t-238.5 108q-152 0 -239.5 -107.5t-87.5 -289.5 z" />
<glyph unicode="r" horiz-adv-x="823" d="M186 0v1010h142v-152q93 168 299 168q98 0 174 -43l-70 -115q-73 31 -133 31q-121 0 -195.5 -88t-74.5 -248v-563h-142z" />
<glyph unicode="s" horiz-adv-x="954" d="M78 248l119 53q30 -84 105 -138t187 -54q103 0 164.5 47.5t61.5 126.5q0 54 -32 90.5t-83.5 55.5t-113.5 33.5t-124 32.5t-113.5 45t-83.5 77.5t-32 123.5q0 130 96 207.5t250 77.5q124 0 218 -53t145 -158l-113 -61q-80 147 -254 147q-95 0 -150 -37t-55 -102 q0 -43 25 -73.5t66 -47.5t93.5 -33t107.5 -28t107.5 -35t93.5 -52.5t66 -81t25 -120.5q0 -147 -103.5 -227t-258.5 -80q-150 0 -262 71.5t-152 192.5z" />
<glyph unicode="t" horiz-adv-x="688" d="M51 891v119h168v282l141 107v-389h244v-119h-244v-635q0 -143 125 -143q48 0 119 22l2 -125q-86 -26 -153 -26q-107 0 -170.5 63t-63.5 191v653h-168z" />
<glyph unicode="u" horiz-adv-x="1153" d="M162 391v619h141v-584q0 -55 4.5 -96.5t18 -85t37 -71.5t64.5 -46t97 -18q147 0 224 117t77 319v465h142v-1010h-142v145q-52 -79 -140.5 -120t-192.5 -41q-167 0 -248.5 106.5t-81.5 300.5z" />
<glyph unicode="v" horiz-adv-x="1028" d="M41 1010h154l317 -830l319 830h156l-414 -1010h-120z" />
<glyph unicode="w" horiz-adv-x="1513" d="M57 1010h152l217 -797l266 797h129l264 -797l220 797h149l-295 -1010h-133l-268 815l-273 -815h-131z" />
<glyph unicode="x" horiz-adv-x="1030" d="M53 0l369 506l-369 504h172l291 -406l289 406h172l-369 -504l371 -506h-174l-289 410l-289 -410h-174z" />
<glyph unicode="y" horiz-adv-x="1044" d="M37 1010h156l348 -832l305 832h155l-552 -1428h-152l168 430z" />
<glyph unicode="z" horiz-adv-x="997" d="M72 0v102l671 787h-637v121h809v-113l-657 -776h653v-121h-839z" />
<glyph unicode="{" horiz-adv-x="636" d="M106 614v105q63 18 93 54.5t30 107.5v381q0 122 56 186.5t164 64.5h110v-94h-65q-71 0 -107.5 -37.5t-36.5 -121.5v-381q0 -78 -29 -129.5t-100 -77.5v-10q129 -52 129 -189v-354q0 -77 34 -120.5t99 -43.5h76v-96h-121q-100 0 -154.5 68.5t-54.5 187.5v356 q0 58 -30.5 90.5t-92.5 52.5z" />
<glyph unicode="|" horiz-adv-x="667" d="M281 -518v2068h106v-2068h-106z" />
<glyph unicode="}" horiz-adv-x="636" d="M78 -45h76q65 0 99 43.5t34 120.5v354q0 136 129 189v10q-67 25 -98 74t-31 133v381q0 74 -31.5 116.5t-112.5 42.5h-65v94h110q109 0 164.5 -64t55.5 -187v-381q0 -75 31 -110t91 -52v-105q-59 -21 -90.5 -51.5t-31.5 -91.5v-356q0 -118 -54 -187t-155 -69h-121v96z" />
<glyph unicode="~" horiz-adv-x="1290" d="M225 422q0 136 65.5 218.5t172.5 82.5q45 0 82 -14t61.5 -36t45.5 -49t39 -54t36 -49t42.5 -36t53.5 -14q60 0 96.5 62.5t36.5 162.5h111q0 -143 -67 -232t-177 -89q-50 0 -90.5 18.5t-64 46.5t-47.5 60t-43 60t-49 46.5t-66 18.5q-60 0 -94.5 -54.5t-34.5 -148.5h-109z " />
<glyph unicode="&#xa1;" horiz-adv-x="659" d="M238 784v226h182v-226h-182zM258 -418l16 1024h109l16 -1024h-141z" />
<glyph unicode="&#xa2;" horiz-adv-x="1208" d="M182 502q0 126 40.5 234t128.5 186.5t210 97.5v211h129v-207q120 -12 212 -81.5t145 -194.5l-136 -54q-35 97 -107 152t-167 55q-103 0 -175 -57.5t-104 -145.5t-32 -196t32 -194.5t104.5 -142.5t176.5 -56q96 0 166.5 54t99.5 150l131 -49q-45 -123 -135.5 -194.5 t-210.5 -83.5v-215l-129 -2v221q-119 19 -206 93t-130 182.5t-43 236.5z" />
<glyph unicode="&#xa3;" horiz-adv-x="1298" d="M182 0v137q119 34 198 118t79 183q0 27 -8 62.5t-14 55t-24 67t-22 57.5h-203v119h172q-38 104 -38 229q0 180 113 299t296 119q147 0 255 -80.5t149 -220.5l-113 -43q-31 111 -108 167t-181 56q-130 0 -210.5 -81.5t-80.5 -219.5q0 -120 43 -225h433v-119h-404 q4 -11 16 -45t17.5 -50.5t13.5 -44.5t11 -53t3 -51q0 -62 -18 -115t-49 -91t-64 -63.5t-71 -45.5h751v-121h-942z" />
<glyph unicode="&#xa4;" horiz-adv-x="1445" d="M257.5 641q0.5 162 100.5 285l-98 100l76 80l100 -102q124 100 286.5 101t287.5 -101l100 100l78 -76l-103 -100q102 -125 102 -288.5t-102 -285.5l103 -102l-76 -78l-102 102q-125 -101 -288.5 -100.5t-285.5 100.5l-102 -102l-76 78l100 102q-101 125 -100.5 287z M367 640q0 -148 102 -251q108 -107 254.5 -106t249.5 106q106 106 106 252.5t-104 249.5q-104 104 -253 104t-253 -104q-102 -103 -102 -251z" />
<glyph unicode="&#xa5;" horiz-adv-x="1499" d="M131 1427h178l441 -739l440 739h178l-475 -774h295v-114h-363v-199h363v-115h-363v-225h-151v225h-363v115h363v199h-363v114h297z" />
<glyph unicode="&#xa6;" horiz-adv-x="677" d="M281 -311v735h116v-735h-116zM281 739v750h116v-750h-116z" />
<glyph unicode="&#xa7;" horiz-adv-x="1275" d="M162 636v17q0 164 108 275q-32 66 -32 149q0 164 117 265.5t288 101.5q275 0 408 -232l-123 -75q-96 176 -289 176q-109 0 -182.5 -65.5t-73.5 -164.5q0 -26 6.5 -49t14.5 -41t26.5 -37t31.5 -31.5t41 -28t44 -24t51.5 -23.5t51 -21t55.5 -21q44 -17 66.5 -26t63.5 -27 t64 -31.5t57 -35t53 -41.5t42 -48.5t35 -58t20 -67t8 -79.5q0 -162 -110 -272q34 -61 34 -150q0 -109 -55 -193t-146.5 -128.5t-203.5 -44.5q-277 0 -408 231l121 76q98 -176 291 -176q109 0 182.5 65t73.5 164q0 32 -10 60.5t-24 50.5t-41.5 43.5t-49.5 35.5t-62 32 t-65.5 28t-71.5 27q-165 63 -235 108q-165 106 -172 286zM307 666q0 -37 11 -70t25.5 -57t44.5 -48.5t52 -39.5t65 -34.5t67.5 -29.5t74.5 -29q67 -26 104 -42t82 -42.5t74 -56.5q60 66 60 164q0 37 -10.5 70t-25 57t-44 48.5t-52 39.5t-65.5 34.5t-68 30t-75 29.5 q-64 25 -99 39.5t-83 42.5t-76 57q-62 -68 -62 -163z" />
<glyph unicode="&#xa8;" horiz-adv-x="892" d="M180 1219v208h164v-208h-164zM549 1219v208h164v-208h-164z" />
<glyph unicode="&#xa9;" horiz-adv-x="1822" d="M170 713q0 150 58.5 286t157.5 234.5t236.5 156.5t288.5 58q121 0 234 -37t204.5 -105t160 -158.5t106 -202.5t37.5 -232q0 -200 -99.5 -368.5t-270 -266.5t-372.5 -98q-151 0 -288.5 58t-236.5 156t-157.5 233.5t-58.5 285.5zM262 713q0 -173 86.5 -320.5t236 -234 t326.5 -86.5q132 0 252.5 51t207.5 137t138.5 204.5t51.5 248.5q0 174 -87 322t-237 234.5t-326 86.5q-177 0 -326.5 -86.5t-236 -234.5t-86.5 -322zM522 711q0 92 26 175.5t75.5 150.5t129 107t177.5 40q127 0 222 -64t146 -186l-112 -43q-33 86 -100.5 136t-155.5 50 q-71 0 -127 -30.5t-90 -82.5t-52 -116.5t-18 -136.5t17.5 -135.5t52 -114.5t91 -81t128.5 -30q90 0 156 49.5t94 135.5l106 -41q-41 -119 -135 -185.5t-221 -66.5q-126 0 -220.5 64.5t-142 169.5t-47.5 235z" />
<glyph unicode="&#xaa;" horiz-adv-x="952" d="M158 924q0 107 78.5 160t218.5 53h207q0 10 -2 24t-3 25q-14 178 -194 178q-127 0 -211 -119l-72 47q59 79 124.5 115.5t160.5 36.5q133 0 206.5 -75.5t73.5 -209.5v-436h-79l-2 133q-95 -145 -265 -145q-103 0 -172 59t-69 154zM250 924q0 -57 47.5 -93t116.5 -36 q79 0 139 40.5t96 116.5q11 71 13 107h-201q-103 0 -157 -34.5t-54 -100.5z" />
<glyph unicode="&#xab;" horiz-adv-x="1021" d="M76 516l401 344v-125l-254 -219l254 -219v-125zM459 516l401 344v-125l-254 -219l254 -219v-125z" />
<glyph unicode="&#xac;" horiz-adv-x="1363" d="M170 678v127h915v-512h-135v385h-780z" />
<glyph unicode="&#xad;" horiz-adv-x="1044" d="M176 573v109h692v-109h-692z" />
<glyph unicode="&#xae;" horiz-adv-x="1822" d="M170 713q0 150 58.5 286t157.5 234.5t236.5 156.5t288.5 58q121 0 234 -37t204.5 -105t160 -158.5t106 -202.5t37.5 -232q0 -200 -99.5 -368.5t-270 -266.5t-372.5 -98q-151 0 -288.5 58t-236.5 156t-157.5 233.5t-58.5 285.5zM262 713q0 -173 86.5 -320.5t236 -234 t326.5 -86.5q132 0 252.5 51t207.5 137t138.5 204.5t51.5 248.5q0 174 -87 322t-237 234.5t-326 86.5q-177 0 -326.5 -86.5t-236 -234.5t-86.5 -322zM680 272v883h248q135 0 216 -68t81 -182q0 -84 -48 -143t-135 -82l242 -408h-110l-226 396q-9 0 -27.5 -1t-27.5 -1h-117 v-394h-96zM776 748h160q93 0 142.5 41.5t49.5 115.5q0 77 -52 119.5t-146 42.5h-154v-319z" />
<glyph unicode="&#xaf;" horiz-adv-x="901" d="M174 1227v86h553v-86h-553z" />
<glyph unicode="&#xb0;" horiz-adv-x="995" d="M207 1153q0 119 85.5 205t205.5 86t205 -86t85 -205q0 -120 -85 -206.5t-205 -86.5t-205.5 86.5t-85.5 206.5zM305 1153q0 -80 57 -137.5t136 -57.5q80 0 137 57t57 138q0 79 -57 136t-137 57q-79 0 -136 -57.5t-57 -135.5z" />
<glyph unicode="&#xb1;" horiz-adv-x="1380" d="M158 0h1056v-109h-1056v109zM158 659v111h479v467h108v-467h480v-111h-480v-469h-108v469h-479z" />
<glyph unicode="&#xb4;" horiz-adv-x="520" d="M78 1139l221 288h152l-265 -288h-108z" />
<glyph unicode="&#xb5;" horiz-adv-x="1325" d="M281 -350v1360h139v-607q0 -137 64 -212.5t184 -75.5q129 0 203.5 78.5t74.5 222.5v594h141v-1010h-141v168q-48 -91 -132 -137.5t-183 -46.5q-168 0 -236 118v-452h-114z" />
<glyph unicode="&#xb6;" horiz-adv-x="1298" d="M135 1028q0 92 38 168.5t102 126t146.5 77t172.5 27.5h98v-1675h-98v877q-90 0 -172.5 27.5t-146.5 77t-102 126t-38 168.5zM915 -248v1675h103v-1675h-103z" />
<glyph unicode="&#xb7;" horiz-adv-x="706" d="M217 741q0 57 39 96.5t96 39.5t96 -39.5t39 -96.5t-39 -97t-96 -40q-56 0 -95.5 40t-39.5 97z" />
<glyph unicode="&#xb8;" horiz-adv-x="610" d="M98 -391l82 35q14 -36 46 -58t71 -22q56 0 88.5 29t32.5 81q0 56 -48 90.5t-134 40.5q-11 0 -39.5 1t-46.5 1l110 191h88l-82 -129q39 -5 64 -10q86 -17 130 -63.5t44 -117.5q0 -88 -58 -144t-153 -56q-63 0 -117.5 37t-77.5 94z" />
<glyph unicode="&#xba;" horiz-adv-x="999" d="M154 1083q0 151 98.5 256t247.5 105t247.5 -105t98.5 -256q0 -152 -98.5 -256t-247.5 -104t-247.5 104t-98.5 256zM254 1083q0 -119 66 -195.5t180 -76.5t179.5 76.5t65.5 195.5t-65.5 196t-179.5 77t-180 -77t-66 -196z" />
<glyph unicode="&#xbb;" horiz-adv-x="1019" d="M158 172v125l254 219l-254 219v125l401 -344zM541 172v125l254 219l-254 219v125l401 -344z" />
<glyph unicode="&#xbf;" horiz-adv-x="1081" d="M125 -55q0 84 27 147.5t67 98t87 65t87 52t67 56.5t27 80v166h121v-168q0 -62 -19.5 -109t-51.5 -76t-70 -52t-76 -45.5t-70 -49t-51.5 -69t-19.5 -98.5q0 -125 80.5 -191.5t222.5 -66.5q140 0 216.5 74.5t78.5 207.5h125q0 -186 -114 -293.5t-302 -107.5 q-193 0 -312.5 100t-119.5 279zM455 784v226h184v-226h-184z" />
<glyph unicode="&#xc0;" horiz-adv-x="1335" d="M74 0l532 1427h121l535 -1427h-162l-135 383h-594l-138 -383h-159zM358 1845h152l213 -289h-111zM414 508h506l-252 713z" />
<glyph unicode="&#xc1;" horiz-adv-x="1335" d="M74 0l532 1427h121l535 -1427h-162l-135 383h-594l-138 -383h-159zM414 508h506l-252 713zM614 1556l222 289h151l-264 -289h-109z" />
<glyph unicode="&#xc2;" horiz-adv-x="1335" d="M74 0l532 1427h121l535 -1427h-162l-135 383h-594l-138 -383h-159zM362 1540l306 326l305 -326h-117l-188 201l-187 -201h-119zM414 508h506l-252 713z" />
<glyph unicode="&#xc3;" horiz-adv-x="1335" d="M74 0l532 1427h121l535 -1427h-162l-135 383h-594l-138 -383h-159zM342 1604q0 118 51 183.5t139 65.5q43 0 77 -18t56 -44t42 -52t46 -44t56 -18q41 0 67.5 46t26.5 122h88q0 -120 -49.5 -190t-132.5 -70q-47 0 -83.5 18.5t-58.5 44.5t-41.5 52t-43.5 44.5t-54 18.5 q-47 0 -74.5 -42t-27.5 -117h-84zM414 508h506l-252 713z" />
<glyph unicode="&#xc4;" horiz-adv-x="1335" d="M74 0l532 1427h121l535 -1427h-162l-135 383h-594l-138 -383h-159zM401 1636v209h164v-209h-164zM414 508h506l-252 713zM770 1636v209h164v-209h-164z" />
<glyph unicode="&#xc5;" horiz-adv-x="1335" d="M74 0l526 1409q-59 22 -95 72.5t-36 113.5q0 83 58.5 141t140.5 58q80 0 139 -58.5t59 -140.5q0 -64 -36.5 -114.5t-94.5 -71.5l527 -1409h-162l-135 383h-594l-138 -383h-159zM414 508h506l-252 713zM549 1595q0 -50 34 -84t85 -34t84.5 34t33.5 84q0 51 -33 85t-85 34 q-51 0 -85 -34t-34 -85z" />
<glyph unicode="&#xc6;" horiz-adv-x="1957" d="M74 0l532 1427h1231v-129h-768v-520h668v-125h-668v-520h768v-133h-917v342h-566l-121 -342h-159zM399 457h521v846h-222z" />
<glyph unicode="&#xc7;" horiz-adv-x="1492" d="M139 717q0 341 175.5 534t484.5 193q215 0 363.5 -97.5t223.5 -289.5l-135 -51q-113 299 -452 299q-246 0 -380 -153.5t-134 -434.5q0 -283 132 -438.5t371 -155.5q168 0 285.5 77.5t177.5 227.5l140 -51q-75 -181 -216.5 -280.5t-336.5 -110.5l-72 -117q84 -13 131 -33 q107 -49 107 -158q0 -88 -58 -144t-153 -56q-49 0 -99.5 25t-83.5 71l52 68q49 -78 135 -78q57 0 89 29t32 83q0 88 -113 117q-57 14 -156 14l103 177q-288 14 -450.5 208t-162.5 525z" />
<glyph unicode="&#xc8;" horiz-adv-x="1294" d="M233 0v1427h936v-135h-790v-497h711v-136h-711v-524h790v-135h-936zM391 1845h152l213 -289h-111z" />
<glyph unicode="&#xc9;" horiz-adv-x="1294" d="M233 0v1427h936v-135h-790v-497h711v-136h-711v-524h790v-135h-936zM647 1556l221 289h152l-264 -289h-109z" />
<glyph unicode="&#xca;" horiz-adv-x="1294" d="M233 0v1427h936v-135h-790v-497h711v-136h-711v-524h790v-135h-936zM395 1540l305 326l306 -326h-117l-189 201l-186 -201h-119z" />
<glyph unicode="&#xcb;" horiz-adv-x="1294" d="M233 0v1427h936v-135h-790v-497h711v-136h-711v-524h790v-135h-936zM434 1636v209h164v-209h-164zM803 1636v209h164v-209h-164z" />
<glyph unicode="&#xcc;" horiz-adv-x="612" d="M-2 1845h152l212 -289h-110zM233 0v1427h146v-1427h-146z" />
<glyph unicode="&#xcd;" horiz-adv-x="612" d="M233 0v1427h146v-1427h-146zM254 1556l221 289h152l-265 -289h-108z" />
<glyph unicode="&#xce;" horiz-adv-x="612" d="M2 1540l305 326l305 -326h-116l-189 201l-186 -201h-119zM233 0v1427h146v-1427h-146z" />
<glyph unicode="&#xcf;" horiz-adv-x="612" d="M41 1636v209h164v-209h-164zM233 0v1427h146v-1427h-146zM410 1636v209h163v-209h-163z" />
<glyph unicode="&#xd0;" horiz-adv-x="1484" d="M82 666v96h151v665h388q348 0 538.5 -189.5t190.5 -535.5q0 -341 -188.5 -521.5t-543.5 -180.5h-385v666h-151zM379 135h227q299 0 447.5 142.5t148.5 431.5q0 290 -147 436.5t-437 146.5h-239v-530h256v-96h-256v-531z" />
<glyph unicode="&#xd1;" horiz-adv-x="1474" d="M233 0v1427h158l705 -1173v1173h145v-1427h-160l-702 1180v-1180h-146zM412 1604q0 118 51 183.5t139 65.5q43 0 77 -18t56 -44t42 -52t46 -44t56 -18q41 0 67.5 46t26.5 122h88q0 -120 -49.5 -190t-132.5 -70q-47 0 -83.5 18.5t-58.5 44.5t-41.5 52t-43.5 44.5t-54 18.5 q-47 0 -74.5 -42t-27.5 -117h-84z" />
<glyph unicode="&#xd2;" horiz-adv-x="1581" d="M137 713q0 328 180.5 529.5t473.5 201.5t473 -201.5t180 -529.5q0 -327 -180 -528t-473 -201t-473.5 201t-180.5 528zM283 713q0 -269 138 -429.5t370 -160.5t369.5 160.5t137.5 429.5q0 270 -137.5 431t-369.5 161t-370 -161t-138 -431zM481 1845h152l213 -289h-111z " />
<glyph unicode="&#xd3;" horiz-adv-x="1581" d="M137 713q0 328 180.5 529.5t473.5 201.5t473 -201.5t180 -529.5q0 -327 -180 -528t-473 -201t-473.5 201t-180.5 528zM283 713q0 -269 138 -429.5t370 -160.5t369.5 160.5t137.5 429.5q0 270 -137.5 431t-369.5 161t-370 -161t-138 -431zM737 1556l221 289h152l-264 -289 h-109z" />
<glyph unicode="&#xd4;" horiz-adv-x="1581" d="M137 713q0 328 180.5 529.5t473.5 201.5t473 -201.5t180 -529.5q0 -327 -180 -528t-473 -201t-473.5 201t-180.5 528zM283 713q0 -269 138 -429.5t370 -160.5t369.5 160.5t137.5 429.5q0 270 -137.5 431t-369.5 161t-370 -161t-138 -431zM485 1540l306 326l305 -326h-117 l-188 201l-187 -201h-119z" />
<glyph unicode="&#xd5;" horiz-adv-x="1581" d="M137 713q0 328 180.5 529.5t473.5 201.5t473 -201.5t180 -529.5q0 -327 -180 -528t-473 -201t-473.5 201t-180.5 528zM283 713q0 -269 138 -429.5t370 -160.5t369.5 160.5t137.5 429.5q0 270 -137.5 431t-369.5 161t-370 -161t-138 -431zM465 1604q0 118 51 183.5 t139 65.5q43 0 77 -18t56 -44t42 -52t46 -44t56 -18q41 0 67.5 46t26.5 122h88q0 -120 -49.5 -190t-132.5 -70q-47 0 -83.5 18.5t-58.5 44.5t-41.5 52t-43.5 44.5t-54 18.5q-47 0 -74.5 -42t-27.5 -117h-84z" />
<glyph unicode="&#xd6;" horiz-adv-x="1581" d="M137 713q0 328 180.5 529.5t473.5 201.5t473 -201.5t180 -529.5q0 -327 -180 -528t-473 -201t-473.5 201t-180.5 528zM283 713q0 -269 138 -429.5t370 -160.5t369.5 160.5t137.5 429.5q0 270 -137.5 431t-369.5 161t-370 -161t-138 -431zM524 1636v209h164v-209h-164z M893 1636v209h164v-209h-164z" />
<glyph unicode="&#xd7;" horiz-adv-x="1142" d="M164 311l325 326l-325 326l84 84l323 -326l326 323l82 -81l-324 -326l324 -326l-82 -82l-326 324l-323 -324z" />
<glyph unicode="&#xd8;" horiz-adv-x="1581" d="M137 713q0 328 180.5 529.5t473.5 201.5q190 0 342 -90l47 73h141l-94 -147q104 -96 160.5 -242t56.5 -325q0 -327 -180 -528t-473 -201q-190 0 -342 90l-48 -74h-141l94 147q-104 96 -160.5 241.5t-56.5 324.5zM283 713q0 -281 151 -445l621 967q-115 70 -264 70 q-232 0 -370 -161t-138 -431zM526 193q115 -70 265 -70q232 0 369.5 160.5t137.5 429.5q0 282 -151 446z" />
<glyph unicode="&#xd9;" horiz-adv-x="1431" d="M203 516v911h145v-897q0 -204 90.5 -303.5t276.5 -99.5q187 0 277.5 101.5t90.5 308.5v890h146v-901q0 -265 -131.5 -403.5t-382.5 -138.5q-249 0 -380.5 136.5t-131.5 395.5zM408 1845h151l213 -289h-110z" />
<glyph unicode="&#xda;" horiz-adv-x="1431" d="M203 516v911h145v-897q0 -204 90.5 -303.5t276.5 -99.5q187 0 277.5 101.5t90.5 308.5v890h146v-901q0 -265 -131.5 -403.5t-382.5 -138.5q-249 0 -380.5 136.5t-131.5 395.5zM664 1556l221 289h151l-264 -289h-108z" />
<glyph unicode="&#xdb;" horiz-adv-x="1431" d="M203 516v911h145v-897q0 -204 90.5 -303.5t276.5 -99.5q187 0 277.5 101.5t90.5 308.5v890h146v-901q0 -265 -131.5 -403.5t-382.5 -138.5q-249 0 -380.5 136.5t-131.5 395.5zM412 1540l305 326l305 -326h-117l-188 201l-187 -201h-118z" />
<glyph unicode="&#xdc;" horiz-adv-x="1431" d="M203 516v911h145v-897q0 -204 90.5 -303.5t276.5 -99.5q187 0 277.5 101.5t90.5 308.5v890h146v-901q0 -265 -131.5 -403.5t-382.5 -138.5q-249 0 -380.5 136.5t-131.5 395.5zM451 1636v209h163v-209h-163zM819 1636v209h164v-209h-164z" />
<glyph unicode="&#xdd;" horiz-adv-x="1359" d="M61 1427h172l445 -739l446 739h174l-544 -880v-547h-148v547zM627 1556l221 289h151l-264 -289h-108z" />
<glyph unicode="&#xde;" horiz-adv-x="1202" d="M233 0v1427h134v-204h286q211 0 329 -105t118 -291q0 -192 -125.5 -299.5t-349.5 -107.5h-258v-420h-134zM367 543h258q166 0 253 71.5t87 206.5q0 136 -88.5 210.5t-251.5 74.5h-258v-563z" />
<glyph unicode="&#xdf;" horiz-adv-x="1296" d="M186 0v920q0 46 1.5 79t11 92t26.5 102.5t52.5 94.5t83.5 83.5t124.5 54.5t171.5 22q188 0 307 -80t119 -207q0 -60 -24 -104.5t-62 -69.5t-84.5 -44t-93 -34.5t-84.5 -33.5t-62 -48t-24 -73q0 -42 25 -72t66 -46t93 -31t107 -26.5t107 -34t93 -52t66 -81t25 -120.5 q0 -147 -103.5 -227t-259.5 -80q-146 0 -258 75t-151 191l114 51q30 -85 105 -142t184 -57t169.5 51.5t60.5 129.5q0 54 -32 91t-83.5 56.5t-113.5 35t-124 34.5t-113.5 46.5t-83.5 79.5t-32 126q0 67 24 115.5t62 75t84.5 45.5t93 32t84.5 28t62 41t24 64q0 71 -82.5 117.5 t-199.5 46.5q-66 0 -118.5 -14.5t-86.5 -36.5t-58.5 -57t-37 -66.5t-19.5 -76t-8.5 -74.5t-1.5 -72v-920h-146z" />
<glyph unicode="&#xe0;" horiz-adv-x="1095" d="M90 293q0 155 117 227q58 33 147 47.5t236 14.5h207v47q0 132 -67.5 202t-194.5 70q-186 0 -308 -168l-102 86q160 207 412 207q191 0 296 -104t105 -293v-629h-129l-8 156q-122 -172 -363 -172q-164 0 -256 81.5t-92 227.5zM231 285q0 -85 67 -135t181 -50 q146 0 232 95.5t86 257.5v14h-195q-141 0 -210 -11t-105 -40q-56 -44 -56 -131zM231 1427h152l213 -288h-111z" />
<glyph unicode="&#xe1;" horiz-adv-x="1095" d="M90 293q0 155 117 227q58 33 147 47.5t236 14.5h207v47q0 132 -67.5 202t-194.5 70q-186 0 -308 -168l-102 86q160 207 412 207q191 0 296 -104t105 -293v-629h-129l-8 156q-122 -172 -363 -172q-164 0 -256 81.5t-92 227.5zM231 285q0 -85 67 -135t181 -50 q146 0 232 95.5t86 257.5v14h-195q-141 0 -210 -11t-105 -40q-56 -44 -56 -131zM487 1139l222 288h151l-264 -288h-109z" />
<glyph unicode="&#xe2;" horiz-adv-x="1095" d="M90 293q0 155 117 227q58 33 147 47.5t236 14.5h207v47q0 132 -67.5 202t-194.5 70q-186 0 -308 -168l-102 86q160 207 412 207q191 0 296 -104t105 -293v-629h-129l-8 156q-122 -172 -363 -172q-164 0 -256 81.5t-92 227.5zM231 285q0 -85 67 -135t181 -50 q146 0 232 95.5t86 257.5v14h-195q-141 0 -210 -11t-105 -40q-56 -44 -56 -131zM236 1122l305 326l305 -326h-117l-188 201l-187 -201h-118z" />
<glyph unicode="&#xe3;" horiz-adv-x="1095" d="M90 293q0 155 117 227q58 33 147 47.5t236 14.5h207v47q0 132 -67.5 202t-194.5 70q-186 0 -308 -168l-102 86q160 207 412 207q191 0 296 -104t105 -293v-629h-129l-8 156q-122 -172 -363 -172q-164 0 -256 81.5t-92 227.5zM215 1186q0 118 51.5 184t139.5 66 q43 0 76.5 -18t55.5 -44t42.5 -52t46 -44t55.5 -18q41 0 67.5 45.5t26.5 121.5h88q0 -120 -49.5 -190t-132.5 -70q-47 0 -83.5 18.5t-58.5 44.5t-41.5 52.5t-43.5 45t-54 18.5q-47 0 -74.5 -42.5t-27.5 -117.5h-84zM231 285q0 -85 67 -135t181 -50q146 0 232 95.5t86 257.5 v14h-195q-141 0 -210 -11t-105 -40q-56 -44 -56 -131z" />
<glyph unicode="&#xe4;" horiz-adv-x="1095" d="M90 293q0 155 117 227q58 33 147 47.5t236 14.5h207v47q0 132 -67.5 202t-194.5 70q-186 0 -308 -168l-102 86q160 207 412 207q191 0 296 -104t105 -293v-629h-129l-8 156q-122 -172 -363 -172q-164 0 -256 81.5t-92 227.5zM231 285q0 -85 67 -135t181 -50 q146 0 232 95.5t86 257.5v14h-195q-141 0 -210 -11t-105 -40q-56 -44 -56 -131zM274 1219v208h164v-208h-164zM643 1219v208h164v-208h-164z" />
<glyph unicode="&#xe5;" horiz-adv-x="1095" d="M90 293q0 155 117 227q58 33 147 47.5t236 14.5h207v47q0 132 -67.5 202t-194.5 70q-186 0 -308 -168l-102 86q160 207 412 207q191 0 296 -104t105 -293v-629h-129l-8 156q-122 -172 -363 -172q-164 0 -256 81.5t-92 227.5zM231 285q0 -85 67 -135t181 -50 q146 0 232 95.5t86 257.5v14h-195q-141 0 -210 -11t-105 -40q-56 -44 -56 -131zM342 1303q0 83 58.5 140.5t140.5 57.5q80 0 139 -58t59 -140t-57.5 -140.5t-140.5 -58.5t-141 58.5t-58 140.5zM422 1303q0 -50 34 -84.5t85 -34.5t84.5 34.5t33.5 84.5q0 51 -33 84.5 t-85 33.5q-51 0 -85 -33.5t-34 -84.5z" />
<glyph unicode="&#xe6;" horiz-adv-x="1763" d="M88 291q0 293 455 293h256v45q0 132 -68 202t-194 70q-188 0 -308 -168l-104 86q160 207 420 207q137 0 227 -61.5t119 -176.5q49 107 136.5 169.5t213.5 62.5q89 0 161.5 -25.5t120 -69t80 -102.5t46.5 -123.5t14 -134.5q0 -58 -6 -98h-727q6 -168 86 -260t227 -92 q94 0 160.5 29t130.5 96l100 -86q-88 -90 -179 -128t-212 -38q-150 0 -251.5 73t-141.5 203h-16q-111 -280 -390 -280q-167 0 -261.5 84.5t-94.5 222.5zM231 289q0 -84 62 -134.5t168 -50.5q135 0 226.5 89.5t111.5 261.5v24h-248q-320 0 -320 -190zM930 571h600 q1 22 -10 93q-9 44 -29 83.5t-53.5 75.5t-86 57t-118.5 21q-136 0 -218 -94.5t-85 -235.5z" />
<glyph unicode="&#xe7;" horiz-adv-x="1040" d="M102 502q0 81 17.5 156.5t55 142.5t90.5 117t128 79t164 29q138 0 244.5 -70t165.5 -208l-136 -54q-35 97 -107 152t-167 55q-103 0 -175 -57.5t-104 -145.5t-32 -196t32 -194.5t104.5 -142.5t176.5 -56q96 0 166.5 54t99.5 150l131 -49q-50 -136 -154 -208t-243 -72h-6 l-72 -115q84 -13 131 -33q107 -49 107 -158q0 -88 -58 -144t-153 -56q-49 0 -99 25t-83 71l51 68q49 -78 135 -78q57 0 89 29t32 83q0 88 -113 117q-57 14 -155 14l106 185q-173 31 -271 173.5t-98 336.5z" />
<glyph unicode="&#xe8;" horiz-adv-x="1089" d="M104 500q0 145 50 262.5t153.5 190.5t245.5 73q111 0 198 -41t137.5 -109.5t76.5 -150t26 -170.5q0 -51 -6 -88h-739q3 -166 89.5 -260t235.5 -94q88 0 156.5 28t134.5 99l99 -86q-87 -92 -179.5 -131t-212.5 -39q-149 0 -256 70t-158 185t-51 261zM246 586h610l-1 10 q-1 11 -1 22q-8 128 -87 208.5t-214 80.5q-132 0 -215 -91.5t-92 -229.5zM246 1427h151l213 -288h-110z" />
<glyph unicode="&#xe9;" horiz-adv-x="1089" d="M104 500q0 145 50 262.5t153.5 190.5t245.5 73q111 0 198 -41t137.5 -109.5t76.5 -150t26 -170.5q0 -51 -6 -88h-739q3 -166 89.5 -260t235.5 -94q88 0 156.5 28t134.5 99l99 -86q-87 -92 -179.5 -131t-212.5 -39q-149 0 -256 70t-158 185t-51 261zM246 586h610l-1 10 q-1 11 -1 22q-8 128 -87 208.5t-214 80.5q-132 0 -215 -91.5t-92 -229.5zM502 1139l221 288h151l-264 -288h-108z" />
<glyph unicode="&#xea;" horiz-adv-x="1089" d="M104 500q0 145 50 262.5t153.5 190.5t245.5 73q111 0 198 -41t137.5 -109.5t76.5 -150t26 -170.5q0 -51 -6 -88h-739q3 -166 89.5 -260t235.5 -94q88 0 156.5 28t134.5 99l99 -86q-87 -92 -179.5 -131t-212.5 -39q-149 0 -256 70t-158 185t-51 261zM246 586h610l-1 10 q-1 11 -1 22q-8 128 -87 208.5t-214 80.5q-132 0 -215 -91.5t-92 -229.5zM250 1122l305 326l305 -326h-117l-188 201l-186 -201h-119z" />
<glyph unicode="&#xeb;" horiz-adv-x="1089" d="M104 500q0 145 50 262.5t153.5 190.5t245.5 73q111 0 198 -41t137.5 -109.5t76.5 -150t26 -170.5q0 -51 -6 -88h-739q3 -166 89.5 -260t235.5 -94q88 0 156.5 28t134.5 99l99 -86q-87 -92 -179.5 -131t-212.5 -39q-149 0 -256 70t-158 185t-51 261zM246 586h610l-1 10 q-1 11 -1 22q-8 128 -87 208.5t-214 80.5q-132 0 -215 -91.5t-92 -229.5zM289 1219v208h164v-208h-164zM657 1219v208h164v-208h-164z" />
<glyph unicode="&#xec;" horiz-adv-x="514" d="M-53 1427h151l213 -288h-110zM186 0v1010h142v-1010h-142z" />
<glyph unicode="&#xed;" horiz-adv-x="514" d="M186 0v1010h142v-1010h-142zM203 1139l221 288h151l-264 -288h-108z" />
<glyph unicode="&#xee;" horiz-adv-x="514" d="M-49 1122l305 326l305 -326h-117l-188 201l-186 -201h-119zM186 0v1010h142v-1010h-142z" />
<glyph unicode="&#xef;" horiz-adv-x="514" d="M-10 1219v208h164v-208h-164zM186 0v1010h142v-1010h-142zM358 1219v208h164v-208h-164z" />
<glyph unicode="&#xf0;" horiz-adv-x="1245" d="M98 442q0 128 44 238.5t119 186.5t176 119.5t214 43.5q223 0 330 -143q-15 212 -141 332l-314 -97l-24 78l260 82q-144 91 -389 100l10 97q324 -14 504 -158l235 74l27 -80l-193 -60q170 -191 170 -561q0 -108 -23 -210t-71 -192.5t-116 -157.5t-164.5 -106.5 t-210.5 -39.5q-202 0 -322.5 126t-120.5 328zM229 444q0 -154 90.5 -243.5t229.5 -89.5q94 0 172 35t129.5 93.5t82.5 128t40 144.5q8 67 -5.5 135.5t-47.5 129t-99.5 98.5t-152.5 38q-133 0 -234.5 -64.5t-153 -170.5t-51.5 -234z" />
<glyph unicode="&#xf1;" horiz-adv-x="1153" d="M186 0v1010h142v-148q50 77 138 120.5t196 43.5q163 0 246 -103.5t83 -304.5v-618h-141v584q0 163 -53.5 240t-167.5 77q-143 0 -222 -117.5t-79 -330.5v-453h-142zM264 1186q0 118 51.5 184t139.5 66q43 0 76.5 -18t55.5 -44t42.5 -52t46 -44t55.5 -18q41 0 67.5 45.5 t26.5 121.5h88q0 -120 -49.5 -190t-132.5 -70q-47 0 -83 18.5t-58 44.5t-41.5 52.5t-43.5 45t-54 18.5q-47 0 -75 -42.5t-28 -117.5h-84z" />
<glyph unicode="&#xf2;" horiz-adv-x="1165" d="M98 506q0 226 134.5 373t349.5 147q214 0 349.5 -147t135.5 -373q0 -225 -135.5 -373.5t-349.5 -148.5q-142 0 -253 68t-171 186.5t-60 267.5zM240 506q0 -176 92 -286.5t250 -110.5q159 0 251.5 112t92.5 285q0 175 -92.5 285t-251.5 110t-250.5 -110t-91.5 -285z M272 1427h152l213 -288h-111z" />
<glyph unicode="&#xf3;" horiz-adv-x="1165" d="M98 506q0 226 134.5 373t349.5 147q214 0 349.5 -147t135.5 -373q0 -225 -135.5 -373.5t-349.5 -148.5q-142 0 -253 68t-171 186.5t-60 267.5zM240 506q0 -176 92 -286.5t250 -110.5q159 0 251.5 112t92.5 285q0 175 -92.5 285t-251.5 110t-250.5 -110t-91.5 -285z M528 1139l222 288h151l-264 -288h-109z" />
<glyph unicode="&#xf4;" horiz-adv-x="1165" d="M98 506q0 226 134.5 373t349.5 147q214 0 349.5 -147t135.5 -373q0 -225 -135.5 -373.5t-349.5 -148.5q-142 0 -253 68t-171 186.5t-60 267.5zM240 506q0 -176 92 -286.5t250 -110.5q159 0 251.5 112t92.5 285q0 175 -92.5 285t-251.5 110t-250.5 -110t-91.5 -285z M276 1122l306 326l305 -326h-117l-188 201l-187 -201h-119z" />
<glyph unicode="&#xf5;" horiz-adv-x="1165" d="M98 506q0 226 134.5 373t349.5 147q214 0 349.5 -147t135.5 -373q0 -225 -135.5 -373.5t-349.5 -148.5q-142 0 -253 68t-171 186.5t-60 267.5zM240 506q0 -176 92 -286.5t250 -110.5q159 0 251.5 112t92.5 285q0 175 -92.5 285t-251.5 110t-250.5 -110t-91.5 -285z M256 1186q0 118 51 184t139 66q43 0 77 -18t56 -44t42 -52t46 -44t56 -18q41 0 67.5 45.5t26.5 121.5h88q0 -120 -49.5 -190t-132.5 -70q-47 0 -83.5 18.5t-58.5 44.5t-41.5 52.5t-43.5 45t-54 18.5q-47 0 -74.5 -42.5t-27.5 -117.5h-84z" />
<glyph unicode="&#xf6;" horiz-adv-x="1165" d="M98 506q0 226 134.5 373t349.5 147q214 0 349.5 -147t135.5 -373q0 -225 -135.5 -373.5t-349.5 -148.5q-142 0 -253 68t-171 186.5t-60 267.5zM240 506q0 -176 92 -286.5t250 -110.5q159 0 251.5 112t92.5 285q0 175 -92.5 285t-251.5 110t-250.5 -110t-91.5 -285z M315 1219v208h164v-208h-164zM684 1219v208h164v-208h-164z" />
<glyph unicode="&#xf7;" horiz-adv-x="1024" d="M139 578v118h744v-118h-744zM434 145v224h154v-224h-154zM434 893v225h154v-225h-154z" />
<glyph unicode="&#xf8;" horiz-adv-x="1165" d="M98 506q0 226 134.5 373t349.5 147q129 0 231 -57l88 141h109l-119 -192q84 -69 130 -176.5t46 -235.5q0 -225 -135.5 -373.5t-349.5 -148.5q-131 0 -236 57l-88 -141h-108l120 194q-82 71 -127 177.5t-45 234.5zM240 506q0 -189 102 -297l406 653q-73 39 -166 39 q-159 0 -250.5 -110t-91.5 -285zM414 150q71 -41 168 -41q159 0 251.5 112t92.5 285q0 191 -105 299z" />
<glyph unicode="&#xf9;" horiz-adv-x="1153" d="M162 391v619h141v-584q0 -55 4.5 -96.5t18 -85t37 -71.5t64.5 -46t97 -18q147 0 224 117t77 319v465h142v-1010h-142v145q-52 -79 -140.5 -120t-192.5 -41q-167 0 -248.5 106.5t-81.5 300.5zM254 1427h152l212 -288h-110z" />
<glyph unicode="&#xfa;" horiz-adv-x="1153" d="M162 391v619h141v-584q0 -55 4.5 -96.5t18 -85t37 -71.5t64.5 -46t97 -18q147 0 224 117t77 319v465h142v-1010h-142v145q-52 -79 -140.5 -120t-192.5 -41q-167 0 -248.5 106.5t-81.5 300.5zM510 1139l221 288h152l-265 -288h-108z" />
<glyph unicode="&#xfb;" horiz-adv-x="1153" d="M162 391v619h141v-584q0 -55 4.5 -96.5t18 -85t37 -71.5t64.5 -46t97 -18q147 0 224 117t77 319v465h142v-1010h-142v145q-52 -79 -140.5 -120t-192.5 -41q-167 0 -248.5 106.5t-81.5 300.5zM258 1122l305 326l305 -326h-116l-189 201l-186 -201h-119z" />
<glyph unicode="&#xfc;" horiz-adv-x="1153" d="M162 391v619h141v-584q0 -55 4.5 -96.5t18 -85t37 -71.5t64.5 -46t97 -18q147 0 224 117t77 319v465h142v-1010h-142v145q-52 -79 -140.5 -120t-192.5 -41q-167 0 -248.5 106.5t-81.5 300.5zM297 1219v208h164v-208h-164zM666 1219v208h163v-208h-163z" />
<glyph unicode="&#xfd;" horiz-adv-x="1044" d="M37 1010h156l348 -832l305 832h155l-552 -1428h-152l168 430zM469 1139l221 288h152l-264 -288h-109z" />
<glyph unicode="&#xfe;" horiz-adv-x="1218" d="M188 -418v1845h142v-553q119 154 334 154q209 0 328.5 -141.5t119.5 -380.5q0 -153 -49.5 -269t-152 -184.5t-246.5 -68.5q-215 0 -334 151v-553h-142zM317 506q0 -177 85.5 -287t240.5 -110q157 0 242.5 109.5t85.5 287.5q0 181 -87.5 289t-240.5 108 q-151 0 -238.5 -108t-87.5 -289z" />
<glyph unicode="&#xff;" horiz-adv-x="1044" d="M37 1010h156l348 -832l305 832h155l-552 -1428h-152l168 430zM256 1219v208h164v-208h-164zM625 1219v208h163v-208h-163z" />
<glyph unicode="&#x152;" horiz-adv-x="2375" d="M137 713q0 328 180.5 529.5t473.5 201.5q176 0 315 -76.5t225 -216.5v276h936v-135h-790v-497h710v-136h-710v-524h790v-135h-936v274q-86 -138 -225 -214t-315 -76q-293 0 -473.5 201t-180.5 528zM283 713q0 -269 138 -429.5t370 -160.5t369.5 160.5t137.5 429.5 q0 270 -137.5 431t-369.5 161t-370 -161t-138 -431z" />
<glyph unicode="&#x153;" horiz-adv-x="1927" d="M96 506q0 144 61.5 262.5t174.5 188t254 69.5q133 0 240.5 -62t172.5 -169q58 107 158.5 169t233.5 62q80 0 147 -20.5t113.5 -56.5t82 -82t55.5 -99.5t30 -106t10 -104.5q0 -66 -6 -90h-742q9 -168 93 -261t233 -93q91 0 159 29t134 98l98 -86q-87 -90 -178 -130 t-213 -40q-143 0 -247 61t-163 170q-65 -107 -172 -169t-239 -62q-141 0 -254 70t-174.5 189t-61.5 263zM244 506q0 -170 93 -285t249 -115q158 0 252 115t94 285t-94 283.5t-252 113.5q-157 0 -249.5 -113t-92.5 -284zM1083 590h607q0 29 -2 41q-12 114 -87.5 194 t-211.5 80q-127 0 -207 -85.5t-99 -229.5z" />
<glyph unicode="&#x178;" horiz-adv-x="1359" d="M61 1427h172l445 -739l446 739h174l-544 -880v-547h-148v547zM414 1636v209h164v-209h-164zM782 1636v209h164v-209h-164z" />
<glyph unicode="&#x2c6;" horiz-adv-x="729" d="M59 1122l306 326l305 -326h-117l-188 201l-187 -201h-119z" />
<glyph unicode="&#x2dc;" horiz-adv-x="929" d="M139 1186q0 118 51.5 184t139.5 66q43 0 76.5 -18t55.5 -44t42.5 -52t46 -44t55.5 -18q41 0 67.5 45.5t26.5 121.5h88q0 -120 -49.5 -190t-132.5 -70q-47 0 -83 18.5t-58 44.5t-41.5 52.5t-43.5 45t-54 18.5q-48 0 -75.5 -42.5t-27.5 -117.5h-84z" />
<glyph unicode="&#x2000;" horiz-adv-x="933" />
<glyph unicode="&#x2001;" horiz-adv-x="1866" />
<glyph unicode="&#x2002;" horiz-adv-x="933" />
<glyph unicode="&#x2003;" horiz-adv-x="1866" />
<glyph unicode="&#x2004;" horiz-adv-x="622" />
<glyph unicode="&#x2005;" horiz-adv-x="466" />
<glyph unicode="&#x2006;" horiz-adv-x="311" />
<glyph unicode="&#x2007;" horiz-adv-x="311" />
<glyph unicode="&#x2008;" horiz-adv-x="233" />
<glyph unicode="&#x2009;" horiz-adv-x="373" />
<glyph unicode="&#x200a;" horiz-adv-x="103" />
<glyph unicode="&#x2010;" horiz-adv-x="899" d="M176 573v109h547v-109h-547z" />
<glyph unicode="&#x2011;" horiz-adv-x="899" d="M176 573v109h547v-109h-547z" />
<glyph unicode="&#x2012;" horiz-adv-x="899" d="M176 573v109h547v-109h-547z" />
<glyph unicode="&#x2013;" horiz-adv-x="1085" d="M176 573v109h733v-109h-733z" />
<glyph unicode="&#x2014;" horiz-adv-x="2068" d="M0 573v109h2068v-109h-2068z" />
<glyph unicode="&#x2018;" horiz-adv-x="591" d="M102 844l271 583h96l-205 -583h-162z" />
<glyph unicode="&#x2019;" horiz-adv-x="593" d="M123 846l205 581h161l-270 -581h-96z" />
<glyph unicode="&#x201a;" horiz-adv-x="593" d="M123 -317l205 581h161l-270 -581h-96z" />
<glyph unicode="&#x201c;" horiz-adv-x="937" d="M102 844l271 583h96l-205 -583h-162zM446 844l271 583h98l-207 -583h-162z" />
<glyph unicode="&#x201d;" horiz-adv-x="940" d="M123 846l205 581h161l-270 -581h-96zM467 846l205 581h164l-273 -581h-96z" />
<glyph unicode="&#x201e;" horiz-adv-x="950" d="M123 -317l205 581h161l-270 -581h-96zM479 -317l205 581h162l-271 -581h-96z" />
<glyph unicode="&#x2022;" horiz-adv-x="876" d="M199 485q0 100 70 171t169 71q100 0 170 -71t70 -171q0 -99 -70 -169t-170 -70q-99 0 -169 70t-70 169z" />
<glyph unicode="&#x2026;" horiz-adv-x="1531" d="M256 0v225h184v-225h-184zM674 0v225h184v-225h-184zM1092 0v225h184v-225h-184z" />
<glyph unicode="&#x202f;" horiz-adv-x="373" />
<glyph unicode="&#x2039;" horiz-adv-x="638" d="M76 516l401 344v-125l-254 -219l254 -219v-125z" />
<glyph unicode="&#x203a;" horiz-adv-x="636" d="M158 172v125l254 219l-254 219v125l401 -344z" />
<glyph unicode="&#x205f;" horiz-adv-x="466" />
<glyph unicode="&#x20ac;" horiz-adv-x="1507" d="M168 520l2 98h119q-4 70 -4 109q0 55 6 111h-121v96h137q53 234 218 372t419 138q246 0 397 -119l-77 -121q-128 101 -320 101q-191 0 -316.5 -99.5t-172.5 -271.5h663l-2 -96h-680q-8 -49 -8 -113q0 -54 6 -107h682l-2 -98h-663q43 -184 167 -290.5t318 -106.5 q205 0 336 115l78 -119q-163 -135 -414 -135q-258 0 -421 144.5t-212 391.5h-135z" />
<glyph unicode="&#x2122;" horiz-adv-x="1525" d="M174 1343v84h404v-84h-154v-458h-92v458h-158zM698 885v542h148l129 -374l129 374h143v-542h-90v444l-153 -409h-58l-158 413v-448h-90z" />
<glyph unicode="&#x25fc;" horiz-adv-x="1013" d="M0 0v1014h1014v-1014h-1014z" />
<glyph unicode="&#xfb03;" horiz-adv-x="1605" d="M35 891v119h174v92q0 153 110.5 247.5t274.5 94.5q150 0 268 -80q95 80 246 80q176 0 311 -96l-67 -99q-103 78 -238 78q-225 0 -225 -237v-80h541v-1010h-142v891h-399v-891h-139v891h-400v-891h-141v891h-174zM350 1010h400v82q0 117 45 184q-85 51 -195 51 q-118 0 -184 -62t-66 -165v-90z" />
<glyph unicode="&#xfb04;" horiz-adv-x="1665" d="M35 891v119h174v92q0 153 110.5 247.5t274.5 94.5q153 0 268 -78q96 78 246 78q175 0 322 -101v-1114q0 -116 94 -116q40 0 96 18l2 -121q-95 -26 -149 -26q-88 0 -136.5 51.5t-48.5 157.5v1089q-76 45 -174 45q-225 0 -225 -237v-80h229v-119h-229v-891h-139v891h-400 v-891h-141v891h-174zM350 1010h400v82q0 112 43 184q-79 51 -193 51q-118 0 -184 -62t-66 -165v-90z" />
</font>
</defs>
</svg>
