<?xml version="1.0" standalone="no"?>
<!DOCTYPE svg PUBLIC "-//W3C//DTD SVG 1.1//EN" "http://www.w3.org/Graphics/SVG/1.1/DTD/svg11.dtd" >
<svg xmlns="http://www.w3.org/2000/svg" xmlns:xlink="http://www.w3.org/1999/xlink" version="1.1">
<metadata></metadata>
<defs>
<font id="hk_groteskmedium" horiz-adv-x="1173" >
<font-face units-per-em="2048" ascent="1638" descent="-410" />
<missing-glyph horiz-adv-x="538" />
<glyph unicode="&#xfb01;" horiz-adv-x="1083" d="M27 866v144h172v77q0 171 108.5 265t272.5 94q192 0 340 -100l-84 -123q-110 77 -248 77q-213 0 -213 -215v-75h543v-1010h-177v866h-366v-866h-176v866h-172z" />
<glyph unicode="&#xfb02;" horiz-adv-x="1157" d="M27 866v144h168v77q0 171 106 265t266 94q106 0 184 -21.5t185 -81.5v-1101q0 -56 22 -77.5t66 -21.5q34 0 90 17v-150q-93 -28 -149 -28q-203 0 -203 241v1030q-80 47 -187 47q-204 0 -204 -215v-75h217l-2 -144h-215v-866h-176v866h-168z" />
<glyph horiz-adv-x="0" />
<glyph horiz-adv-x="682" />
<glyph unicode=" "  horiz-adv-x="538" />
<glyph unicode="&#x09;" horiz-adv-x="538" />
<glyph unicode="&#xa0;" horiz-adv-x="538" />
<glyph unicode="!" horiz-adv-x="651" d="M221 0v240h211v-240h-211zM238 1427h176l-21 -1013h-135z" />
<glyph unicode="&#x22;" horiz-adv-x="892" d="M205 922v505h149v-505h-149zM539 922v505h149v-505h-149z" />
<glyph unicode="#" horiz-adv-x="1425" d="M106 428v125h273l72 344h-261v131h285l92 399h140l-89 -403h318l86 403h141l-90 -403h248v-127h-274l-74 -344h264v-125h-289l-92 -428h-139l90 428h-320l-88 -428h-139l90 428h-244zM518 553h320l69 344h-317z" />
<glyph unicode="$" horiz-adv-x="1249" d="M125 389l182 43q13 -95 62 -160t119 -95t157 -30q130 0 208.5 68t78.5 170q0 55 -24.5 99t-66 74t-95.5 56t-113 49t-118.5 47.5t-113.5 56.5t-95.5 72t-66 99t-24.5 131q0 149 95.5 248.5t242.5 122.5v215h162v-215q219 -28 336 -232l-154 -94q-90 168 -268 168 q-99 0 -165.5 -57.5t-66.5 -147.5q0 -50 24.5 -89.5t66 -67t95.5 -52t113.5 -47t118.5 -47t113 -58.5t95.5 -75.5t66 -103t24.5 -136.5q0 -166 -111 -277.5t-284 -133.5v-226l-162 -2v230q-168 23 -286 125t-146 272z" />
<glyph unicode="%" horiz-adv-x="1511" d="M121 1120q0 134 74.5 230t199.5 96q121 0 200 -94t79 -234q0 -139 -77.5 -231t-195.5 -92q-128 0 -204 95t-76 230zM242 1120q0 -88 40.5 -146.5t118.5 -58.5q66 0 109 57t43 146t-42.5 148t-115.5 59q-74 0 -113.5 -59.5t-39.5 -145.5zM281 0l823 1427h127l-823 -1427 h-127zM838 309q0 133 74 228.5t200 95.5q121 0 200 -93.5t79 -232.5q0 -140 -77.5 -232.5t-195.5 -92.5q-129 0 -204.5 95.5t-75.5 231.5zM958 309q0 -88 41 -147.5t119 -59.5q66 0 109 58t43 147q0 88 -42.5 146.5t-115.5 58.5q-74 0 -114 -59t-40 -144z" />
<glyph unicode="&#x26;" horiz-adv-x="1427" d="M121 330q0 63 20 120t50 99t79 83.5t92.5 69.5t104.5 62q-33 35 -55.5 62.5t-57 76.5t-53 102.5t-18.5 106.5q0 147 112.5 238.5t266.5 91.5q150 0 255 -95t105 -233q0 -54 -17 -103t-43 -86.5t-67.5 -74.5t-81 -63.5t-92.5 -57.5l278 -319q64 131 70 286l172 -16 q-15 -230 -129 -401l209 -240l-125 -109l-190 222q-184 -170 -437 -170q-197 0 -322.5 93t-125.5 255zM293 328q0 -93 73 -145t199 -52q199 0 338 139l-325 379q-53 -30 -89 -52.5t-76 -54.5t-64 -62.5t-40 -69.5t-16 -82zM453 1110q0 -34 15 -72.5t45.5 -81.5t45.5 -62 t47 -56q60 33 99.5 58.5t77.5 59.5t56.5 73t18.5 83q0 80 -53.5 135.5t-142.5 55.5q-90 0 -149.5 -53t-59.5 -140z" />
<glyph unicode="'" horiz-adv-x="559" d="M205 950v477h149v-477h-149z" />
<glyph unicode="(" horiz-adv-x="583" d="M131 713q0 252 62.5 459.5t177.5 338.5h161q-262 -323 -262 -802q0 -466 260 -797h-157q-109 121 -175.5 352t-66.5 449z" />
<glyph unicode=")" horiz-adv-x="583" d="M53 1511h160q115 -133 178.5 -339.5t63.5 -458.5q0 -218 -66.5 -449t-177.5 -352h-156q258 332 258 797q0 481 -260 802z" />
<glyph unicode="*" horiz-adv-x="911" d="M143 1151l50 145l215 -92l-33 223h155l-30 -223l215 92l47 -145l-234 -35l164 -178l-129 -90l-110 227l-113 -227l-127 90l164 178z" />
<glyph unicode="+" horiz-adv-x="1273" d="M117 559v148h446v446h148v-446h444v-148h-444v-446h-148v446h-446z" />
<glyph unicode="," horiz-adv-x="661" d="M156 -313l168 577h217l-267 -577h-118z" />
<glyph unicode="-" horiz-adv-x="888" d="M164 553v135h561v-135h-561z" />
<glyph unicode="." horiz-adv-x="679" d="M238 0v240h204v-240h-204z" />
<glyph unicode="/" horiz-adv-x="901" d="M0 -432l735 1859h168l-739 -1859h-164z" />
<glyph unicode="0" d="M127 713q0 735 455 735q87 0 158.5 -28t122 -79.5t87.5 -119t59 -151.5t32 -172.5t10 -186.5q0 -118 -14 -220.5t-47 -197.5t-84 -162.5t-130 -108t-180 -40.5q-469 0 -469 731zM307 713q0 -65 2.5 -118.5t10.5 -113t20.5 -105.5t34.5 -89.5t51 -72t71.5 -45.5t94.5 -17 q66 0 115 31.5t77.5 82t46 126t23.5 151t6 170.5q0 81 -4.5 146.5t-15 132.5t-31 116.5t-50.5 89t-75 60t-102 20.5q-50 0 -90.5 -17t-69 -45t-49.5 -71t-33.5 -89.5t-20 -106.5t-10 -114.5t-2.5 -121.5z" />
<glyph unicode="1" d="M248 1049v151h221q131 0 131 119v108h172v-1427h-176v1049h-348z" />
<glyph unicode="2" d="M90 0v156q77 47 139 87.5t143 99.5t143 113.5t125.5 123t105 134.5t68 143t26.5 153q0 122 -65.5 193t-190.5 71q-75 0 -132.5 -27t-91.5 -74.5t-51.5 -108t-19.5 -132.5l-174 12q0 102 31 192t89 159t148 109t201 40q195 0 314.5 -116t119.5 -314q0 -125 -52 -249.5 t-144 -232t-199.5 -197.5t-235.5 -169h694v-166h-991z" />
<glyph unicode="3" d="M66 434l174 10q0 -137 94 -214.5t246 -77.5q144 0 236.5 72t92.5 204q0 65 -26 112.5t-64 73t-95.5 41t-106 19.5t-109.5 4v143q156 0 241 58.5t85 173.5q0 109 -71 166t-181 57q-124 0 -199 -65.5t-76 -182.5l-172 12q0 185 125.5 295.5t314.5 110.5q116 0 214 -43 t159.5 -129t61.5 -199q0 -110 -56 -192t-143 -117q124 -29 199 -122t75 -234q0 -132 -70 -230.5t-184.5 -148t-255.5 -49.5q-145 0 -258.5 50.5t-182 154.5t-68.5 247z" />
<glyph unicode="4" d="M33 338v111l717 978h159v-919h230v-170h-230v-338h-176v338h-700zM262 508h471v661z" />
<glyph unicode="5" d="M86 401l172 29q21 -121 106.5 -199.5t215.5 -78.5q145 0 232 98.5t87 236.5q0 133 -81.5 222.5t-223.5 89.5q-185 0 -291 -158l-174 45l133 741h758v-167h-612l-72 -398q120 101 278 101q203 0 337 -138.5t134 -337.5q0 -134 -64 -249.5t-180.5 -185.5t-258.5 -70 q-193 0 -329.5 119.5t-166.5 299.5z" />
<glyph unicode="6" d="M92 463q0 135 76 258l428 706h201l-318 -507q125 33 240 4q158 -37 262 -165t104 -294q0 -97 -39.5 -186.5t-106 -154.5t-158 -103.5t-191.5 -38.5q-135 0 -249.5 64.5t-181.5 175.5t-67 241zM270 465q0 -129 93.5 -221t226.5 -92q131 0 224 92t93 221t-93 221t-224 92 q-132 0 -226 -92t-94 -221z" />
<glyph unicode="7" d="M74 1260v167h1024v-102l-676 -1325h-201l658 1260h-805z" />
<glyph unicode="8" d="M90 410q0 129 64.5 224.5t181.5 141.5q-79 44 -124.5 121t-45.5 176q0 113 62 200t157 130t205 43q113 0 208 -45.5t153.5 -133t58.5 -200.5q0 -97 -46.5 -173.5t-123.5 -117.5q116 -45 179.5 -141.5t63.5 -224.5q0 -103 -41.5 -186.5t-111 -135t-157.5 -79t-185 -27.5 t-185 27t-158.5 78.5t-112.5 135t-42 187.5zM266 424q0 -131 92 -202.5t230 -71.5t229.5 71.5t91.5 202.5q0 129 -89 205t-232 76t-232.5 -76t-89.5 -205zM342 1059q0 -106 68.5 -169t179.5 -63q109 0 177.5 62.5t68.5 165.5q0 98 -69 159.5t-177 61.5q-106 0 -177 -59 t-71 -158z" />
<glyph unicode="9" d="M90 963q0 130 66.5 241.5t180.5 176.5t249 65q100 0 192 -38.5t159 -103t106.5 -153.5t39.5 -186q0 -137 -75 -258l-428 -707h-201l315 506q-126 -30 -237 -2q-158 37 -262.5 165t-104.5 294zM268 963q0 -129 93 -221.5t225 -92.5t224.5 92.5t92.5 221.5q0 130 -92 221.5 t-225 91.5q-132 0 -225 -92t-93 -221z" />
<glyph unicode=":" horiz-adv-x="692" d="M242 0v240h211v-240h-211zM242 725v240h211v-240h-211z" />
<glyph unicode=";" horiz-adv-x="681" d="M115 -313l168 577h217l-267 -577h-118zM285 725v240h213v-240h-213z" />
<glyph unicode="&#x3c;" horiz-adv-x="1316" d="M86 610l1038 592l68 -117l-834 -475l834 -475l-68 -117z" />
<glyph unicode="=" horiz-adv-x="1320" d="M256 397v150h809v-150h-809zM256 815v148h809v-148h-809z" />
<glyph unicode="&#x3e;" horiz-adv-x="1316" d="M127 135l831 475l-831 475l66 117l1038 -592l-1038 -592z" />
<glyph unicode="?" horiz-adv-x="1054" d="M86 1028q0 194 115.5 306t308.5 112t316.5 -102.5t123.5 -284.5q0 -74 -19.5 -132t-51 -94t-69.5 -64t-76 -49t-69.5 -41.5t-51 -48.5t-19.5 -63v-157h-150v159q0 64 19.5 112t50.5 77t68.5 52.5t75.5 45t69 46.5t50.5 65t19.5 94q0 116 -75 176.5t-206 60.5 q-133 0 -202.5 -70.5t-71.5 -199.5h-156zM416 0v240h211v-240h-211z" />
<glyph unicode="@" horiz-adv-x="2107" d="M143 524q0 193 67.5 363.5t187 294t292.5 195t375 71.5q201 0 372 -71t286.5 -192t180 -283.5t64.5 -344.5q0 -95 -17.5 -184.5t-55 -170.5t-91 -141t-131 -95.5t-170.5 -35.5q-99 0 -160.5 48.5t-76.5 142.5q-9 65 -9 117q-65 -88 -153.5 -138.5t-188.5 -50.5 q-156 0 -239.5 108t-83.5 275q0 82 20.5 169.5t62.5 170t99.5 148t139 105.5t173.5 40q105 0 174.5 -51t96.5 -142l31 142l143 -2q-14 -73 -53 -239t-67 -305.5t-32 -229.5q-5 -83 21 -123.5t96 -40.5q86 0 152.5 42.5t105 114t57.5 154.5t19 174q0 155 -54.5 292.5 t-152.5 240t-243 162t-316 59.5q-172 0 -319.5 -60.5t-248 -166t-157.5 -249.5t-57 -309q0 -172 61 -313.5t166 -234t243 -143t294 -50.5q131 0 262 43l49 -131q-143 -53 -314 -53q-185 0 -349 61.5t-286.5 172.5t-194 278t-71.5 366zM727 426q0 -111 50 -172t151 -61 q72 0 134.5 31t106.5 82.5t75.5 117t47 134t15.5 134.5q0 110 -49.5 170t-149.5 60q-90 0 -165 -47t-120.5 -121t-70.5 -159.5t-25 -168.5z" />
<glyph unicode="A" horiz-adv-x="1339" d="M51 0l547 1427h143l547 -1427h-201l-126 354h-582l-127 -354h-201zM438 516h463l-231 647z" />
<glyph unicode="B" horiz-adv-x="1300" d="M215 0v1427h459q205 0 319.5 -94.5t114.5 -263.5q0 -106 -46 -185.5t-132 -119.5q124 -35 189 -126.5t65 -231.5q0 -194 -120.5 -300t-340.5 -106h-508zM397 168h314q138 0 213 66t75 186q0 115 -68 177t-196 62h-338v-491zM397 823h295q112 0 173 56.5t61 158.5 q0 105 -66 163.5t-186 58.5h-277v-437z" />
<glyph unicode="C" horiz-adv-x="1478" d="M119 717q0 338 179.5 533.5t489.5 195.5q220 0 374.5 -100t230.5 -293l-170 -66q-108 285 -435 285q-232 0 -359.5 -145.5t-127.5 -409.5q0 -266 126.5 -413.5t354.5 -147.5q161 0 273 73.5t168 216.5l174 -63q-79 -195 -237.5 -298t-377.5 -103q-309 0 -486 196.5 t-177 538.5z" />
<glyph unicode="D" horiz-adv-x="1462" d="M215 0v1427h397q350 0 542 -189.5t192 -535.5q0 -341 -189.5 -521.5t-546.5 -180.5h-395zM397 168h197q289 0 428 133t139 410q0 549 -553 549h-211v-1092z" />
<glyph unicode="E" horiz-adv-x="1280" d="M215 0v1427h942v-167h-760v-447h690v-168h-690v-477h760v-168h-942z" />
<glyph unicode="F" horiz-adv-x="1269" d="M215 0v1427h983v-167h-801v-447h703v-168h-703v-645h-182z" />
<glyph unicode="G" horiz-adv-x="1560" d="M119 717q0 211 76 374t229.5 259t366.5 96q220 0 373.5 -102.5t226.5 -290.5l-168 -66q-110 285 -435 285q-237 0 -362 -147.5t-125 -403.5q0 -167 52 -292t164 -199t274 -74q124 0 219 41.5t153 133t58 224.5v37h-336v158h512v-750h-140l-24 197q-60 -102 -179.5 -158.5 t-275.5 -56.5q-201 0 -351.5 94.5t-229 260.5t-78.5 380z" />
<glyph unicode="H" horiz-adv-x="1499" d="M215 0v1427h182v-612h703v612h184v-1427h-184v645h-703v-645h-182z" />
<glyph unicode="I" horiz-adv-x="614" d="M215 0v1427h182v-1427h-182z" />
<glyph unicode="J" horiz-adv-x="1179" d="M63 426l181 20q9 -142 82 -217t202 -75q279 0 279 362v744h-563v167h745v-921q0 -249 -121.5 -386.5t-339.5 -137.5q-201 0 -325.5 118.5t-139.5 325.5z" />
<glyph unicode="K" horiz-adv-x="1452" d="M215 0v1427h182v-763l736 763h239l-516 -528l541 -899h-211l-455 774l-334 -342v-432h-182z" />
<glyph unicode="L" horiz-adv-x="1087" d="M215 0v1427h182v-1259h639v-168h-821z" />
<glyph unicode="M" horiz-adv-x="1826" d="M215 0v1427h264l434 -1097l435 1097h264v-1427h-185v1180l-423 -1059h-179l-428 1063v-1184h-182z" />
<glyph unicode="N" horiz-adv-x="1476" d="M215 0v1427h195l669 -1112v1112h183v-1427h-197l-668 1116v-1116h-182z" />
<glyph unicode="O" horiz-adv-x="1560" d="M117 713q0 328 183.5 530.5t479.5 202.5q196 0 347 -91.5t234 -258t83 -383.5q0 -327 -184 -529t-480 -202t-479.5 202t-183.5 529zM299 713q0 -254 130.5 -405.5t350.5 -151.5t351 151.5t131 405.5q0 255 -131 407t-351 152t-350.5 -152t-130.5 -407z" />
<glyph unicode="P" horiz-adv-x="1202" d="M215 0v1427h428q232 0 353.5 -103t121.5 -300q0 -199 -123 -305.5t-352 -106.5h-246v-612h-182zM397 780h228q311 0 311 242q0 238 -311 238h-228v-480z" />
<glyph unicode="Q" horiz-adv-x="1593" d="M115 713q0 328 183.5 530.5t479.5 202.5q196 0 347 -91.5t234 -258t83 -383.5q0 -314 -170 -512l211 -207l-115 -109l-213 207q-159 -110 -377 -110q-296 0 -479.5 202t-183.5 529zM297 713q0 -254 130.5 -405.5t350.5 -151.5q138 0 246 63l-213 207l117 113l217 -213 q115 149 115 387q0 255 -131 407t-351 152t-350.5 -152t-130.5 -407z" />
<glyph unicode="R" horiz-adv-x="1288" d="M215 0v1427h428q236 0 355.5 -103t119.5 -298q0 -305 -282 -383l387 -643h-211l-359 618h-92h-164v-618h-182zM397 788h228q311 0 311 236t-311 236h-228v-472z" />
<glyph unicode="S" horiz-adv-x="1163" d="M82 389l180 43q19 -132 110 -208.5t228 -76.5q129 0 208 66t79 172q0 91 -71.5 154.5t-250.5 132.5q-219 85 -307 173.5t-88 223.5q0 170 116 273.5t304 103.5q137 0 243.5 -61t172.5 -177l-154 -94q-43 79 -113 123.5t-155 44.5q-99 0 -165.5 -59t-66.5 -146 q0 -79 70 -135t242 -123q230 -87 318.5 -181t88.5 -237q0 -190 -130 -302.5t-343 -112.5q-203 0 -345 110.5t-171 292.5z" />
<glyph unicode="T" horiz-adv-x="1245" d="M51 1260v167h1143v-167h-479v-1260h-185v1260h-479z" />
<glyph unicode="U" horiz-adv-x="1417" d="M184 516v911h183v-892q0 -194 82.5 -284.5t259.5 -90.5t259.5 92t82.5 287v888h182v-901q0 -267 -133.5 -405.5t-390.5 -138.5t-391 136.5t-134 397.5z" />
<glyph unicode="V" horiz-adv-x="1380" d="M51 1427h203l438 -1136l434 1136h201l-565 -1427h-144z" />
<glyph unicode="W" horiz-adv-x="2021" d="M66 1427h188l330 -1153l346 1076h160l346 -1076l327 1153h193l-418 -1427h-182l-344 1061l-348 -1061h-181z" />
<glyph unicode="X" horiz-adv-x="1353" d="M61 0l490 717l-483 710h221l389 -583l391 583h217l-483 -710l491 -717h-219l-399 584l-393 -584h-222z" />
<glyph unicode="Y" horiz-adv-x="1347" d="M39 1427h215l418 -700l420 700h217l-543 -876v-551h-182v551z" />
<glyph unicode="Z" horiz-adv-x="1310" d="M82 0v133l895 1127h-848v167h1088v-139l-889 -1120h884v-168h-1130z" />
<glyph unicode="[" horiz-adv-x="667" d="M207 -141v1706h399v-119h-256v-1466h256v-121h-399z" />
<glyph unicode="\" horiz-adv-x="935" d="M-2 1528h166l776 -1960h-166z" />
<glyph unicode="]" horiz-adv-x="667" d="M61 -20h256v1466h-256v119h400v-1706h-400v121z" />
<glyph unicode="^" horiz-adv-x="1212" d="M100 446l504 1045l508 -1045h-186l-322 709l-315 -709h-189z" />
<glyph unicode="_" horiz-adv-x="1157" d="M164 0h829v-135h-829v135z" />
<glyph unicode="`" horiz-adv-x="520" d="M53 1427h189l213 -288h-136z" />
<glyph unicode="a" horiz-adv-x="1091" d="M76 299q0 164 129 236q104 55 344 55h223v41q0 117 -62 179t-178 62q-172 0 -294 -161l-127 106q167 211 426 211q194 0 302.5 -105t108.5 -292v-631h-162l-12 152q-54 -82 -142.5 -126t-201.5 -44q-163 0 -258.5 85.5t-95.5 231.5zM252 291q0 -74 59 -118t160 -44 q134 0 217.5 87t83.5 226v11h-203q-115 0 -174.5 -10t-91.5 -35q-51 -42 -51 -117z" />
<glyph unicode="b" horiz-adv-x="1202" d="M172 0v1427h176v-544q52 69 136 107t184 38q203 0 322.5 -141.5t119.5 -380.5q0 -152 -49.5 -269t-150.5 -186t-242 -69q-210 0 -320 143v-125h-176zM334 506q0 -163 77.5 -264t223.5 -101q145 0 222 99.5t77 265.5q0 168 -79 266t-220 98q-143 0 -222 -99.5t-79 -264.5z " />
<glyph unicode="c" horiz-adv-x="1030" d="M86 502q0 102 29.5 195t86 167.5t147.5 119t204 44.5q143 0 251 -71.5t167 -213.5l-168 -67q-31 92 -96.5 144t-153.5 52q-59 0 -107 -20.5t-81 -55t-55.5 -82t-33 -101t-10.5 -111.5q0 -73 17 -137.5t50.5 -116t90 -81.5t129.5 -30q89 0 154.5 51t91.5 142l162 -62 q-51 -137 -157.5 -211.5t-248.5 -74.5q-111 0 -201.5 42.5t-148 114.5t-88.5 165t-31 198z" />
<glyph unicode="d" horiz-adv-x="1202" d="M92 506q0 239 120 380.5t323 141.5q100 0 183 -38t136 -107v544h176v-1427h-176v125q-110 -143 -319 -143q-141 0 -242.5 69t-151 186t-49.5 269zM268 506q0 -166 77 -265.5t222 -99.5q146 0 223.5 101t77.5 264q0 165 -79 264.5t-222 99.5q-141 0 -220 -98t-79 -266z " />
<glyph unicode="e" horiz-adv-x="1081" d="M90 500q0 85 18 162t55.5 144t91 116.5t129 77.5t165.5 28t164.5 -27t126 -73t87 -108t52 -132t16.5 -145q0 -49 -6 -90h-723q5 -146 83.5 -228t217.5 -82q81 0 147 27.5t128 93.5l121 -108q-85 -91 -181 -132.5t-217 -41.5q-117 0 -209.5 41t-149.5 113t-86.5 164.5 t-29.5 199.5zM266 594h561q-2 4 -2 20q-5 119 -79 193t-199 74q-123 0 -198 -83t-83 -204z" />
<glyph unicode="f" horiz-adv-x="702" d="M27 866v144h209v141q0 83 22 142.5t61.5 91.5t85 46.5t101.5 14.5q91 0 184 -41l-59 -137q-62 30 -107 30q-58 0 -86 -38.5t-28 -100.5v-149h272v-144h-272v-866h-177v866h-206z" />
<glyph unicode="g" horiz-adv-x="1062" d="M80 -121q0 21 4 45l160 121q-129 63 -129 199q0 121 104 196q-86 95 -86 230q0 156 114 257t281 101q138 0 248 -76l144 123l92 -112l-140 -115q52 -84 52 -186q0 -156 -113.5 -254.5t-278.5 -98.5q-116 0 -202 47q-56 -30 -56 -86q0 -46 39 -74t101.5 -41.5t137.5 -23.5 t150.5 -26t138 -42.5t101.5 -80.5t39 -132q0 -143 -119.5 -214.5t-322.5 -71.5q-217 0 -338 81.5t-121 233.5zM254 -131q0 -60 42.5 -98t105 -52t145.5 -14q120 0 189 32.5t69 96.5q0 38 -24 64t-72.5 41t-95 23t-119 19t-117.5 21l-121 -117q-2 -8 -2 -16zM309 666 q0 -92 59.5 -152.5t161.5 -60.5q100 0 159 60t59 153q0 96 -59.5 155.5t-158.5 59.5q-97 0 -159 -60t-62 -155z" />
<glyph unicode="h" horiz-adv-x="1159" d="M172 0v1427h176v-555q51 74 136 115t190 41q164 0 251 -102t87 -297v-629h-176v586q0 148 -51 217t-158 69q-137 0 -208 -108t-71 -320v-444h-176z" />
<glyph unicode="i" horiz-adv-x="520" d="M162 1212v215h196v-215h-196zM172 0v1010h176v-1010h-176z" />
<glyph unicode="j" horiz-adv-x="520" d="M-6 -408l2 142q50 -15 88 -15q88 0 88 99v1192h176v-1205q0 -121 -56 -181t-153 -60q-63 0 -145 28zM162 1212v215h196v-215h-196z" />
<glyph unicode="k" horiz-adv-x="1118" d="M172 0v1427h176v-911l461 494h235l-368 -383l422 -627h-209l-334 518l-207 -221v-297h-176z" />
<glyph unicode="l" horiz-adv-x="559" d="M164 227v1200h176v-1189q0 -99 84 -99q28 0 90 17l2 -146q-82 -28 -145 -28q-96 0 -151.5 62t-55.5 183z" />
<glyph unicode="m" horiz-adv-x="1736" d="M170 1010h172v-125q87 143 274 143q220 0 297 -197q101 197 330 197q174 0 260 -107.5t86 -285.5v-635h-176v584q0 29 -1.5 51t-7 60t-19 65.5t-35 55t-58 42t-84.5 14.5q-60 0 -104 -23.5t-69.5 -60.5t-40.5 -94t-20 -112.5t-5 -128.5v-453h-176v580q0 57 -9 104.5 t-31 92t-65 70t-104 25.5q-58 0 -101.5 -23t-68.5 -60.5t-40.5 -94t-20.5 -113t-5 -128.5v-453h-176z" />
<glyph unicode="n" horiz-adv-x="1159" d="M172 0v1010h176v-138q51 74 136.5 115t187.5 41q166 0 253 -102t87 -297v-629h-176v586q0 137 -47.5 211.5t-163.5 74.5q-74 0 -128.5 -32.5t-86.5 -92.5t-47 -137t-15 -174v-436h-176z" />
<glyph unicode="o" horiz-adv-x="1148" d="M84 506q0 225 135 373.5t354 148.5q218 0 356 -149t138 -373q0 -146 -61 -265t-174.5 -189t-258.5 -70q-219 0 -354 149.5t-135 374.5zM260 506q0 -162 82 -265.5t231 -103.5q150 0 234 104.5t84 264.5q0 162 -83.5 264t-234.5 102q-150 0 -231.5 -102t-81.5 -264z" />
<glyph unicode="p" horiz-adv-x="1202" d="M172 -418v1428h176v-125q110 143 320 143q206 0 324 -142.5t118 -379.5t-117.5 -380.5t-324.5 -143.5q-100 0 -184.5 38.5t-135.5 106.5v-545h-176zM334 506q0 -165 77.5 -267t223.5 -102q144 0 221.5 100t77.5 269q0 170 -79 269t-220 99q-143 0 -222 -100t-79 -268z " />
<glyph unicode="q" horiz-adv-x="1202" d="M92 506q0 237 117 379.5t323 142.5q100 0 183.5 -36t136.5 -107v125h176v-1428h-176v545q-52 -68 -135 -106.5t-185 -38.5q-206 0 -323 143.5t-117 380.5zM268 506q0 -169 77 -269t222 -100q146 0 223.5 102t77.5 267q0 168 -79 268t-222 100t-221 -98.5t-78 -269.5z" />
<glyph unicode="r" horiz-adv-x="825" d="M172 0v1010h176v-158q44 90 123.5 133t167.5 43q97 0 180 -49l-86 -148q-67 31 -131 31q-118 0 -186 -81.5t-68 -235.5v-545h-176z" />
<glyph unicode="s" horiz-adv-x="942" d="M63 252l146 65q28 -79 94.5 -131.5t171.5 -52.5q96 0 150.5 44t54.5 112q0 48 -31 80t-80.5 49t-109.5 31.5t-119.5 34t-109 47.5t-80.5 81t-31 127q0 133 100 211t254 78q125 0 221 -55t150 -160l-139 -76q-78 142 -236 142q-83 0 -131.5 -32.5t-48.5 -88.5 q0 -42 31 -71.5t81 -46t110.5 -31.5t120.5 -37t110 -53t81 -87t31 -133q0 -78 -31 -140t-83.5 -100t-118.5 -57.5t-140 -19.5q-150 0 -264 75t-154 195z" />
<glyph unicode="t" horiz-adv-x="708" d="M41 866v144h166v266l176 133v-399h248v-144h-248v-596q0 -133 127 -133q47 0 121 23v-150q-86 -28 -164 -28q-116 0 -188 67t-72 203v614h-166z" />
<glyph unicode="u" horiz-adv-x="1159" d="M147 387v623h177v-580q0 -46 3 -81.5t15.5 -77.5t34 -69.5t61 -46t94.5 -18.5q76 0 132 34.5t87 96t45.5 136.5t14.5 167v439h176v-1010h-176v137q-52 -77 -138 -116t-186 -39q-172 0 -256 109t-84 296z" />
<glyph unicode="v" horiz-adv-x="1019" d="M25 1010h190l293 -783l297 783h192l-413 -1010h-148z" />
<glyph unicode="w" horiz-adv-x="1501" d="M41 1010h188l203 -742l240 742h157l240 -742l203 742h188l-301 -1010h-162l-245 764l-248 -764h-162z" />
<glyph unicode="x" horiz-adv-x="1030" d="M37 0l362 506l-362 504h215l264 -381l262 381h215l-362 -504l364 -506h-217l-262 387l-262 -387h-217z" />
<glyph unicode="y" horiz-adv-x="1040" d="M20 1010h195l317 -789l289 789h195l-559 -1428h-191l172 434z" />
<glyph unicode="z" horiz-adv-x="999" d="M63 0v123l642 737h-609v150h828v-133l-625 -727h623v-150h-859z" />
<glyph unicode="{" horiz-adv-x="630" d="M88 610v123q62 20 93.5 54.5t31.5 109.5v354q0 127 56.5 196t164.5 69h127v-117h-67q-129 0 -129 -150v-354q0 -84 -32.5 -137t-103.5 -82v-10q136 -56 136 -205v-338q0 -71 29.5 -111.5t90.5 -40.5h76v-118h-133q-104 0 -159.5 71t-55.5 195v338q0 66 -31.5 98.5 t-93.5 54.5z" />
<glyph unicode="|" horiz-adv-x="651" d="M260 -518v2068h131v-2068h-131z" />
<glyph unicode="}" horiz-adv-x="630" d="M68 -29h75q62 0 92.5 40.5t30.5 111.5v338q0 81 34 129t99 76v10q-67 27 -100 79t-33 140v354q0 70 -28.5 110t-100.5 40h-69v117h127q108 0 164.5 -68.5t56.5 -196.5v-354q0 -77 33 -111.5t94 -52.5v-123q-29 -11 -47 -20t-39 -26t-31 -44t-10 -63v-338 q0 -123 -55 -194.5t-158 -71.5h-135v118z" />
<glyph unicode="~" horiz-adv-x="1269" d="M203 412q0 143 68 229t182 86q64 0 112 -25.5t75.5 -61.5t51 -72t53.5 -61.5t68 -25.5q54 0 87.5 60t33.5 155h135q0 -150 -70 -242t-186 -92q-46 0 -83 13.5t-61 35t-44.5 47.5t-38 52t-35.5 47.5t-43 35t-55 13.5q-54 0 -85.5 -52.5t-31.5 -141.5h-133z" />
<glyph unicode="&#xa1;" horiz-adv-x="651" d="M219 770v240h211v-240h-211zM238 -418l20 1014h133l21 -1014h-174z" />
<glyph unicode="&#xa2;" horiz-adv-x="1177" d="M156 502q0 92 23.5 176.5t68.5 155.5t117.5 120.5t164.5 65.5v211h162v-207q117 -15 206.5 -86t141.5 -195l-168 -67q-31 93 -96.5 144.5t-152.5 51.5q-59 0 -107 -20.5t-81 -55t-55.5 -82t-33 -101t-10.5 -111.5q0 -73 17 -137.5t50.5 -116t90 -81.5t129.5 -30 q89 0 154 51t91 142l162 -62q-44 -120 -131.5 -192.5t-206.5 -89.5v-215l-162 -2v221q-177 33 -275.5 176.5t-98.5 335.5z" />
<glyph unicode="&#xa3;" horiz-adv-x="1273" d="M166 0v162q113 36 189.5 117.5t76.5 175.5q0 56 -51 202h-209v148h172q-16 40 -27.5 104.5t-11.5 122.5q0 181 113.5 299.5t300.5 118.5q153 0 262 -81.5t147 -223.5l-139 -51q-26 105 -97 155.5t-169 50.5q-122 0 -195 -72t-73 -200q0 -122 43 -223h422v-148h-388 q2 -7 12 -36.5t13.5 -42t9.5 -37t8.5 -45.5t2.5 -43q0 -198 -175 -303h719v-150h-956z" />
<glyph unicode="&#xa4;" horiz-adv-x="1415" d="M229 256l103 104q-95 123 -94.5 279.5t94.5 278.5l-101 102l95 98l102 -104q122 94 278.5 95t280.5 -95l103 102l96 -94l-105 -102q96 -123 96 -281.5t-96 -278.5l105 -104l-94 -96l-105 104q-123 -95 -281 -94.5t-278 94.5l-104 -104zM373 637.5q-1 -139.5 94 -234.5 q102 -101 240 -100.5t235 100.5q100 100 101 237t-99 234q-98 98 -237.5 98t-237.5 -98q-95 -97 -96 -236.5z" />
<glyph unicode="&#xa5;" horiz-adv-x="1476" d="M102 1427h224l411 -700l414 700h223l-456 -743h262v-143h-346v-176h346v-144h-346v-221h-191v221h-348v144h348v176h-348v143h266z" />
<glyph unicode="&#xa6;" horiz-adv-x="663" d="M260 -311v735h146v-735h-146zM260 739v750h146v-750h-146z" />
<glyph unicode="&#xa7;" horiz-adv-x="1255" d="M139 633q0 169 113 282q-35 62 -35 154q0 170 121 273.5t297 103.5q284 0 418 -238l-154 -94q-88 168 -268 168q-99 0 -165.5 -57.5t-66.5 -147.5q0 -34 10.5 -63t35 -53.5t47 -42t66 -37.5t71 -31t80.5 -31q38 -15 59 -23.5t57.5 -24t58 -27.5t52.5 -30.5t50 -35.5 t42.5 -40t37 -47.5t26.5 -54t18.5 -63.5t5.5 -72q0 -168 -112 -280q34 -64 34 -156q0 -112 -57 -198.5t-151.5 -131.5t-208.5 -45q-283 0 -418 238l151 94q91 -168 271 -168q99 0 165 57t66 146q0 41 -18 76t-42.5 58.5t-71.5 48.5t-81 39.5t-96 37.5q-54 21 -84 33t-80 36 t-78.5 44.5t-64.5 53.5t-55 67t-32.5 81t-13.5 101zM322 649q0 -34 10 -64t24 -52.5t41 -45t49.5 -37t61 -32.5t64.5 -28.5t71 -27.5q6 -2 26.5 -10t27 -10.5t25 -10t26.5 -11t24 -11t24.5 -12.5t22 -12t22.5 -13.5t20 -15t20 -16.5q53 59 53 145q0 34 -10 64t-24 52.5 t-41 45t-49.5 37t-61.5 32.5t-65 28.5t-71 27.5q-135 53 -185 85q-30 18 -52 38q-53 -59 -53 -146z" />
<glyph unicode="&#xa8;" horiz-adv-x="890" d="M166 1212v215h178v-215h-178zM545 1212v215h178v-215h-178z" />
<glyph unicode="&#xa9;" horiz-adv-x="1794" d="M145 713q0 150 59.5 286.5t160 235.5t240 157t292.5 58t291.5 -58t239 -157t160 -235.5t59.5 -286.5t-59.5 -286.5t-160 -235t-239 -156.5t-291.5 -58t-292.5 58t-240 156.5t-160 235t-59.5 286.5zM258 713q0 -126 50.5 -241t136 -199t204 -133.5t248.5 -49.5 q173 0 320 84t232 227.5t85 311.5q0 127 -50.5 242.5t-135.5 199t-203 133t-248 49.5q-174 0 -321 -83.5t-232.5 -227.5t-85.5 -313zM510 711q0 89 25.5 170.5t74.5 146.5t128 104t177 39q128 0 222.5 -63t144.5 -186l-139 -54q-28 78 -89 124t-139 46q-84 0 -143.5 -47.5 t-86 -119.5t-26.5 -160q0 -64 15.5 -120.5t46 -102.5t81.5 -72.5t116 -26.5q81 0 139 45t82 121l133 -49q-41 -120 -134.5 -186t-219.5 -66q-127 0 -221.5 64t-140.5 166.5t-46 226.5z" />
<glyph unicode="&#xaa;" horiz-adv-x="927" d="M139 928q0 110 78 163.5t215 53.5h203q0 9 -4 49q-9 78 -53.5 115t-126.5 37q-119 0 -201 -115l-88 59q60 81 127.5 118.5t163.5 37.5q135 0 210.5 -77t75.5 -210v-434h-98l-2 117q-95 -129 -254 -129q-104 0 -175 59.5t-71 155.5zM256 928q0 -50 42.5 -81.5t104.5 -31.5 q71 0 128 37t90 104q12 62 14 91h-197q-88 0 -135 -30.5t-47 -88.5z" />
<glyph unicode="&#xab;" horiz-adv-x="1024" d="M53 516l412 348v-153l-229 -195l229 -194v-154zM455 516l411 348v-153l-229 -195l229 -194v-154z" />
<glyph unicode="&#xac;" horiz-adv-x="1343" d="M158 647v158h929v-512h-169v354h-760z" />
<glyph unicode="&#xad;" horiz-adv-x="1034" d="M164 553v135h706v-135h-706z" />
<glyph unicode="&#xae;" horiz-adv-x="1794" d="M145 713q0 150 59.5 286.5t160 235.5t240 157t292.5 58t291.5 -58t239 -157t160 -235.5t59.5 -286.5t-59.5 -286.5t-160 -235t-239 -156.5t-291.5 -58t-292.5 58t-240 156.5t-160 235t-59.5 286.5zM258 713q0 -126 50.5 -241t136 -199t204 -133.5t248.5 -49.5 q173 0 320 84t232 227.5t85 311.5q0 127 -50.5 242.5t-135.5 199t-203 133t-248 49.5q-174 0 -321 -83.5t-232.5 -227.5t-85.5 -313zM657 279v870h256q134 0 215.5 -69t81.5 -181q0 -81 -46 -139.5t-128 -83.5l238 -397h-135l-219 383q-8 0 -26 -1.5t-26 -1.5h-92v-380h-119 zM776 760h148q81 0 124.5 36.5t43.5 100.5q0 69 -47 107t-130 38h-139v-282z" />
<glyph unicode="&#xaf;" horiz-adv-x="880" d="M162 1204v105h557v-105h-557z" />
<glyph unicode="&#xb0;" horiz-adv-x="956" d="M186 1153q0 120 85.5 206.5t205.5 86.5q121 0 207 -86.5t86 -206.5q0 -122 -86 -208.5t-207 -86.5q-120 0 -205.5 86.5t-85.5 208.5zM307 1153q0 -72 50 -123t120 -51q72 0 123 51t51 123q0 71 -51 121.5t-123 50.5q-70 0 -120 -50.5t-50 -121.5z" />
<glyph unicode="&#xb1;" horiz-adv-x="1359" d="M141 0h1073v-135h-1073v135zM141 647v135h473v455h134v-455h473v-135h-473v-457h-134v457h-473z" />
<glyph unicode="&#xb4;" horiz-adv-x="526" d="M63 1139l224 288h188l-280 -288h-132z" />
<glyph unicode="&#xb5;" horiz-adv-x="1316" d="M260 -344v1354h174v-596q0 -125 59.5 -197t170.5 -72q122 0 191 73t69 212v580h176v-1010h-176v152q-50 -84 -133 -127t-177 -43q-143 0 -213 92v-418h-141z" />
<glyph unicode="&#xb6;" horiz-adv-x="1300" d="M111 1028q0 121 65.5 214t168.5 139t224 46h123v-1675h-123v877q-121 0 -224 46t-168.5 139t-65.5 214zM915 -248v1675h125v-1675h-125z" />
<glyph unicode="&#xb7;" horiz-adv-x="675" d="M197 743q0 59 40.5 99.5t98.5 40.5q59 0 100 -41t41 -99q0 -59 -40.5 -100t-100.5 -41q-58 0 -98.5 41t-40.5 100z" />
<glyph unicode="&#xb8;" horiz-adv-x="593" d="M84 -393l100 43q12 -31 40 -50.5t61 -19.5q49 0 78.5 27.5t29.5 73.5q0 52 -48 85.5t-130 38.5h-82l115 193h108l-82 -119q44 -6 62 -12q79 -19 120.5 -65t41.5 -115q0 -92 -60.5 -151.5t-156.5 -59.5q-63 0 -118.5 37t-78.5 94z" />
<glyph unicode="&#xba;" horiz-adv-x="972" d="M135 1083q0 152 99.5 257.5t250.5 105.5q152 0 252.5 -106t100.5 -257q0 -152 -100.5 -257t-252.5 -105t-251 104.5t-99 257.5zM258 1083q0 -112 59 -183t168 -71t168.5 71t59.5 183t-59.5 183t-168.5 71t-168 -71t-59 -183z" />
<glyph unicode="&#xbb;" horiz-adv-x="1024" d="M154 168v154l229 194l-229 195v153l411 -348zM555 168v154l229 194l-229 195v153l412 -348z" />
<glyph unicode="&#xbf;" horiz-adv-x="1054" d="M102 -49q0 74 19.5 131.5t51 93.5t69.5 64t76.5 49t70 41.5t51 48.5t19.5 63v158h151v-160q0 -64 -19.5 -112t-50.5 -77t-68.5 -52t-75 -44.5t-68.5 -46.5t-50.5 -65t-19.5 -94q0 -116 75 -177t206 -61q133 0 202.5 71t71.5 200h156q0 -194 -116 -306t-308 -112 q-194 0 -318.5 102.5t-124.5 284.5zM426 770v240h213v-240h-213z" />
<glyph unicode="&#xc0;" horiz-adv-x="1339" d="M51 0l547 1427h143l547 -1427h-201l-126 354h-582l-127 -354h-201zM336 1845h188l213 -289h-135zM438 516h463l-231 647z" />
<glyph unicode="&#xc1;" horiz-adv-x="1339" d="M51 0l547 1427h143l547 -1427h-201l-126 354h-582l-127 -354h-201zM438 516h463l-231 647zM606 1556l223 289h189l-281 -289h-131z" />
<glyph unicode="&#xc2;" horiz-adv-x="1339" d="M51 0l547 1427h143l547 -1427h-201l-126 354h-582l-127 -354h-201zM360 1536l310 336l309 -336h-141l-168 182l-168 -182h-142zM438 516h463l-231 647z" />
<glyph unicode="&#xc3;" horiz-adv-x="1339" d="M51 0l547 1427h143l547 -1427h-201l-126 354h-582l-127 -354h-201zM340 1589q0 125 53.5 194.5t145.5 69.5q51 0 91.5 -26t63 -56.5t53 -56.5t62.5 -26q36 0 60 42.5t24 114.5h106q0 -126 -51.5 -198t-138.5 -72q-47 0 -83.5 17.5t-59 42t-42 49t-42.5 42t-50 17.5 q-41 0 -65.5 -41t-24.5 -113h-102zM438 516h463l-231 647z" />
<glyph unicode="&#xc4;" horiz-adv-x="1339" d="M51 0l547 1427h143l547 -1427h-201l-126 354h-582l-127 -354h-201zM391 1630v215h178v-215h-178zM438 516h463l-231 647zM770 1630v215h178v-215h-178z" />
<glyph unicode="&#xc5;" horiz-adv-x="1339" d="M51 0l539 1409q-57 23 -93 77t-36 118q0 87 61.5 147.5t149.5 60.5q86 0 147.5 -60.5t61.5 -147.5q0 -67 -36 -120.5t-95 -76.5l538 -1407h-201l-126 354h-582l-127 -354h-201zM438 516h463l-231 647zM559 1604q0 -48 32 -80.5t81 -32.5q47 0 79.5 33t32.5 80 q0 48 -31 80t-81 32q-49 0 -81 -32t-32 -80z" />
<glyph unicode="&#xc6;" horiz-adv-x="1964" d="M51 0l545 1427h1253v-161h-749v-473h653v-156h-653v-471h749v-166h-936v332h-542l-119 -332h-201zM428 487h485v785h-202z" />
<glyph unicode="&#xc7;" horiz-adv-x="1478" d="M119 717q0 338 179.5 533.5t489.5 195.5q220 0 374.5 -100t230.5 -293l-170 -66q-108 285 -435 285q-232 0 -359.5 -145.5t-127.5 -409.5q0 -266 126.5 -413.5t354.5 -147.5q161 0 273 73.5t168 216.5l174 -63q-75 -183 -218.5 -285t-340.5 -114l-70 -105q69 -11 121 -35 q102 -48 102 -157q0 -91 -61.5 -151t-157.5 -60q-46 0 -95 22t-85 64l61 84q49 -66 125 -66q49 0 78 28t29 75q0 85 -111 110q-49 12 -147 12l104 179q-286 17 -449 211.5t-163 521.5z" />
<glyph unicode="&#xc8;" horiz-adv-x="1280" d="M215 0v1427h942v-167h-760v-447h690v-168h-690v-477h760v-168h-942zM352 1845h189l213 -289h-136z" />
<glyph unicode="&#xc9;" horiz-adv-x="1280" d="M215 0v1427h942v-167h-760v-447h690v-168h-690v-477h760v-168h-942zM621 1556l223 289h188l-280 -289h-131z" />
<glyph unicode="&#xca;" horiz-adv-x="1280" d="M215 0v1427h942v-167h-760v-447h690v-168h-690v-477h760v-168h-942zM377 1536l309 336l309 -336h-141l-168 182l-168 -182h-141z" />
<glyph unicode="&#xcb;" horiz-adv-x="1280" d="M215 0v1427h942v-167h-760v-447h690v-168h-690v-477h760v-168h-942zM406 1630v215h178v-215h-178zM784 1630v215h179v-215h-179z" />
<glyph unicode="&#xcc;" horiz-adv-x="614" d="M-27 1845h189l213 -289h-135zM215 0v1427h182v-1427h-182z" />
<glyph unicode="&#xcd;" horiz-adv-x="614" d="M215 0v1427h182v-1427h-182zM244 1556l223 289h188l-280 -289h-131z" />
<glyph unicode="&#xce;" horiz-adv-x="614" d="M-2 1536l309 336l309 -336h-141l-168 182l-168 -182h-141zM215 0v1427h182v-1427h-182z" />
<glyph unicode="&#xcf;" horiz-adv-x="614" d="M29 1630v215h178v-215h-178zM215 0v1427h182v-1427h-182zM408 1630v215h178v-215h-178z" />
<glyph unicode="&#xd0;" horiz-adv-x="1462" d="M61 655v119h154v653h397q350 0 542 -189.5t192 -535.5q0 -341 -189.5 -521.5t-546.5 -180.5h-395v655h-154zM397 168h197q289 0 428 133t139 410q0 549 -553 549h-211v-486h254v-119h-254v-487z" />
<glyph unicode="&#xd1;" horiz-adv-x="1476" d="M215 0v1427h195l669 -1112v1112h183v-1427h-197l-668 1116v-1116h-182zM408 1589q0 125 53 194.5t145 69.5q42 0 76 -17t56.5 -41.5t43 -48.5t44.5 -41t51 -17q36 0 60 42.5t24 114.5h106q0 -126 -51.5 -198t-138.5 -72q-47 0 -83.5 17.5t-59 42t-42 49t-42.5 42 t-50 17.5q-41 0 -65.5 -41t-24.5 -113h-102z" />
<glyph unicode="&#xd2;" horiz-adv-x="1560" d="M117 713q0 328 183.5 530.5t479.5 202.5q196 0 347 -91.5t234 -258t83 -383.5q0 -327 -184 -529t-480 -202t-479.5 202t-183.5 529zM299 713q0 -254 130.5 -405.5t350.5 -151.5t351 151.5t131 405.5q0 255 -131 407t-351 152t-350.5 -152t-130.5 -407zM446 1845h189 l213 -289h-135z" />
<glyph unicode="&#xd3;" horiz-adv-x="1560" d="M117 713q0 328 183.5 530.5t479.5 202.5q196 0 347 -91.5t234 -258t83 -383.5q0 -327 -184 -529t-480 -202t-479.5 202t-183.5 529zM299 713q0 -254 130.5 -405.5t350.5 -151.5t351 151.5t131 405.5q0 255 -131 407t-351 152t-350.5 -152t-130.5 -407zM715 1556l223 289 h188l-280 -289h-131z" />
<glyph unicode="&#xd4;" horiz-adv-x="1560" d="M117 713q0 328 183.5 530.5t479.5 202.5q196 0 347 -91.5t234 -258t83 -383.5q0 -327 -184 -529t-480 -202t-479.5 202t-183.5 529zM299 713q0 -254 130.5 -405.5t350.5 -151.5t351 151.5t131 405.5q0 255 -131 407t-351 152t-350.5 -152t-130.5 -407zM471 1536l309 336 l310 -336h-142l-168 182l-168 -182h-141z" />
<glyph unicode="&#xd5;" horiz-adv-x="1560" d="M117 713q0 328 183.5 530.5t479.5 202.5q196 0 347 -91.5t234 -258t83 -383.5q0 -327 -184 -529t-480 -202t-479.5 202t-183.5 529zM299 713q0 -254 130.5 -405.5t350.5 -151.5t351 151.5t131 405.5q0 255 -131 407t-351 152t-350.5 -152t-130.5 -407zM449 1589 q0 125 53 194.5t145 69.5q42 0 76 -17t56.5 -41.5t43 -48.5t44.5 -41t51 -17q36 0 59.5 42.5t23.5 114.5h107q0 -126 -51.5 -198t-138.5 -72q-47 0 -83.5 17.5t-59 42t-42 49t-42.5 42t-50 17.5q-41 0 -65.5 -41t-24.5 -113h-102z" />
<glyph unicode="&#xd6;" horiz-adv-x="1560" d="M117 713q0 328 183.5 530.5t479.5 202.5q196 0 347 -91.5t234 -258t83 -383.5q0 -327 -184 -529t-480 -202t-479.5 202t-183.5 529zM299 713q0 -254 130.5 -405.5t350.5 -151.5t351 151.5t131 405.5q0 255 -131 407t-351 152t-350.5 -152t-130.5 -407zM502 1630v215h178 v-215h-178zM881 1630v215h178v-215h-178z" />
<glyph unicode="&#xd7;" horiz-adv-x="1122" d="M141 309l318 318l-318 317l105 103l315 -316l318 316l102 -103l-315 -317l315 -318l-102 -102l-318 315l-315 -315z" />
<glyph unicode="&#xd8;" horiz-adv-x="1560" d="M117 713q0 328 183.5 530.5t479.5 202.5q187 0 332 -82l41 63h156l-90 -141q108 -98 166.5 -245t58.5 -328q0 -327 -184 -529t-480 -202q-187 0 -331 84l-41 -66h-156l90 141q-107 98 -166 245t-59 327zM299 713q0 -264 139 -416l580 915q-105 60 -238 60 q-220 0 -350.5 -152t-130.5 -407zM543 215q103 -59 237 -59q220 0 351 151.5t131 405.5q0 262 -142 417z" />
<glyph unicode="&#xd9;" horiz-adv-x="1417" d="M184 516v911h183v-892q0 -194 82.5 -284.5t259.5 -90.5t259.5 92t82.5 287v888h182v-901q0 -267 -133.5 -405.5t-390.5 -138.5t-391 136.5t-134 397.5zM377 1845h188l213 -289h-135z" />
<glyph unicode="&#xda;" horiz-adv-x="1417" d="M184 516v911h183v-892q0 -194 82.5 -284.5t259.5 -90.5t259.5 92t82.5 287v888h182v-901q0 -267 -133.5 -405.5t-390.5 -138.5t-391 136.5t-134 397.5zM645 1556l223 289h189l-281 -289h-131z" />
<glyph unicode="&#xdb;" horiz-adv-x="1417" d="M184 516v911h183v-892q0 -194 82.5 -284.5t259.5 -90.5t259.5 92t82.5 287v888h182v-901q0 -267 -133.5 -405.5t-390.5 -138.5t-391 136.5t-134 397.5zM401 1536l310 336l309 -336h-141l-168 182l-168 -182h-142z" />
<glyph unicode="&#xdc;" horiz-adv-x="1417" d="M184 516v911h183v-892q0 -194 82.5 -284.5t259.5 -90.5t259.5 92t82.5 287v888h182v-901q0 -267 -133.5 -405.5t-390.5 -138.5t-391 136.5t-134 397.5zM430 1630v215h178v-215h-178zM809 1630v215h178v-215h-178z" />
<glyph unicode="&#xdd;" horiz-adv-x="1347" d="M39 1427h215l418 -700l420 700h217l-543 -876v-551h-182v551zM610 1556l224 289h188l-281 -289h-131z" />
<glyph unicode="&#xde;" horiz-adv-x="1185" d="M215 0v1427h168v-202h276q209 0 327 -105.5t118 -292.5q0 -195 -127 -304t-354 -109h-240v-414h-168zM383 567h240q154 0 233.5 64.5t79.5 189.5q0 126 -81 193t-232 67h-240v-514z" />
<glyph unicode="&#xdf;" horiz-adv-x="1300" d="M172 0v909q0 48 3 88.5t14.5 98t31 103.5t57 94.5t88.5 80.5t128.5 53t173.5 21q199 0 321.5 -81.5t122.5 -215.5q0 -62 -23.5 -109t-60.5 -74.5t-82 -48.5t-90 -37t-82 -32.5t-60.5 -43t-23.5 -61.5q0 -36 24 -62t63 -40t89 -28t102.5 -26t102.5 -35t89 -53t63 -82 t24 -120q0 -103 -53.5 -176.5t-136 -107t-183.5 -33.5q-148 0 -261 77t-152 195l141 63q30 -80 96 -134t168 -54q99 0 154 46.5t55 113.5q0 42 -24 73t-63 47.5t-89 32.5t-102.5 27.5t-102.5 33t-89 49t-63 76.5t-24 113q0 66 23.5 115t60.5 76.5t82 47.5t90 34t82 29 t60.5 39t23.5 59q0 64 -77.5 103.5t-188.5 39.5q-50 0 -92.5 -8.5t-73.5 -22t-55.5 -35.5t-40 -43t-27 -51t-17.5 -54t-9.5 -56.5t-4 -53.5t-0.5 -51v-909h-182z" />
<glyph unicode="&#xe0;" horiz-adv-x="1091" d="M76 299q0 164 129 236q104 55 344 55h223v41q0 117 -62 179t-178 62q-172 0 -294 -161l-127 106q167 211 426 211q194 0 302.5 -105t108.5 -292v-631h-162l-12 152q-54 -82 -142.5 -126t-201.5 -44q-163 0 -258.5 85.5t-95.5 231.5zM203 1427h188l213 -288h-135zM252 291 q0 -74 59 -118t160 -44q134 0 217.5 87t83.5 226v11h-203q-115 0 -174.5 -10t-91.5 -35q-51 -42 -51 -117z" />
<glyph unicode="&#xe1;" horiz-adv-x="1091" d="M76 299q0 164 129 236q104 55 344 55h223v41q0 117 -62 179t-178 62q-172 0 -294 -161l-127 106q167 211 426 211q194 0 302.5 -105t108.5 -292v-631h-162l-12 152q-54 -82 -142.5 -126t-201.5 -44q-163 0 -258.5 85.5t-95.5 231.5zM252 291q0 -74 59 -118t160 -44 q134 0 217.5 87t83.5 226v11h-203q-115 0 -174.5 -10t-91.5 -35q-51 -42 -51 -117zM471 1139l223 288h189l-281 -288h-131z" />
<glyph unicode="&#xe2;" horiz-adv-x="1091" d="M76 299q0 164 129 236q104 55 344 55h223v41q0 117 -62 179t-178 62q-172 0 -294 -161l-127 106q167 211 426 211q194 0 302.5 -105t108.5 -292v-631h-162l-12 152q-54 -82 -142.5 -126t-201.5 -44q-163 0 -258.5 85.5t-95.5 231.5zM227 1118l310 336l309 -336h-141 l-168 182l-168 -182h-142zM252 291q0 -74 59 -118t160 -44q134 0 217.5 87t83.5 226v11h-203q-115 0 -174.5 -10t-91.5 -35q-51 -42 -51 -117z" />
<glyph unicode="&#xe3;" horiz-adv-x="1091" d="M76 299q0 164 129 236q104 55 344 55h223v41q0 117 -62 179t-178 62q-172 0 -294 -161l-127 106q167 211 426 211q194 0 302.5 -105t108.5 -292v-631h-162l-12 152q-54 -82 -142.5 -126t-201.5 -44q-163 0 -258.5 85.5t-95.5 231.5zM205 1171q0 125 53 195t145 70 q42 0 76 -17t56.5 -41.5t43 -49t44.5 -41.5t51 -17q36 0 60 42.5t24 114.5h106q0 -126 -51.5 -198t-138.5 -72q-47 0 -83.5 17.5t-59 42t-42 49t-42.5 42t-50 17.5q-41 0 -65.5 -41t-24.5 -113h-102zM252 291q0 -74 59 -118t160 -44q134 0 217.5 87t83.5 226v11h-203 q-115 0 -174.5 -10t-91.5 -35q-51 -42 -51 -117z" />
<glyph unicode="&#xe4;" horiz-adv-x="1091" d="M76 299q0 164 129 236q104 55 344 55h223v41q0 117 -62 179t-178 62q-172 0 -294 -161l-127 106q167 211 426 211q194 0 302.5 -105t108.5 -292v-631h-162l-12 152q-54 -82 -142.5 -126t-201.5 -44q-163 0 -258.5 85.5t-95.5 231.5zM252 291q0 -74 59 -118t160 -44 q134 0 217.5 87t83.5 226v11h-203q-115 0 -174.5 -10t-91.5 -35q-51 -42 -51 -117zM258 1212v215h178v-215h-178zM637 1212v215h178v-215h-178z" />
<glyph unicode="&#xe5;" horiz-adv-x="1091" d="M76 299q0 164 129 236q104 55 344 55h223v41q0 117 -62 179t-178 62q-172 0 -294 -161l-127 106q167 211 426 211q194 0 302.5 -105t108.5 -292v-631h-162l-12 152q-54 -82 -142.5 -126t-201.5 -44q-163 0 -258.5 85.5t-95.5 231.5zM252 291q0 -74 59 -118t160 -44 q134 0 217.5 87t83.5 226v11h-203q-115 0 -174.5 -10t-91.5 -35q-51 -42 -51 -117zM326 1307q0 88 61.5 148.5t149.5 60.5q85 0 146.5 -61t61.5 -148q0 -88 -60.5 -149.5t-147.5 -61.5q-89 0 -150 62t-61 149zM424 1307q0 -48 32 -80.5t81 -32.5q47 0 79.5 33t32.5 80 q0 48 -31 80t-81 32q-49 0 -81 -32t-32 -80z" />
<glyph unicode="&#xe6;" horiz-adv-x="1738" d="M74 295q0 295 458 295h242v41q0 116 -62 178.5t-175 62.5q-179 0 -297 -161l-129 106q168 211 436 211q129 0 217.5 -53.5t122.5 -151.5q114 197 338 197q111 0 195.5 -38t133.5 -104t73 -147t24 -176q0 -55 -6 -102h-707q8 -148 79 -228t206 -80q88 0 151 28t123 91 l123 -108q-88 -91 -181.5 -129.5t-215.5 -38.5q-144 0 -241.5 62.5t-143.5 174.5h-21q-65 -132 -160.5 -187.5t-218.5 -55.5q-171 0 -267.5 86.5t-96.5 226.5zM254 293q0 -73 54.5 -116.5t150.5 -43.5q128 0 213 81t102 228v19h-231q-289 0 -289 -168zM936 582h551 q0 43 -17 100q-23 80 -87 135t-169 55q-128 0 -201.5 -83.5t-76.5 -206.5z" />
<glyph unicode="&#xe7;" horiz-adv-x="1030" d="M86 502q0 102 29.5 195t86 167.5t147.5 119t204 44.5q143 0 251 -71.5t167 -213.5l-168 -67q-31 92 -96.5 144t-153.5 52q-59 0 -107 -20.5t-81 -55t-55.5 -82t-33 -101t-10.5 -111.5q0 -73 17 -137.5t50.5 -116t90 -81.5t129.5 -30q89 0 154.5 51t91.5 142l162 -62 q-51 -137 -157.5 -211.5t-248.5 -74.5l-68 -103q69 -11 121 -35q103 -48 103 -157q0 -91 -61.5 -151t-157.5 -60q-46 0 -95.5 22t-85.5 64l62 84q49 -66 125 -66q49 0 77.5 28t28.5 75q0 85 -110 110q-49 12 -148 12l109 187q-116 23 -201 98.5t-126.5 181.5t-41.5 230z" />
<glyph unicode="&#xe8;" horiz-adv-x="1081" d="M90 500q0 85 18 162t55.5 144t91 116.5t129 77.5t165.5 28t164.5 -27t126 -73t87 -108t52 -132t16.5 -145q0 -49 -6 -90h-723q5 -146 83.5 -228t217.5 -82q81 0 147 27.5t128 93.5l121 -108q-85 -91 -181 -132.5t-217 -41.5q-117 0 -209.5 41t-149.5 113t-86.5 164.5 t-29.5 199.5zM217 1427h189l212 -288h-135zM266 594h561q-2 4 -2 20q-5 119 -79 193t-199 74q-123 0 -198 -83t-83 -204z" />
<glyph unicode="&#xe9;" horiz-adv-x="1081" d="M90 500q0 85 18 162t55.5 144t91 116.5t129 77.5t165.5 28t164.5 -27t126 -73t87 -108t52 -132t16.5 -145q0 -49 -6 -90h-723q5 -146 83.5 -228t217.5 -82q81 0 147 27.5t128 93.5l121 -108q-85 -91 -181 -132.5t-217 -41.5q-117 0 -209.5 41t-149.5 113t-86.5 164.5 t-29.5 199.5zM266 594h561q-2 4 -2 20q-5 119 -79 193t-199 74q-123 0 -198 -83t-83 -204zM485 1139l224 288h188l-281 -288h-131z" />
<glyph unicode="&#xea;" horiz-adv-x="1081" d="M90 500q0 85 18 162t55.5 144t91 116.5t129 77.5t165.5 28t164.5 -27t126 -73t87 -108t52 -132t16.5 -145q0 -49 -6 -90h-723q5 -146 83.5 -228t217.5 -82q81 0 147 27.5t128 93.5l121 -108q-85 -91 -181 -132.5t-217 -41.5q-117 0 -209.5 41t-149.5 113t-86.5 164.5 t-29.5 199.5zM242 1118l309 336l309 -336h-141l-168 182l-168 -182h-141zM266 594h561q-2 4 -2 20q-5 119 -79 193t-199 74q-123 0 -198 -83t-83 -204z" />
<glyph unicode="&#xeb;" horiz-adv-x="1081" d="M90 500q0 85 18 162t55.5 144t91 116.5t129 77.5t165.5 28t164.5 -27t126 -73t87 -108t52 -132t16.5 -145q0 -49 -6 -90h-723q5 -146 83.5 -228t217.5 -82q81 0 147 27.5t128 93.5l121 -108q-85 -91 -181 -132.5t-217 -41.5q-117 0 -209.5 41t-149.5 113t-86.5 164.5 t-29.5 199.5zM266 594h561q-2 4 -2 20q-5 119 -79 193t-199 74q-123 0 -198 -83t-83 -204zM270 1212v215h179v-215h-179zM649 1212v215h178v-215h-178z" />
<glyph unicode="&#xec;" horiz-adv-x="520" d="M-74 1427h189l213 -288h-135zM172 0v1010h176v-1010h-176z" />
<glyph unicode="&#xed;" horiz-adv-x="520" d="M172 0v1010h176v-1010h-176zM195 1139l223 288h188l-280 -288h-131z" />
<glyph unicode="&#xee;" horiz-adv-x="520" d="M-49 1118l309 336l309 -336h-141l-168 182l-168 -182h-141zM172 0v1010h176v-1010h-176z" />
<glyph unicode="&#xef;" horiz-adv-x="520" d="M-20 1212v215h178v-215h-178zM172 0v1010h176v-1010h-176zM358 1212v215h179v-215h-179z" />
<glyph unicode="&#xf0;" horiz-adv-x="1226" d="M82 446q0 126 44.5 235.5t119.5 184t175 117.5t210 43q197 0 313 -125q-9 189 -121 307l-327 -96l-27 88l264 80q-139 82 -348 88l12 119q318 -17 498 -160l199 59l26 -90l-149 -45q153 -182 153 -530q0 -148 -39 -279.5t-111.5 -233t-186.5 -161t-255 -59.5 q-208 0 -329 127t-121 331zM246 449q0 -144 84.5 -227t212.5 -83q89 0 164 34.5t123 90.5t76.5 123.5t33.5 138.5q5 62 -9 123t-47 114t-93.5 85.5t-139.5 32.5q-125 0 -219 -61.5t-140 -158.5t-46 -212z" />
<glyph unicode="&#xf1;" horiz-adv-x="1159" d="M172 0v1010h176v-138q51 74 136.5 115t187.5 41q166 0 253 -102t87 -297v-629h-176v586q0 137 -47.5 211.5t-163.5 74.5q-74 0 -128.5 -32.5t-86.5 -92.5t-47 -137t-15 -174v-436h-176zM256 1171q0 125 53.5 195t145.5 70q42 0 76 -17t56.5 -41.5t42.5 -49t44 -41.5 t51 -17q36 0 60 42.5t24 114.5h106q0 -126 -51.5 -198t-138.5 -72q-47 0 -83.5 17.5t-59 42t-42 49t-42 42t-49.5 17.5q-42 0 -66.5 -41.5t-24.5 -112.5h-102z" />
<glyph unicode="&#xf2;" horiz-adv-x="1148" d="M84 506q0 225 135 373.5t354 148.5q218 0 356 -149t138 -373q0 -146 -61 -265t-174.5 -189t-258.5 -70q-219 0 -354 149.5t-135 374.5zM240 1427h188l213 -288h-135zM260 506q0 -162 82 -265.5t231 -103.5q150 0 234 104.5t84 264.5q0 162 -83.5 264t-234.5 102 q-150 0 -231.5 -102t-81.5 -264z" />
<glyph unicode="&#xf3;" horiz-adv-x="1148" d="M84 506q0 225 135 373.5t354 148.5q218 0 356 -149t138 -373q0 -146 -61 -265t-174.5 -189t-258.5 -70q-219 0 -354 149.5t-135 374.5zM260 506q0 -162 82 -265.5t231 -103.5q150 0 234 104.5t84 264.5q0 162 -83.5 264t-234.5 102q-150 0 -231.5 -102t-81.5 -264z M510 1139l223 288h189l-281 -288h-131z" />
<glyph unicode="&#xf4;" horiz-adv-x="1148" d="M84 506q0 225 135 373.5t354 148.5q218 0 356 -149t138 -373q0 -146 -61 -265t-174.5 -189t-258.5 -70q-219 0 -354 149.5t-135 374.5zM260 506q0 -162 82 -265.5t231 -103.5q150 0 234 104.5t84 264.5q0 162 -83.5 264t-234.5 102q-150 0 -231.5 -102t-81.5 -264z M264 1118l309 336l310 -336h-142l-168 182l-167 -182h-142z" />
<glyph unicode="&#xf5;" horiz-adv-x="1148" d="M84 506q0 225 135 373.5t354 148.5q218 0 356 -149t138 -373q0 -146 -61 -265t-174.5 -189t-258.5 -70q-219 0 -354 149.5t-135 374.5zM244 1171q0 125 53 195t145 70q42 0 76 -17t56.5 -41.5t43 -49t44.5 -41.5t51 -17q36 0 60 42.5t24 114.5h106q0 -126 -51.5 -198 t-138.5 -72q-47 0 -83.5 17.5t-59 42t-42 49t-42.5 42t-50 17.5q-41 0 -65.5 -41t-24.5 -113h-102zM260 506q0 -162 82 -265.5t231 -103.5q150 0 234 104.5t84 264.5q0 162 -83.5 264t-234.5 102q-150 0 -231.5 -102t-81.5 -264z" />
<glyph unicode="&#xf6;" horiz-adv-x="1148" d="M84 506q0 225 135 373.5t354 148.5q218 0 356 -149t138 -373q0 -146 -61 -265t-174.5 -189t-258.5 -70q-219 0 -354 149.5t-135 374.5zM260 506q0 -162 82 -265.5t231 -103.5q150 0 234 104.5t84 264.5q0 162 -83.5 264t-234.5 102q-150 0 -231.5 -102t-81.5 -264z M295 1212v215h178v-215h-178zM674 1212v215h178v-215h-178z" />
<glyph unicode="&#xf7;" horiz-adv-x="1028" d="M121 563v148h784v-148h-784zM418 145v238h190v-238h-190zM418 883v239h190v-239h-190z" />
<glyph unicode="&#xf8;" horiz-adv-x="1148" d="M84 506q0 225 135 373.5t354 148.5q122 0 224 -51l80 129h133l-117 -191q82 -71 128 -177.5t46 -231.5q0 -146 -61 -265t-174.5 -189t-258.5 -70q-126 0 -223 51l-80 -129h-135l119 192q-82 72 -126 178t-44 232zM260 506q0 -161 82 -266l373 602q-61 30 -142 30 q-150 0 -231.5 -102t-81.5 -264zM432 168q64 -31 141 -31q150 0 234 104.5t84 264.5q0 165 -86 268z" />
<glyph unicode="&#xf9;" horiz-adv-x="1159" d="M147 387v623h177v-580q0 -46 3 -81.5t15.5 -77.5t34 -69.5t61 -46t94.5 -18.5q76 0 132 34.5t87 96t45.5 136.5t14.5 167v439h176v-1010h-176v137q-52 -77 -138 -116t-186 -39q-172 0 -256 109t-84 296zM231 1427h189l213 -288h-135z" />
<glyph unicode="&#xfa;" horiz-adv-x="1159" d="M147 387v623h177v-580q0 -46 3 -81.5t15.5 -77.5t34 -69.5t61 -46t94.5 -18.5q76 0 132 34.5t87 96t45.5 136.5t14.5 167v439h176v-1010h-176v137q-52 -77 -138 -116t-186 -39q-172 0 -256 109t-84 296zM502 1139l223 288h188l-280 -288h-131z" />
<glyph unicode="&#xfb;" horiz-adv-x="1159" d="M147 387v623h177v-580q0 -46 3 -81.5t15.5 -77.5t34 -69.5t61 -46t94.5 -18.5q76 0 132 34.5t87 96t45.5 136.5t14.5 167v439h176v-1010h-176v137q-52 -77 -138 -116t-186 -39q-172 0 -256 109t-84 296zM256 1118l309 336l309 -336h-141l-168 182l-168 -182h-141z" />
<glyph unicode="&#xfc;" horiz-adv-x="1159" d="M147 387v623h177v-580q0 -46 3 -81.5t15.5 -77.5t34 -69.5t61 -46t94.5 -18.5q76 0 132 34.5t87 96t45.5 136.5t14.5 167v439h176v-1010h-176v137q-52 -77 -138 -116t-186 -39q-172 0 -256 109t-84 296zM287 1212v215h178v-215h-178zM666 1212v215h178v-215h-178z" />
<glyph unicode="&#xfd;" horiz-adv-x="1040" d="M20 1010h195l317 -789l289 789h195l-559 -1428h-191l172 434zM457 1139l223 288h188l-280 -288h-131z" />
<glyph unicode="&#xfe;" horiz-adv-x="1204" d="M174 -418v1845h176v-542q53 71 136.5 107t183.5 36q206 0 323 -142.5t117 -379.5t-117 -380.5t-323 -143.5q-102 0 -185 38.5t-135 106.5v-545h-176zM334 506q0 -165 77.5 -267t223.5 -102q145 0 222 100t77 269q0 171 -78 269.5t-219 98.5q-144 0 -223.5 -100 t-79.5 -268z" />
<glyph unicode="&#xff;" horiz-adv-x="1040" d="M20 1010h195l317 -789l289 789h195l-559 -1428h-191l172 434zM242 1212v215h178v-215h-178zM621 1212v215h178v-215h-178z" />
<glyph unicode="&#x152;" horiz-adv-x="2336" d="M117 713q0 328 183.5 530.5t479.5 202.5q158 0 286.5 -59.5t217.5 -169.5v210h940v-167h-758v-447h688v-168h-688v-477h758v-168h-940v211q-89 -110 -218 -169.5t-286 -59.5q-296 0 -479.5 202t-183.5 529zM299 713q0 -254 130.5 -405.5t350.5 -151.5t351 151.5 t131 405.5q0 255 -131 407t-351 152t-350.5 -152t-130.5 -407z" />
<glyph unicode="&#x153;" horiz-adv-x="1900" d="M82 506q0 144 62 263t176.5 189t259.5 70q128 0 231.5 -54.5t171.5 -150.5q61 96 158.5 150.5t226.5 54.5q97 0 176 -30.5t128.5 -79t83 -113.5t47.5 -129.5t14 -130.5q0 -64 -7 -92h-725q11 -148 87 -229t214 -81q84 0 149.5 27.5t125.5 93.5l123 -108 q-85 -90 -181 -132t-219 -42q-137 0 -239 54t-164 150q-66 -95 -170 -149.5t-231 -54.5q-109 0 -203 41.5t-158 112.5t-100.5 167t-36.5 203zM266 506q0 -158 83 -264.5t231 -106.5q149 0 233 106.5t84 264.5t-84 263t-233 105q-148 0 -231 -104.5t-83 -263.5zM1085 594h557 q0 35 -4 49q-15 101 -84.5 168.5t-187.5 67.5q-120 0 -190.5 -77t-90.5 -208z" />
<glyph unicode="&#x178;" horiz-adv-x="1347" d="M39 1427h215l418 -700l420 700h217l-543 -876v-551h-182v551zM395 1630v215h178v-215h-178zM774 1630v215h178v-215h-178z" />
<glyph unicode="&#x2c6;" horiz-adv-x="704" d="M43 1118l309 336l310 -336h-142l-168 182l-168 -182h-141z" />
<glyph unicode="&#x2dc;" horiz-adv-x="911" d="M125 1171q0 125 53.5 195t145.5 70q42 0 76 -17t56.5 -41.5t42.5 -49t44 -41.5t51 -17q36 0 60 42.5t24 114.5h106q0 -126 -51.5 -198t-138.5 -72q-47 0 -83.5 17.5t-59 42t-42 49t-42.5 42t-50 17.5q-41 0 -65.5 -41t-24.5 -113h-102z" />
<glyph unicode="&#x2000;" horiz-adv-x="936" />
<glyph unicode="&#x2001;" horiz-adv-x="1872" />
<glyph unicode="&#x2002;" horiz-adv-x="936" />
<glyph unicode="&#x2003;" horiz-adv-x="1872" />
<glyph unicode="&#x2004;" horiz-adv-x="624" />
<glyph unicode="&#x2005;" horiz-adv-x="468" />
<glyph unicode="&#x2006;" horiz-adv-x="312" />
<glyph unicode="&#x2007;" horiz-adv-x="312" />
<glyph unicode="&#x2008;" horiz-adv-x="234" />
<glyph unicode="&#x2009;" horiz-adv-x="374" />
<glyph unicode="&#x200a;" horiz-adv-x="104" />
<glyph unicode="&#x2010;" horiz-adv-x="888" d="M164 553v135h561v-135h-561z" />
<glyph unicode="&#x2011;" horiz-adv-x="888" d="M164 553v135h561v-135h-561z" />
<glyph unicode="&#x2012;" horiz-adv-x="888" d="M164 553v135h561v-135h-561z" />
<glyph unicode="&#x2013;" horiz-adv-x="1075" d="M164 553v135h747v-135h-747z" />
<glyph unicode="&#x2014;" horiz-adv-x="2068" d="M0 553v135h2068v-135h-2068z" />
<glyph unicode="&#x2018;" horiz-adv-x="587" d="M86 848l266 579h117l-180 -579h-203z" />
<glyph unicode="&#x2019;" horiz-adv-x="587" d="M117 850l182 577h203l-266 -577h-119z" />
<glyph unicode="&#x201a;" horiz-adv-x="587" d="M117 -313l182 577h203l-266 -577h-119z" />
<glyph unicode="&#x201c;" horiz-adv-x="948" d="M86 848l266 579h117l-180 -579h-203zM446 848l265 579h120l-182 -579h-203z" />
<glyph unicode="&#x201d;" horiz-adv-x="950" d="M117 850l182 577h203l-266 -577h-119zM477 850l182 577h203l-266 -577h-119z" />
<glyph unicode="&#x201e;" horiz-adv-x="964" d="M117 -313l182 577h203l-266 -577h-119zM492 -313l182 577h203l-267 -577h-118z" />
<glyph unicode="&#x2022;" horiz-adv-x="837" d="M178 485q0 100 70 171t170 71q99 0 169 -71t70 -171q0 -99 -70 -169t-169 -70q-100 0 -170 70t-70 169z" />
<glyph unicode="&#x2026;" horiz-adv-x="1515" d="M238 0v240h204v-240h-204zM655 0v240h205v-240h-205zM1073 0v240h205v-240h-205z" />
<glyph unicode="&#x202f;" horiz-adv-x="374" />
<glyph unicode="&#x2039;" horiz-adv-x="622" d="M53 516l412 348v-153l-229 -195l229 -194v-154z" />
<glyph unicode="&#x203a;" horiz-adv-x="622" d="M154 168v154l229 194l-229 195v153l411 -348z" />
<glyph unicode="&#x205f;" horiz-adv-x="468" />
<glyph unicode="&#x20ac;" horiz-adv-x="1474" d="M147 510l3 119h112q-4 62 -4 94q0 34 4 100h-112v119h133q55 232 222.5 368t422.5 136q252 0 407 -123l-96 -152q-129 101 -311 101q-175 0 -292.5 -88t-166.5 -242h629l-2 -119h-654q-6 -49 -6 -102q0 -30 4 -92h656l-4 -119h-629q46 -165 163 -259.5t296 -94.5 q195 0 321 110l96 -149q-163 -135 -417 -135q-258 0 -424.5 142.5t-218.5 385.5h-132z" />
<glyph unicode="&#x2122;" horiz-adv-x="1531" d="M160 1325v102h418v-102h-152v-440h-113v440h-153zM694 885v542h180l113 -356l111 356h176v-542h-111v424l-141 -402h-72l-145 406v-428h-111z" />
<glyph unicode="&#x25fc;" horiz-adv-x="1013" d="M0 0v1014h1014v-1014h-1014z" />
<glyph unicode="&#xfb03;" horiz-adv-x="1646" d="M27 866v144h172v86q0 157 114.5 253.5t282.5 96.5q160 0 278 -84q104 84 261 84q189 0 338 -100l-84 -123q-102 77 -246 77q-215 0 -215 -215v-75h557v-1010h-176v866h-381v-866h-174v866h-379v-866h-176v866h-172zM375 1010h379v77q0 104 37 166q-83 47 -187 47 q-110 0 -169.5 -56t-59.5 -152v-82z" />
<glyph unicode="&#xfb04;" horiz-adv-x="1703" d="M27 866v144h172v86q0 157 114.5 253.5t282.5 96.5q159 0 278 -82q105 82 261 82q102 0 184.5 -26t165.5 -79v-1099q0 -99 86 -99q31 0 90 17l2 -150q-96 -28 -158 -28q-92 0 -144 53t-52 160v1069q-71 36 -166 36q-215 0 -215 -215v-75h217v-144h-217v-866h-174v866h-379 v-866h-176v866h-172zM375 1010h379v77q0 93 34 166q-76 47 -184 47q-110 0 -169.5 -56t-59.5 -152v-82z" />
</font>
</defs>
</svg>
