<?xml version="1.0" standalone="no"?>
<!DOCTYPE svg PUBLIC "-//W3C//DTD SVG 1.1//EN" "http://www.w3.org/Graphics/SVG/1.1/DTD/svg11.dtd" >
<svg xmlns="http://www.w3.org/2000/svg" xmlns:xlink="http://www.w3.org/1999/xlink" version="1.1">
<metadata></metadata>
<defs>
<font id="hk_grotesklight" horiz-adv-x="1146" >
<font-face units-per-em="2048" ascent="1638" descent="-410" />
<missing-glyph horiz-adv-x="559" />
<glyph unicode="&#xfb01;" horiz-adv-x="1028" d="M43 924v86h176v86q0 174 93 260t243 86q155 0 283 -92l-50 -70q-100 78 -229 78q-117 0 -177 -63t-60 -201v-84h518v-1010h-101v924h-417v-924h-103v924h-176z" />
<glyph unicode="&#xfb02;" horiz-adv-x="1077" d="M43 924v86h168v86q0 174 87.5 260t229.5 86q84 0 149 -21t142 -73v-1133q0 -76 26.5 -106.5t80.5 -30.5q43 0 102 20v-88q-81 -24 -133 -24q-174 0 -174 231v1079q-84 62 -189 62q-108 0 -164.5 -63t-56.5 -201v-84h232l-2 -86h-230v-924h-100v924h-168z" />
<glyph horiz-adv-x="0" />
<glyph horiz-adv-x="682" />
<glyph unicode=" "  horiz-adv-x="559" />
<glyph unicode="&#x09;" horiz-adv-x="559" />
<glyph unicode="&#xa0;" horiz-adv-x="559" />
<glyph unicode="!" horiz-adv-x="647" d="M258 0v209h129v-209h-129zM272 1427h103l-13 -1034h-79z" />
<glyph unicode="&#x22;" horiz-adv-x="862" d="M231 971v456h88v-456h-88zM545 971v456h86v-456h-86z" />
<glyph unicode="#" horiz-adv-x="1447" d="M129 438v74h272l88 430h-274v78h291l88 407h82l-86 -411h389l86 411h82l-88 -411h262v-74h-279l-88 -430h281v-74h-295l-92 -438h-84l92 438h-391l-88 -438h-82l90 438h-256zM483 512h389l89 430h-388z" />
<glyph unicode="$" horiz-adv-x="1275" d="M168 373l104 24q23 -153 126 -234t255 -81t247 83.5t95 211.5q0 63 -25.5 114t-68.5 85t-99 62.5t-117.5 52.5t-123.5 48t-118 55.5t-99 69.5t-68.5 94.5t-25.5 126.5q0 147 97.5 244t248.5 111v215h92v-215q229 -15 350 -221l-88 -56q-102 185 -311 185 q-122 0 -203.5 -73t-81.5 -185q0 -57 25.5 -102.5t68.5 -77t99 -58t118 -50t124 -48t118 -58t99 -74.5t68.5 -101.5t25.5 -135.5q0 -163 -113.5 -272t-288.5 -123v-221l-94 -2v223q-170 12 -288 112.5t-148 270.5z" />
<glyph unicode="%" horiz-adv-x="1579" d="M160 1120q0 47 9.5 92t30 87t50.5 73.5t73 50.5t95 19q115 0 187.5 -91.5t72.5 -230.5q0 -137 -71 -227t-183 -90q-65 0 -117.5 28t-83.5 74.5t-47 101.5t-16 113zM233 1120q0 -62 18 -115.5t62.5 -92t110.5 -38.5q79 0 130.5 69.5t51.5 176.5q0 105 -49.5 177.5 t-138.5 72.5q-64 0 -107.5 -39.5t-60.5 -93.5t-17 -117zM356 0l787 1427h76l-785 -1427h-78zM901 305q0 58 15.5 113.5t45.5 102.5t80.5 75.5t114.5 28.5q115 0 188.5 -91.5t73.5 -230.5q0 -137 -72 -227t-184 -90q-87 0 -148.5 49.5t-87.5 119.5t-26 150zM973 305 q0 -62 17.5 -116t62 -93t110.5 -39q81 0 132 69.5t51 176.5q0 105 -49 177.5t-140 72.5q-63 0 -106 -38.5t-60.5 -92.5t-17.5 -117z" />
<glyph unicode="&#x26;" horiz-adv-x="1447" d="M158 326q0 65 21 122.5t52.5 99t82.5 81.5t96.5 66.5t109.5 58.5q-1 1 -29 32.5t-38 44t-36 46t-38.5 57t-29 56t-23.5 64t-7 62.5q0 143 105 233.5t258 90.5q141 0 239.5 -93.5t98.5 -228.5q0 -71 -27.5 -130t-83.5 -107t-108 -79.5t-133 -72.5l358 -418 q102 155 117 379l98 -8q-21 -266 -151 -444l202 -238l-71 -61l-193 225q-178 -178 -442 -178q-192 0 -310 91.5t-118 248.5zM256 324q0 -116 88 -183t238 -67q235 0 387 162l-385 450q-61 -31 -101 -54.5t-87 -58.5t-74.5 -69.5t-46.5 -81t-19 -98.5zM418 1116 q0 -29 11 -62.5t25 -60t39 -61.5t39 -52.5t41 -49t31 -35.5q46 23 71.5 36.5t65 36t61.5 39.5t49 42.5t41 49t24 54t10 63.5q0 103 -68.5 172.5t-175.5 69.5q-116 0 -190 -67.5t-74 -174.5z" />
<glyph unicode="'" horiz-adv-x="548" d="M231 999v428h88v-428h-88z" />
<glyph unicode="(" horiz-adv-x="577" d="M158 713q0 217 60 418t175 339h96q-128 -155 -188.5 -355t-60.5 -406q0 -205 65 -408t182 -346h-94q-107 123 -171 343t-64 415z" />
<glyph unicode=")" horiz-adv-x="577" d="M90 1470h96q115 -141 174.5 -340t59.5 -417q0 -195 -64.5 -415t-171.5 -343h-92q117 143 181.5 346t64.5 408q0 206 -61 406.5t-187 354.5z" />
<glyph unicode="*" horiz-adv-x="948" d="M174 1163l41 123l229 -104l-34 245h125l-35 -245l231 104l39 -123l-254 -37l178 -196l-104 -74l-119 242l-121 -242l-100 74l176 196z" />
<glyph unicode="+" horiz-adv-x="1325" d="M147 590v86h474v473h86v-473h471v-86h-471v-473h-86v473h-474z" />
<glyph unicode="," horiz-adv-x="671" d="M172 -322l217 586h129l-274 -586h-72z" />
<glyph unicode="-" horiz-adv-x="897" d="M182 596v80h533v-80h-533z" />
<glyph unicode="." horiz-adv-x="663" d="M266 0v209h131v-209h-131z" />
<glyph unicode="/" horiz-adv-x="886" d="M31 -430l727 1857h98l-727 -1857h-98z" />
<glyph unicode="0" d="M141 713q0 94 8 177t25.5 168.5t50 153t78.5 121t114 82.5t152 29q115 0 201 -57t137 -159t76 -231.5t25 -285.5q0 -155 -24 -283t-74 -229t-133.5 -157t-194.5 -56q-103 0 -182 43t-127 112t-78.5 166.5t-42 195.5t-11.5 210zM246 713q0 -631 334 -631q87 0 150 48 t99 135.5t53 197.5t17 248q0 141 -17.5 253t-55 200.5t-102.5 136t-155 47.5q-76 0 -134 -35t-93 -92.5t-57.5 -142t-30.5 -172t-8 -193.5z" />
<glyph unicode="1" d="M258 1102v94h258q54 0 81.5 22t27.5 76v133h100v-1427h-100v1102h-367z" />
<glyph unicode="2" d="M78 0v104q95 59 161.5 103t158 110.5t154.5 122t131.5 129t110 142.5t68.5 151t27 164q0 148 -83.5 232.5t-234.5 84.5q-166 0 -254 -104.5t-88 -280.5l-100 7q0 214 116.5 344.5t325.5 130.5q191 0 305.5 -111.5t114.5 -304.5q0 -82 -22.5 -162t-60 -150.5t-95 -141 t-120 -130.5t-142.5 -123t-154.5 -114t-163.5 -107h828v-96h-983z" />
<glyph unicode="3" d="M72 418l98 4q0 -157 107.5 -248.5t285.5 -91.5q170 0 277.5 88t107.5 238q0 74 -30 130t-75 87.5t-109 51.5t-121.5 26t-123.5 6v90q78 0 143.5 14t121 45t87 86.5t31.5 130.5q0 126 -86.5 198.5t-220.5 72.5q-146 0 -236 -80t-91 -215l-99 6q0 175 118 280t304 105 q175 0 294.5 -97.5t119.5 -257.5q0 -71 -23.5 -129.5t-63.5 -97.5t-86 -64t-97 -36q68 -10 127.5 -35.5t109.5 -68t79.5 -109t29.5 -148.5q0 -188 -138 -300.5t-352 -112.5q-218 0 -353.5 115t-135.5 317z" />
<glyph unicode="4" d="M41 342v72l735 1013h98v-989h234v-96h-234v-342h-100v342h-733zM172 438h602v842z" />
<glyph unicode="5" d="M96 389l99 17q28 -145 129 -234.5t245 -89.5q164 0 271.5 115.5t107.5 279.5q0 161 -99 267t-259 106q-104 0 -190.5 -48.5t-147.5 -137.5l-111 32l127 731h717v-96h-633l-94 -543q143 156 342 156q196 0 325.5 -134t129.5 -333q0 -133 -63.5 -245.5t-175.5 -179 t-247 -66.5q-181 0 -310 113t-163 290z" />
<glyph unicode="6" d="M102 449q0 127 72 251l430 727h115l-344 -573q122 66 266 51q171 -20 288.5 -149.5t117.5 -304.5q0 -125 -63.5 -232t-172.5 -170t-238 -63q-127 0 -235.5 62.5t-172 169t-63.5 231.5zM205 451q0 -153 107.5 -261t260.5 -108t262 109t109 262q0 151 -108.5 258.5 t-262.5 107.5q-153 0 -260.5 -107.5t-107.5 -260.5z" />
<glyph unicode="7" d="M59 1331v96h1018v-71l-719 -1356h-114l712 1331h-897z" />
<glyph unicode="8" d="M109 399q0 139 77 239.5t211 137.5q-94 37 -149 121.5t-55 196.5q0 106 57 187t143 121t182 40q162 0 271.5 -100t109.5 -259q0 -107 -56 -189t-148 -118q131 -37 206.5 -138t75.5 -239q0 -100 -39 -180.5t-104.5 -130t-147 -76t-170.5 -26.5t-171 26.5t-148 76 t-105.5 130t-39.5 180.5zM209 406q0 -153 106 -238.5t258 -85.5q98 0 178.5 35t132.5 110.5t52 178.5q0 148 -101.5 237.5t-261.5 89.5q-162 0 -263 -89.5t-101 -237.5zM293 1085q0 -126 79 -202t206 -76q124 0 202 74.5t78 195.5q0 118 -79 193.5t-204 75.5 q-116 0 -199 -71.5t-83 -189.5z" />
<glyph unicode="9" d="M100 977q0 125 63 232t171.5 170t236.5 63t237 -62.5t172.5 -169t63.5 -231.5q0 -130 -71 -252l-432 -727h-113l342 573q-122 -66 -264 -51q-171 20 -288.5 150t-117.5 305zM203 975q0 -151 108 -259t260 -108q153 0 262 108t109 261t-108 261t-263 108q-152 0 -260 -109 t-108 -262z" />
<glyph unicode=":" horiz-adv-x="671" d="M272 0v209h129v-209h-129zM272 756v209h129v-209h-129z" />
<glyph unicode=";" horiz-adv-x="688" d="M129 -322l219 586h129l-276 -586h-72zM338 756v209h129v-209h-129z" />
<glyph unicode="&#x3c;" horiz-adv-x="1300" d="M131 625l973 555l37 -70l-850 -485l850 -486l-37 -67z" />
<glyph unicode="=" horiz-adv-x="1355" d="M289 446v89h778v-89h-778zM289 825v86h778v-86h-778z" />
<glyph unicode="&#x3e;" horiz-adv-x="1300" d="M160 139l850 486l-850 485l39 70l970 -555l-970 -553z" />
<glyph unicode="?" horiz-adv-x="1093" d="M123 1059q1 176 112 279.5t295 103.5q191 0 306.5 -97.5t115.5 -271.5q0 -72 -20.5 -128t-53 -91t-72 -62.5t-79 -49.5t-72 -45t-53 -57t-20.5 -77v-174h-86v174q0 61 20 107t52.5 74.5t71.5 52.5t78 47.5t71.5 52t52.5 73.5t20 105q0 135 -87.5 208t-242.5 73 q-148 0 -232.5 -80t-86.5 -217h-90zM475 0v209h129v-209h-129z" />
<glyph unicode="@" horiz-adv-x="2172" d="M182 522q0 197 68 369t187.5 295.5t290.5 194.5t370 71q262 0 467.5 -118t316.5 -320t111 -451q0 -95 -17 -184t-54 -170t-90 -141t-130 -95.5t-170 -35.5q-104 0 -159 62t-54 183q0 47 8 137q-66 -118 -166 -190t-225 -72q-147 0 -227 98t-80 261q0 83 20 170.5 t62.5 172t101 151t142 107t178.5 40.5q121 0 192 -65t86 -187l41 201l86 -5q-12 -58 -50 -227.5t-64.5 -306t-34.5 -227.5q-24 -220 141 -220q98 0 174 47t120 125.5t66.5 172.5t22.5 198q0 228 -101.5 412t-288.5 290.5t-425 106.5q-242 0 -433 -110.5t-296 -304 t-105 -433.5q0 -186 65 -338.5t176.5 -252t259 -153.5t314.5 -54q145 0 281 47l29 -78q-146 -53 -312 -53q-146 0 -280.5 38.5t-246 114t-194 180.5t-128.5 245.5t-46 301.5zM709 412q0 -130 59.5 -200.5t175.5 -70.5q82 0 153.5 36t121.5 94.5t85.5 133t52.5 151.5t17 151 q0 129 -58 197.5t-173 68.5q-103 0 -188.5 -53.5t-137.5 -137.5t-80 -180.5t-28 -189.5z" />
<glyph unicode="A" horiz-adv-x="1310" d="M90 0l518 1427h92l521 -1427h-115l-141 401h-619l-141 -401h-115zM377 492h557l-279 794z" />
<glyph unicode="B" horiz-adv-x="1296" d="M244 0v1427h415q197 0 306.5 -93.5t109.5 -260.5q0 -116 -52 -198t-149 -119q132 -28 202.5 -122t70.5 -243q0 -190 -116.5 -290.5t-336.5 -100.5h-450zM348 96h340q173 0 263.5 77.5t90.5 225.5q0 140 -79.5 218.5t-221.5 78.5h-393v-600zM348 786h350q127 0 201 73 t74 198q0 130 -82.5 202t-231.5 72h-311v-545z" />
<glyph unicode="C" horiz-adv-x="1488" d="M154 717q0 344 169.5 534.5t475.5 190.5q424 0 571 -379l-96 -37q-117 315 -475 315q-261 0 -402 -161.5t-141 -462.5t138.5 -466t391.5 -165q175 0 299.5 81.5t188.5 240.5l100 -37q-82 -190 -231 -287.5t-357 -97.5q-299 0 -465.5 193t-166.5 538z" />
<glyph unicode="D" horiz-adv-x="1492" d="M244 0v1427h377q346 0 535.5 -189.5t189.5 -535.5q0 -341 -188 -521.5t-540 -180.5h-374zM348 96h262q312 0 470.5 154.5t158.5 456.5q0 306 -158 465t-463 159h-270v-1235z" />
<glyph unicode="E" horiz-adv-x="1298" d="M244 0v1427h930v-96h-826v-557h735v-98h-735v-580h826v-96h-930z" />
<glyph unicode="F" horiz-adv-x="1286" d="M244 0v1427h952v-96h-848v-557h742v-98h-742v-676h-104z" />
<glyph unicode="G" horiz-adv-x="1564" d="M154 717q0 332 167.5 528.5t479.5 196.5q422 0 569 -379l-96 -37q-59 158 -174.5 236.5t-298.5 78.5q-265 0 -405 -164.5t-140 -455.5q0 -137 31 -250t93.5 -200.5t166 -136t239.5 -48.5q98 0 183 26.5t154 80.5t109 147t40 215v84h-354v86h454v-725h-86l-14 270 q-51 -138 -183 -211t-309 -73q-199 0 -341.5 93t-213.5 256.5t-71 381.5z" />
<glyph unicode="H" horiz-adv-x="1482" d="M244 0v1427h104v-651h785v651h106v-1427h-106v676h-785v-676h-104z" />
<glyph unicode="I" horiz-adv-x="591" d="M244 0v1427h104v-1427h-104z" />
<glyph unicode="J" horiz-adv-x="1200" d="M96 408l103 12q10 -160 101 -248t243 -88q166 0 251 110t85 326v811h-594v96h696v-911q0 -257 -113 -393.5t-325 -136.5q-194 0 -314 113t-133 309z" />
<glyph unicode="K" horiz-adv-x="1443" d="M244 0v1427h104v-864l832 864h139l-500 -514l535 -913h-121l-485 840l-400 -410v-430h-104z" />
<glyph unicode="L" horiz-adv-x="1093" d="M244 0v1427h104v-1331h666v-96h-770z" />
<glyph unicode="M" horiz-adv-x="1806" d="M244 0v1427h153l506 -1189l504 1189h156v-1427h-107v1294l-502 -1177h-102l-504 1177v-1294h-104z" />
<glyph unicode="N" horiz-adv-x="1452" d="M244 0v1427h116l746 -1255v1255h102v-1427h-118l-742 1255v-1255h-104z" />
<glyph unicode="O" horiz-adv-x="1585" d="M150 713q0 329 176.5 529t466.5 200q289 0 466 -200.5t177 -528.5q0 -327 -176.5 -527t-466.5 -200t-466.5 200t-176.5 527zM254 713q0 -287 146 -457t393 -170q246 0 392 170t146 457q0 288 -146 458t-392 170q-248 0 -393.5 -169.5t-145.5 -458.5z" />
<glyph unicode="P" horiz-adv-x="1208" d="M244 0v1427h385q223 0 344 -103t121 -292q0 -190 -121.5 -293.5t-343.5 -103.5h-281v-635h-104zM348 731h270q180 0 275.5 77t95.5 222q0 146 -95.5 223.5t-275.5 77.5h-270v-600z" />
<glyph unicode="Q" horiz-adv-x="1607" d="M150 713q0 328 176 528.5t465 200.5q290 0 466.5 -200t176.5 -529q0 -336 -187 -539l207 -203l-68 -63l-206 205q-161 -127 -389 -127q-191 0 -336.5 90.5t-225 255.5t-79.5 381zM252 713q0 -287 146.5 -457t392.5 -170q180 0 315 96l-248 244l70 63l248 -243 q153 170 153 467q0 289 -145.5 458.5t-392.5 169.5q-246 0 -392.5 -170t-146.5 -458z" />
<glyph unicode="R" horiz-adv-x="1286" d="M244 0v1427h385q226 0 345.5 -100t119.5 -289q0 -150 -76.5 -245t-226.5 -129l391 -664h-121l-375 649q-23 -2 -100 -2h-238v-647h-104zM348 745h270q183 0 277 74t94 217q0 145 -94 220t-277 75h-270v-586z" />
<glyph unicode="S" horiz-adv-x="1171" d="M115 373l102 24q23 -147 125.5 -231t255.5 -84t247.5 82t94.5 213q0 61 -22.5 109t-71.5 87.5t-110 70t-156 67.5q-203 76 -293 158.5t-90 215.5q0 160 109 258.5t286 98.5q130 0 229.5 -57t161.5 -166l-86 -56q-108 185 -307 185q-128 0 -209.5 -74t-81.5 -184 q0 -54 21.5 -96t70 -77.5t104 -62.5t144.5 -61q218 -83 313 -173.5t95 -234.5q0 -181 -124.5 -289t-326.5 -108q-191 0 -321.5 104t-159.5 281z" />
<glyph unicode="T" horiz-adv-x="1292" d="M80 1331v96h1130v-96h-512v-1331h-106v1331h-512z" />
<glyph unicode="U" horiz-adv-x="1429" d="M215 516v911h102v-901q0 -438 396 -438q399 0 399 444v895h105v-901q0 -262 -129.5 -401t-374.5 -139q-242 0 -370 136t-128 394z" />
<glyph unicode="V" horiz-adv-x="1392" d="M88 1427h117l493 -1273l492 1273h115l-564 -1427h-90z" />
<glyph unicode="W" horiz-adv-x="2002" d="M100 1427h109l358 -1275l387 1202h95l385 -1202l358 1275h111l-408 -1427h-111l-383 1188l-385 -1188h-108z" />
<glyph unicode="X" horiz-adv-x="1339" d="M94 0l504 721l-492 706h125l439 -632l438 632h125l-494 -706l506 -721h-125l-452 643l-447 -643h-127z" />
<glyph unicode="Y" horiz-adv-x="1353" d="M78 1427h123l473 -782l477 782h125l-547 -884v-543h-106v543z" />
<glyph unicode="Z" horiz-adv-x="1331" d="M102 0v84l985 1247h-937v96h1069v-86l-983 -1245h978v-96h-1112z" />
<glyph unicode="[" horiz-adv-x="679" d="M233 -115v1653h361v-70h-277v-1511h277v-72h-361z" />
<glyph unicode="\" horiz-adv-x="919" d="M31 1528h96l764 -1960h-98z" />
<glyph unicode="]" horiz-adv-x="679" d="M88 -43h277v1511h-277v70h358v-1653h-358v72z" />
<glyph unicode="^" horiz-adv-x="1163" d="M147 471l433 997l438 -997h-109l-329 797l-324 -797h-109z" />
<glyph unicode="_" horiz-adv-x="1167" d="M182 0h803v-80h-803v80z" />
<glyph unicode="`" horiz-adv-x="497" d="M86 1427h109l213 -286h-82z" />
<glyph unicode="a" horiz-adv-x="1087" d="M98 287q0 153 119 225q111 63 363 63h239v52q0 151 -73.5 229t-215.5 78q-101 0 -178.5 -42.5t-142.5 -131.5l-74 61q78 104 174 153.5t221 49.5q188 0 290 -103t102 -294v-627h-95l-6 195q-57 -100 -157 -154.5t-228 -54.5q-158 0 -248 80t-90 221zM201 283 q0 -97 71.5 -155t192.5 -58q158 0 256 105.5t98 275.5v41h-231q-235 0 -314 -56q-73 -49 -73 -153z" />
<glyph unicode="b" horiz-adv-x="1218" d="M195 0v1427h100v-624q52 104 149 163.5t220 59.5q203 0 321.5 -143.5t118.5 -376.5q0 -231 -116 -375.5t-324 -144.5q-126 0 -222.5 59t-146.5 162v-207h-100zM287 506q0 -189 98 -309.5t264 -120.5q167 0 259.5 119.5t92.5 310.5q0 193 -94.5 311.5t-257.5 118.5 q-162 0 -262 -119.5t-100 -310.5z" />
<glyph unicode="c" horiz-adv-x="1038" d="M113 502q0 102 28 194.5t81.5 166t139.5 117.5t193 44q134 0 237.5 -69t161.5 -201l-98 -39q-40 103 -119.5 161t-181.5 58q-84 0 -150 -35.5t-107 -96.5t-62 -137.5t-21 -162.5q0 -116 36 -210.5t115 -155t191 -60.5q104 0 181.5 57t111.5 160l94 -35 q-49 -132 -150 -202t-237 -70t-238 69t-154 185.5t-52 261.5z" />
<glyph unicode="d" horiz-adv-x="1230" d="M113 506q0 231 125 375.5t329 144.5q122 0 218 -58.5t149 -160.5v620h102v-1427h-102v203q-53 -102 -148.5 -159.5t-218.5 -57.5q-139 0 -243 68t-157.5 185t-53.5 267zM215 506q0 -188 99 -309t266 -121q166 0 264 120.5t98 309.5q0 192 -99.5 311t-262.5 119 q-164 0 -264.5 -119.5t-100.5 -310.5z" />
<glyph unicode="e" horiz-adv-x="1085" d="M115 500q0 227 117.5 375.5t318.5 148.5q89 0 162.5 -27t122 -72t81.5 -105t47.5 -122.5t14.5 -128.5q0 -56 -6 -86h-758q3 -190 97.5 -297.5t256.5 -107.5q96 0 167 30t143 105l71 -63q-88 -90 -176 -127t-207 -37q-142 0 -245.5 67.5t-155 182.5t-51.5 264zM215 567 h668q0 14 -2 43q-2 64 -23 121.5t-60 104.5t-102.5 74.5t-144.5 27.5q-143 0 -234 -104.5t-102 -266.5z" />
<glyph unicode="f" horiz-adv-x="718" d="M43 924v86h221v164q0 140 67.5 204t176.5 64q87 0 168 -37l-35 -82q-71 33 -123 33q-73 0 -113 -45.5t-40 -130.5v-170h311v-86h-311v-924h-101v924h-221z" />
<glyph unicode="g" horiz-adv-x="1054" d="M100 -125q0 21 4 45l172 156q-143 56 -143 188q0 118 115 189q-90 93 -90 229q0 150 106.5 246t267.5 96q157 0 256 -90l136 119l53 -68l-133 -115q59 -80 59 -194q0 -149 -105.5 -241.5t-265.5 -92.5q-126 0 -217 57q-86 -42 -86 -123q0 -53 40.5 -87t105 -50.5t143 -28 t157 -27t143 -41t105 -77t40.5 -127.5q0 -132 -113.5 -201t-306.5 -69q-207 0 -325 80t-118 227zM201 -127q0 -112 94.5 -165.5t251.5 -53.5q149 0 231 45t82 131q0 51 -30 85.5t-87.5 54t-113.5 30.5t-139 24t-132 25l-155 -151q-2 -12 -2 -25zM258 680q0 -111 75 -182.5 t199 -71.5q123 0 196 70.5t73 181.5q0 116 -73 188t-193 72q-121 0 -199 -72.5t-78 -185.5z" />
<glyph unicode="h" horiz-adv-x="1130" d="M195 0v1427h100v-596q45 91 132.5 142t203.5 51q163 0 246.5 -104t83.5 -306v-614h-101v590q0 175 -61.5 259.5t-188.5 84.5q-152 0 -233.5 -115t-81.5 -330v-489h-100z" />
<glyph unicode="i" horiz-adv-x="489" d="M186 1227v200h117v-200h-117zM195 0v1010h100v-1010h-100z" />
<glyph unicode="j" horiz-adv-x="489" d="M-14 -408l4 84q48 -18 100 -18q105 0 105 135v1217h100v-1223q0 -111 -46 -165t-130 -54q-49 0 -133 24zM186 1227v200h117v-200h-117z" />
<glyph unicode="k" horiz-adv-x="1099" d="M195 0v1427h100v-999l555 582h137l-362 -375l426 -635h-119l-375 571l-262 -272v-299h-100z" />
<glyph unicode="l" horiz-adv-x="542" d="M188 207v1220h101v-1214q0 -135 102 -135q45 0 103 20l2 -88q-74 -24 -134 -24q-83 0 -128.5 55.5t-45.5 165.5z" />
<glyph unicode="m" horiz-adv-x="1714" d="M193 1010h98v-158q43 87 118.5 129.5t172.5 42.5q234 0 299 -221q90 221 329 221q334 0 334 -412v-612h-102v586q0 50 -4 91t-19 91.5t-40 84.5t-72 57.5t-111 23.5q-142 0 -209 -110t-67 -300v-524h-103v590q0 344 -248 344q-140 0 -206 -110.5t-66 -299.5v-524h-102z " />
<glyph unicode="n" horiz-adv-x="1130" d="M195 0v1010h100v-179q44 92 132.5 142.5t203.5 50.5q161 0 245.5 -102.5t84.5 -307.5v-614h-101v590q0 176 -61.5 260t-188.5 84q-150 0 -232.5 -116.5t-82.5 -336.5v-481h-100z" />
<glyph unicode="o" horiz-adv-x="1171" d="M109 506q0 228 132.5 373t342.5 145q209 0 343 -145.5t134 -372.5q0 -228 -133.5 -374t-343.5 -146t-342.5 145.5t-132.5 374.5zM211 506q0 -192 102 -311t271 -119q170 0 273.5 120t103.5 310q0 191 -103.5 309.5t-273.5 118.5q-169 0 -271 -118.5t-102 -309.5z" />
<glyph unicode="p" horiz-adv-x="1218" d="M195 -418v1428h100v-207q52 104 149 163.5t220 59.5q203 0 321.5 -143.5t118.5 -378.5q0 -230 -116 -374t-324 -144q-126 0 -222.5 59t-146.5 162v-625h-100zM287 504q0 -188 98 -308t264 -120q167 0 259.5 118.5t92.5 309.5q0 194 -94.5 313t-257.5 119 q-162 0 -262 -119.5t-100 -312.5z" />
<glyph unicode="q" horiz-adv-x="1218" d="M117 504q0 235 117.5 378.5t320.5 143.5q123 0 218.5 -58t150.5 -161v203h100v-1428h-100v621q-53 -102 -149 -159.5t-220 -57.5q-139 0 -239.5 68t-149.5 184t-49 266zM217 504q0 -190 93 -309t259 -119t264.5 120t98.5 308q0 193 -99.5 312.5t-263.5 119.5 q-163 0 -257.5 -119t-94.5 -313z" />
<glyph unicode="r" horiz-adv-x="806" d="M195 0v1010h100v-185q33 73 89 119.5t111.5 63t116.5 16.5q90 0 160 -37l-51 -82q-64 27 -127 27q-126 0 -212.5 -91t-86.5 -263v-578h-100z" />
<glyph unicode="s" horiz-adv-x="952" d="M88 244l86 39q32 -92 116 -149.5t204 -57.5q116 0 183.5 53t67.5 145q0 62 -33.5 103.5t-87 63.5t-118.5 38t-130 34t-118.5 44t-87 75.5t-33.5 121.5q0 126 93.5 198t242.5 72q248 0 350 -209l-80 -43q-89 162 -274 162q-105 0 -169 -43.5t-64 -122.5q0 -48 26 -82.5 t69 -52.5t98 -35t112 -29t112 -34.5t98 -51.5t69 -80.5t26 -121.5q0 -140 -98 -217.5t-252 -77.5q-148 0 -258 69.5t-150 188.5z" />
<glyph unicode="t" horiz-adv-x="651" d="M55 924v86h170v301l101 78v-379h241v-86h-241v-693q0 -153 125 -153q45 0 116 22l2 -90q-87 -24 -141 -24q-96 0 -149.5 57t-53.5 176v705h-170z" />
<glyph unicode="u" horiz-adv-x="1130" d="M170 395v615h100v-590q0 -79 12 -139t39.5 -107.5t77.5 -72.5t121 -25q153 0 234.5 116t81.5 328v490h100v-1010h-100v178q-46 -95 -135 -143.5t-201 -48.5q-164 0 -247 104.5t-83 304.5z" />
<glyph unicode="v" horiz-adv-x="1019" d="M53 1010h111l344 -883l348 883h113l-414 -1010h-90z" />
<glyph unicode="w" horiz-adv-x="1513" d="M70 1010h108l236 -860l295 860h96l293 -860l237 860h107l-289 -1010h-100l-295 872l-299 -872h-99z" />
<glyph unicode="x" horiz-adv-x="1013" d="M63 0l377 506l-377 504h123l322 -432l319 432h123l-377 -504l379 -506h-125l-319 436l-320 -436h-125z" />
<glyph unicode="y" horiz-adv-x="1034" d="M49 1010h111l383 -881l323 881h113l-545 -1428h-108l163 426z" />
<glyph unicode="z" horiz-adv-x="983" d="M74 0v80l706 842h-669v88h788v-88l-694 -834h688v-88h-819z" />
<glyph unicode="{" horiz-adv-x="632" d="M119 621v81q61 16 90 52t29 106v412q0 239 217 239h92v-69h-62q-81 0 -120 -40.5t-39 -129.5v-412q0 -75 -28 -122.5t-95 -71.5v-9q123 -48 123 -170v-374q0 -83 38 -129.5t107 -46.5h76v-72h-107q-96 0 -149 66t-53 180v374q0 53 -30 84.5t-89 51.5z" />
<glyph unicode="|" horiz-adv-x="663" d="M293 -518v2068h78v-2068h-78z" />
<glyph unicode="}" horiz-adv-x="632" d="M86 1442v69h92q217 0 217 -239v-412q0 -72 30 -107t89 -51v-81q-57 -19 -88 -50.5t-31 -85.5v-374q0 -113 -53 -179.5t-149 -66.5h-105v72h74q70 0 108.5 46t38.5 130v374q0 121 123 170v9q-64 22 -93.5 68t-29.5 126v412q0 82 -36.5 126t-122.5 44h-64z" />
<glyph unicode="~" horiz-adv-x="1290" d="M240 432q0 130 61 208.5t162 78.5q59 0 103.5 -26.5t72 -64.5t52.5 -76t58 -64.5t74 -26.5q67 0 108.5 64.5t41.5 170.5h80q0 -137 -63 -222t-167 -85q-42 0 -76 14t-57 37t-43 50.5t-38.5 55t-38 50.5t-47 37t-60.5 14q-66 0 -105 -58t-39 -157h-79z" />
<glyph unicode="&#xa1;" horiz-adv-x="645" d="M258 801v209h129v-209h-129zM270 -418l13 1034h79l11 -1034h-103z" />
<glyph unicode="&#xa2;" horiz-adv-x="1216" d="M199 502q0 129 42 239.5t132.5 188.5t216.5 92v209h92v-209q120 -9 212 -77.5t146 -190.5l-98 -39q-40 103 -119.5 161t-181.5 58q-84 0 -150 -35.5t-107 -96.5t-62 -137.5t-21 -162.5q0 -116 36 -210.5t115 -155t191 -60.5q105 0 182 57.5t109 159.5l96 -35 q-45 -123 -135.5 -192t-212.5 -78v-217l-92 -2v219q-181 21 -286 164t-105 350z" />
<glyph unicode="&#xa3;" horiz-adv-x="1308" d="M190 0v111q126 31 206.5 117t80.5 192q0 34 -9 73.5t-19 67.5t-29 75t-27 71h-194v86h172q-41 105 -41 229q0 181 112.5 299.5t292.5 118.5q141 0 246.5 -79t151.5 -218l-84 -31q-36 117 -119 178.5t-195 61.5q-141 0 -229 -91t-88 -241q0 -119 43 -227h442v-86h-420 q8 -23 25.5 -69t27.5 -73.5t18.5 -68.5t8.5 -78q0 -226 -246 -330h801v-88h-928z" />
<glyph unicode="&#xa4;" horiz-adv-x="1456" d="M268 642q0 168 109 294l-98 98l55 58l98 -101q126 109 295 109.5t295 -109.5l98 99l58 -56l-101 -98q110 -126 109.5 -295.5t-109.5 -292.5l101 -100l-56 -58l-100 101q-126 -108 -295.5 -108t-294.5 108l-98 -101l-55 58l98 100q-109 126 -109 294zM347.5 641 q-0.5 -157 109.5 -268q114 -114 269.5 -113.5t268.5 113.5q74 74 100 171.5t0 195t-100 169.5q-111 111 -268 111.5t-270 -111.5q-109 -111 -109.5 -268z" />
<glyph unicode="&#xa5;" horiz-adv-x="1497" d="M150 1427h126l474 -782l471 782h127l-498 -809h332v-83h-379v-222h379v-84h-379v-229h-109v229h-379v84h379v222h-379v83h334z" />
<glyph unicode="&#xa6;" horiz-adv-x="669" d="M293 -311v735h84v-735h-84zM293 739v750h84v-750h-84z" />
<glyph unicode="&#xa7;" horiz-adv-x="1273" d="M176 676q0 158 105 266q-33 64 -33 143q0 157 112.5 257t278.5 100q269 0 397 -223l-88 -56q-105 185 -311 185q-122 0 -203.5 -73t-81.5 -185q0 -36 10.5 -67t25 -54t44 -46.5t51 -38t65.5 -34t67.5 -29t74.5 -28.5q167 -64 236 -108q160 -102 171 -271q1 -14 1 -29 q0 -156 -105 -264q33 -64 33 -144q0 -157 -112.5 -256.5t-278.5 -99.5q-268 0 -397 223l86 56q105 -185 313 -185q123 0 204 73t81 185q0 35 -10.5 66t-25 54.5t-43.5 46.5t-52 38t-65 34t-67.5 29.5t-74.5 28.5q-43 16 -66 25.5t-63.5 27t-63.5 30.5t-56.5 34.5t-53 41 t-42.5 47.5t-35 57t-20 65.5t-8 77.5zM281 684q0 -40 11 -75t26.5 -61.5t44.5 -51.5t53.5 -41.5t66.5 -36.5t69.5 -31t75.5 -30q9 -3 13 -5q75 -29 115.5 -46.5t90 -48.5t79.5 -67q67 77 67 187q0 41 -11.5 77t-27 62.5t-47 53t-55.5 42.5t-70 37t-72 31.5t-79 30.5 q-72 27 -111.5 43.5t-90.5 48.5t-79 67q-69 -75 -69 -186z" />
<glyph unicode="&#xa8;" horiz-adv-x="849" d="M188 1227v200h117v-200h-117zM547 1227v200h115v-200h-115z" />
<glyph unicode="&#xa9;" horiz-adv-x="1830" d="M184 713q0 148 58 283.5t156 233.5t233.5 156t283.5 58t283.5 -58t234 -156t156.5 -233.5t58 -283.5t-58 -283.5t-156.5 -233t-234 -155t-283.5 -57.5t-283.5 57.5t-233.5 155t-156 233t-58 283.5zM254 713q0 -180 88 -332t240.5 -241t332.5 -89q134 0 257 53t212 142 t142 211.5t53 255.5q0 134 -53 257t-142 212t-212 141.5t-257 52.5q-135 0 -257.5 -52.5t-211 -141t-140.5 -211.5t-52 -258zM524 711q0 95 26.5 181t76 155t129 110t178.5 41q127 0 224 -65t149 -187l-82 -31q-39 96 -115.5 150.5t-175.5 54.5q-104 0 -179 -59t-109 -149.5 t-34 -200.5q0 -81 20.5 -152.5t59 -128.5t102 -90t142.5 -33q101 0 176 54.5t107 148.5l77 -29q-43 -121 -137.5 -187.5t-222.5 -66.5q-188 0 -300 137.5t-112 346.5z" />
<glyph unicode="&#xaa;" horiz-adv-x="960" d="M168 920q0 105 78.5 156.5t224.5 51.5h211q0 8 -4 48q-9 208 -211 208q-74 0 -126 -30.5t-97 -93.5l-51 34q57 78 120 113t156 35q131 0 201.5 -73.5t70.5 -209.5v-438h-57l-2 151q-94 -163 -274 -163q-104 0 -172 58.5t-68 152.5zM233 920q0 -66 52 -107t131 -41 q177 0 258 176q4 41 8 123h-207q-242 0 -242 -151z" />
<glyph unicode="&#xab;" horiz-adv-x="999" d="M90 516l389 340v-92l-280 -248l280 -248v-92zM453 516l389 340v-92l-281 -248l281 -248v-92z" />
<glyph unicode="&#xac;" horiz-adv-x="1366" d="M174 713v92h901v-512h-98v420h-803z" />
<glyph unicode="&#xad;" horiz-adv-x="1042" d="M182 596v80h678v-80h-678z" />
<glyph unicode="&#xae;" horiz-adv-x="1830" d="M184 713q0 148 58 283.5t156 233.5t233.5 156t283.5 58t283.5 -58t234 -156t156.5 -233.5t58 -283.5t-58 -283.5t-156.5 -233t-234 -155t-283.5 -57.5t-283.5 57.5t-233.5 155t-156 233t-58 283.5zM254 713q0 -180 88 -332t240.5 -241t332.5 -89q134 0 257 53t212 142 t142 211.5t53 255.5q0 134 -53 257t-142 212t-212 141.5t-257 52.5q-135 0 -257.5 -52.5t-211 -141t-140.5 -211.5t-52 -258zM692 266v895h240q137 0 217 -67t80 -181q0 -89 -50 -148t-141 -81l246 -418h-82l-233 410q-40 -4 -60 -4h-145v-406h-72zM764 733h174 q106 0 162.5 47t56.5 133q0 88 -58.5 135.5t-164.5 47.5h-170v-363z" />
<glyph unicode="&#xaf;" horiz-adv-x="913" d="M182 1253v64h549v-64h-549z" />
<glyph unicode="&#xb0;" horiz-adv-x="1017" d="M219 1153q0 119 85.5 204t205.5 85q118 0 202.5 -85t84.5 -204q0 -120 -84.5 -205.5t-202.5 -85.5q-120 0 -205.5 85.5t-85.5 205.5zM293 1153q0 -91 63 -155t154 -64q89 0 153 64t64 155q0 89 -64 153t-153 64q-90 0 -153.5 -63.5t-63.5 -153.5z" />
<glyph unicode="&#xb1;" horiz-adv-x="1384" d="M168 0h1036v-80h-1036v80zM168 674v82h485v481h80v-481h486v-82h-486v-484h-80v484h-485z" />
<glyph unicode="&#xb4;" horiz-adv-x="501" d="M88 1141l219 286h109l-246 -286h-82z" />
<glyph unicode="&#xb5;" horiz-adv-x="1310" d="M293 -358v1368h100v-619q0 -150 69 -230.5t200 -80.5q136 0 216 85t80 234v611h103v-1010h-103v186q-42 -96 -127.5 -148t-193.5 -52q-195 0 -260 151v-495h-84z" />
<glyph unicode="&#xb6;" horiz-adv-x="1273" d="M152 1028q0 121 65.5 214t168.5 139t224 46h72v-1675h-72v877q-121 0 -224 46t-168.5 139t-65.5 214zM905 -248v1675h76v-1675h-76z" />
<glyph unicode="&#xb7;" horiz-adv-x="720" d="M229 739q0 55 37.5 92t93.5 37t92.5 -37t36.5 -92t-37.5 -93t-91.5 -38t-92.5 38t-38.5 93z" />
<glyph unicode="&#xb8;" horiz-adv-x="616" d="M109 -389l61 27q15 -42 51.5 -67.5t81.5 -25.5q65 0 101 32t36 91t-48.5 94.5t-139.5 42.5q-68 5 -92 5l106 188h68l-84 -141q31 -2 65 -9q93 -15 141 -60.5t48 -117.5q0 -85 -55 -137.5t-148 -52.5q-63 0 -116.5 37t-75.5 94z" />
<glyph unicode="&#xba;" horiz-adv-x="1011" d="M166 1083q0 151 97 255t243 104t243 -104t97 -255q0 -152 -96.5 -255t-243.5 -103t-243.5 103t-96.5 255zM240 1083q0 -127 73 -209.5t193 -82.5t193 82.5t73 209.5t-73 210t-193 83t-193 -83t-73 -210z" />
<glyph unicode="&#xbb;" horiz-adv-x="997" d="M154 176v92l282 248l-282 248v92l391 -340zM516 176v92l283 248l-283 248v92l389 -340z" />
<glyph unicode="&#xbf;" horiz-adv-x="1091" d="M139 -63q0 72 20.5 128t53 90.5t72 62t79.5 49.5t72.5 45.5t53 57t20.5 76.5v175h86v-175q0 -53 -16 -95.5t-41.5 -69t-58.5 -51t-67.5 -42t-67.5 -41.5t-58.5 -50.5t-41.5 -68t-16 -94.5q0 -135 87 -207.5t243 -72.5q148 0 233 80t87 217h90q-1 -176 -112.5 -279.5 t-295.5 -103.5q-191 0 -306.5 97.5t-115.5 271.5zM487 801v209h129v-209h-129z" />
<glyph unicode="&#xc0;" horiz-adv-x="1310" d="M90 0l518 1427h92l521 -1427h-115l-141 401h-619l-141 -401h-115zM375 1845h108l213 -286h-82zM377 492h557l-279 794z" />
<glyph unicode="&#xc1;" horiz-adv-x="1310" d="M90 0l518 1427h92l521 -1427h-115l-141 401h-619l-141 -401h-115zM377 492h557l-279 794zM614 1559l220 286h108l-246 -286h-82z" />
<glyph unicode="&#xc2;" horiz-adv-x="1310" d="M90 0l518 1427h92l521 -1427h-115l-141 401h-619l-141 -401h-115zM354 1546l301 314l299 -314h-88l-211 219l-211 -219h-90zM377 492h557l-279 794z" />
<glyph unicode="&#xc3;" horiz-adv-x="1310" d="M90 0l518 1427h92l521 -1427h-115l-141 401h-619l-141 -401h-115zM336 1618q0 112 48 173.5t132 61.5q44 0 77.5 -19.5t55 -47t42 -55t48 -47t62.5 -19.5q45 0 75.5 49.5t30.5 130.5h66q0 -113 -47.5 -180.5t-124.5 -67.5q-48 0 -84 19.5t-58 47.5t-41 56.5t-45 48 t-59 19.5q-54 0 -85.5 -45.5t-31.5 -124.5h-61zM377 492h557l-279 794z" />
<glyph unicode="&#xc4;" horiz-adv-x="1310" d="M90 0l518 1427h92l521 -1427h-115l-141 401h-619l-141 -401h-115zM377 492h557l-279 794zM418 1645v200h117v-200h-117zM776 1645v200h115v-200h-115z" />
<glyph unicode="&#xc5;" horiz-adv-x="1310" d="M90 0l512 1409q-59 17 -96 65.5t-37 110.5q0 78 54.5 132.5t131.5 54.5q75 0 130 -55.5t55 -131.5q0 -63 -37 -112t-96 -64l514 -1409h-115l-141 401h-619l-141 -401h-115zM377 492h557l-279 794zM530 1585q0 -53 35.5 -89t89.5 -36q53 0 89 36t36 89q0 54 -35.5 89.5 t-89.5 35.5t-89.5 -35.5t-35.5 -89.5z" />
<glyph unicode="&#xc6;" horiz-adv-x="1935" d="M90 0l518 1427h1207v-92h-791v-573h686v-90h-686v-576h791v-96h-897v354h-590l-123 -354h-115zM360 438h558v899h-242z" />
<glyph unicode="&#xc7;" horiz-adv-x="1488" d="M154 717q0 344 169.5 534.5t475.5 190.5q424 0 571 -379l-96 -37q-117 315 -475 315q-261 0 -402 -161.5t-141 -462.5t138.5 -466t391.5 -165q175 0 299.5 81.5t188.5 240.5l100 -37q-76 -180 -215 -277t-332 -108l-75 -129q91 -10 143 -31q113 -47 113 -156 q0 -85 -55.5 -137.5t-147.5 -52.5q-55 0 -106 29t-81 79l41 47q23 -43 62.5 -66.5t85.5 -23.5q65 0 100 31.5t35 91.5q0 94 -113 125q-64 17 -165 17l98 176q-288 7 -448 200.5t-160 530.5z" />
<glyph unicode="&#xc8;" horiz-adv-x="1298" d="M244 0v1427h930v-96h-826v-557h735v-98h-735v-580h826v-96h-930zM426 1845h109l213 -286h-82z" />
<glyph unicode="&#xc9;" horiz-adv-x="1298" d="M244 0v1427h930v-96h-826v-557h735v-98h-735v-580h826v-96h-930zM668 1559l219 286h108l-245 -286h-82z" />
<glyph unicode="&#xca;" horiz-adv-x="1298" d="M244 0v1427h930v-96h-826v-557h735v-98h-735v-580h826v-96h-930zM408 1546l301 314l299 -314h-88l-211 219l-211 -219h-90z" />
<glyph unicode="&#xcb;" horiz-adv-x="1298" d="M244 0v1427h930v-96h-826v-557h735v-98h-735v-580h826v-96h-930zM471 1645v200h117v-200h-117zM829 1645v200h115v-200h-115z" />
<glyph unicode="&#xcc;" horiz-adv-x="591" d="M14 1845h109l213 -286h-82zM244 0v1427h104v-1427h-104z" />
<glyph unicode="&#xcd;" horiz-adv-x="591" d="M244 0v1427h104v-1427h-104zM256 1559l219 286h109l-246 -286h-82z" />
<glyph unicode="&#xce;" horiz-adv-x="591" d="M-4 1546l301 314l299 -314h-88l-211 219l-211 -219h-90zM244 0v1427h104v-1427h-104z" />
<glyph unicode="&#xcf;" horiz-adv-x="591" d="M59 1645v200h117v-200h-117zM244 0v1427h104v-1427h-104zM418 1645v200h114v-200h-114z" />
<glyph unicode="&#xd0;" horiz-adv-x="1492" d="M94 680v70h150v677h377q346 0 535.5 -189.5t189.5 -535.5q0 -341 -188 -521.5t-540 -180.5h-374v680h-150zM348 96h262q312 0 470.5 154.5t158.5 456.5q0 306 -158 465t-463 159h-270v-581h258v-70h-258v-584z" />
<glyph unicode="&#xd1;" horiz-adv-x="1452" d="M244 0v1427h116l746 -1255v1255h102v-1427h-118l-742 1255v-1255h-104zM408 1618q0 112 48 173.5t132 61.5q44 0 77.5 -19.5t55 -47t41.5 -55t47.5 -47t62.5 -19.5q46 0 76.5 49.5t30.5 130.5h65q0 -113 -47.5 -180.5t-124.5 -67.5q-48 0 -84 19.5t-57.5 47.5t-41 56.5 t-45 48t-58.5 19.5q-54 0 -85.5 -45.5t-31.5 -124.5h-61z" />
<glyph unicode="&#xd2;" horiz-adv-x="1585" d="M150 713q0 329 176.5 529t466.5 200q289 0 466 -200.5t177 -528.5q0 -327 -176.5 -527t-466.5 -200t-466.5 200t-176.5 527zM254 713q0 -287 146 -457t393 -170q246 0 392 170t146 457q0 288 -146 458t-392 170q-248 0 -393.5 -169.5t-145.5 -458.5zM512 1845h109 l213 -286h-82z" />
<glyph unicode="&#xd3;" horiz-adv-x="1585" d="M150 713q0 329 176.5 529t466.5 200q289 0 466 -200.5t177 -528.5q0 -327 -176.5 -527t-466.5 -200t-466.5 200t-176.5 527zM254 713q0 -287 146 -457t393 -170q246 0 392 170t146 457q0 288 -146 458t-392 170q-248 0 -393.5 -169.5t-145.5 -458.5zM752 1559l219 286 h108l-245 -286h-82z" />
<glyph unicode="&#xd4;" horiz-adv-x="1585" d="M150 713q0 329 176.5 529t466.5 200q289 0 466 -200.5t177 -528.5q0 -327 -176.5 -527t-466.5 -200t-466.5 200t-176.5 527zM254 713q0 -287 146 -457t393 -170q246 0 392 170t146 457q0 288 -146 458t-392 170q-248 0 -393.5 -169.5t-145.5 -458.5zM492 1546l301 314 l299 -314h-88l-211 219l-211 -219h-90z" />
<glyph unicode="&#xd5;" horiz-adv-x="1585" d="M150 713q0 329 176.5 529t466.5 200q289 0 466 -200.5t177 -528.5q0 -327 -176.5 -527t-466.5 -200t-466.5 200t-176.5 527zM254 713q0 -287 146 -457t393 -170q246 0 392 170t146 457q0 288 -146 458t-392 170q-248 0 -393.5 -169.5t-145.5 -458.5zM473 1618 q0 112 48 173.5t132 61.5q44 0 77.5 -19.5t55 -47t42 -55t48 -47t62.5 -19.5q45 0 75.5 49.5t30.5 130.5h66q0 -113 -47.5 -180.5t-124.5 -67.5q-48 0 -84 19.5t-58 47.5t-41 56.5t-45 48t-59 19.5q-54 0 -85 -45.5t-31 -124.5h-62z" />
<glyph unicode="&#xd6;" horiz-adv-x="1585" d="M150 713q0 329 176.5 529t466.5 200q289 0 466 -200.5t177 -528.5q0 -327 -176.5 -527t-466.5 -200t-466.5 200t-176.5 527zM254 713q0 -287 146 -457t393 -170q246 0 392 170t146 457q0 288 -146 458t-392 170q-248 0 -393.5 -169.5t-145.5 -458.5zM555 1645v200h117 v-200h-117zM913 1645v200h115v-200h-115z" />
<glyph unicode="&#xd7;" horiz-adv-x="1142" d="M176 985l62 59l333 -335l336 333l60 -59l-334 -334l334 -336l-60 -59l-336 334l-333 -334l-60 59l334 336z" />
<glyph unicode="&#xd8;" horiz-adv-x="1585" d="M150 713q0 329 176.5 529t466.5 200q202 0 352 -101l55 86h103l-91 -139q107 -97 165.5 -244t58.5 -331q0 -327 -176.5 -527t-466.5 -200q-205 0 -353 100l-55 -86h-100l88 137q-107 98 -165 245t-58 331zM254 713q0 -317 174 -488l662 1030q-128 86 -297 86 q-248 0 -393.5 -169.5t-145.5 -458.5zM496 170q130 -84 297 -84q246 0 392 170t146 457q0 316 -174 487z" />
<glyph unicode="&#xd9;" horiz-adv-x="1429" d="M215 516v911h102v-901q0 -438 396 -438q399 0 399 444v895h105v-901q0 -262 -129.5 -401t-374.5 -139q-242 0 -370 136t-128 394zM434 1845h109l213 -286h-82z" />
<glyph unicode="&#xda;" horiz-adv-x="1429" d="M215 516v911h102v-901q0 -438 396 -438q399 0 399 444v895h105v-901q0 -262 -129.5 -401t-374.5 -139q-242 0 -370 136t-128 394zM676 1559l219 286h109l-246 -286h-82z" />
<glyph unicode="&#xdb;" horiz-adv-x="1429" d="M215 516v911h102v-901q0 -438 396 -438q399 0 399 444v895h105v-901q0 -262 -129.5 -401t-374.5 -139q-242 0 -370 136t-128 394zM416 1546l301 314l299 -314h-88l-211 219l-211 -219h-90z" />
<glyph unicode="&#xdc;" horiz-adv-x="1429" d="M215 516v911h102v-901q0 -438 396 -438q399 0 399 444v895h105v-901q0 -262 -129.5 -401t-374.5 -139q-242 0 -370 136t-128 394zM479 1645v200h117v-200h-117zM838 1645v200h114v-200h-114z" />
<glyph unicode="&#xdd;" horiz-adv-x="1353" d="M78 1427h123l473 -782l477 782h125l-547 -884v-543h-106v543zM637 1559l219 286h109l-246 -286h-82z" />
<glyph unicode="&#xde;" horiz-adv-x="1200" d="M244 0v1427h96v-208h297q211 0 329.5 -104t118.5 -288q0 -189 -124 -294t-345 -105h-276v-428h-96zM340 516h276q180 0 276.5 79.5t96.5 227.5q0 149 -97.5 230.5t-275.5 81.5h-276v-619z" />
<glyph unicode="&#xdf;" horiz-adv-x="1280" d="M195 0v932q0 49 2 87t12 94.5t27 99t50 89t78.5 76.5t115.5 50t157 20q177 0 291 -78.5t114 -198.5q0 -51 -19 -89.5t-51 -60t-72 -39.5t-82 -28.5t-82 -26.5t-72 -34.5t-51 -51t-19 -77.5q0 -49 26 -83.5t69 -52.5t98 -34t112 -27.5t112 -33.5t98 -50.5t69 -80 t26 -121.5q0 -140 -97.5 -217.5t-252.5 -77.5q-144 0 -254.5 72t-150.5 188l83 37q32 -92 116.5 -151.5t201.5 -59.5q119 0 186.5 55.5t67.5 146.5q0 62 -33.5 104.5t-87.5 64t-119 37.5t-130 34t-119 44.5t-87.5 78t-33.5 125.5q0 60 19 105t51 70t72 44.5t82 30t82 24 t72 27.5t51 40.5t19 63.5q0 79 -88 133t-215 54q-67 0 -120 -14.5t-88 -37t-60.5 -58.5t-39 -69.5t-21 -80.5t-9.5 -81.5t-2 -80.5v-932h-104z" />
<glyph unicode="&#xe0;" horiz-adv-x="1087" d="M98 287q0 153 119 225q111 63 363 63h239v52q0 151 -73.5 229t-215.5 78q-101 0 -178.5 -42.5t-142.5 -131.5l-74 61q78 104 174 153.5t221 49.5q188 0 290 -103t102 -294v-627h-95l-6 195q-57 -100 -157 -154.5t-228 -54.5q-158 0 -248 80t-90 221zM201 283 q0 -97 71.5 -155t192.5 -58q158 0 256 105.5t98 275.5v41h-231q-235 0 -314 -56q-73 -49 -73 -153zM258 1427h109l213 -286h-82z" />
<glyph unicode="&#xe1;" horiz-adv-x="1087" d="M98 287q0 153 119 225q111 63 363 63h239v52q0 151 -73.5 229t-215.5 78q-101 0 -178.5 -42.5t-142.5 -131.5l-74 61q78 104 174 153.5t221 49.5q188 0 290 -103t102 -294v-627h-95l-6 195q-57 -100 -157 -154.5t-228 -54.5q-158 0 -248 80t-90 221zM201 283 q0 -97 71.5 -155t192.5 -58q158 0 256 105.5t98 275.5v41h-231q-235 0 -314 -56q-73 -49 -73 -153zM500 1141l219 286h108l-245 -286h-82z" />
<glyph unicode="&#xe2;" horiz-adv-x="1087" d="M98 287q0 153 119 225q111 63 363 63h239v52q0 151 -73.5 229t-215.5 78q-101 0 -178.5 -42.5t-142.5 -131.5l-74 61q78 104 174 153.5t221 49.5q188 0 290 -103t102 -294v-627h-95l-6 195q-57 -100 -157 -154.5t-228 -54.5q-158 0 -248 80t-90 221zM201 283 q0 -97 71.5 -155t192.5 -58q158 0 256 105.5t98 275.5v41h-231q-235 0 -314 -56q-73 -49 -73 -153zM240 1128l301 314l299 -314h-88l-211 220l-211 -220h-90z" />
<glyph unicode="&#xe3;" horiz-adv-x="1087" d="M98 287q0 153 119 225q111 63 363 63h239v52q0 151 -73.5 229t-215.5 78q-101 0 -178.5 -42.5t-142.5 -131.5l-74 61q78 104 174 153.5t221 49.5q188 0 290 -103t102 -294v-627h-95l-6 195q-57 -100 -157 -154.5t-228 -54.5q-158 0 -248 80t-90 221zM201 283 q0 -97 71.5 -155t192.5 -58q158 0 256 105.5t98 275.5v41h-231q-235 0 -314 -56q-73 -49 -73 -153zM221 1200q0 112 48 174t132 62q44 0 77.5 -19.5t55 -47t42 -55.5t48 -47.5t62.5 -19.5q46 0 76.5 49.5t30.5 130.5h65q0 -113 -47.5 -180t-124.5 -67q-48 0 -84 19.5 t-58 47.5t-41 56t-45 47.5t-59 19.5q-54 0 -85 -45.5t-31 -124.5h-62z" />
<glyph unicode="&#xe4;" horiz-adv-x="1087" d="M98 287q0 153 119 225q111 63 363 63h239v52q0 151 -73.5 229t-215.5 78q-101 0 -178.5 -42.5t-142.5 -131.5l-74 61q78 104 174 153.5t221 49.5q188 0 290 -103t102 -294v-627h-95l-6 195q-57 -100 -157 -154.5t-228 -54.5q-158 0 -248 80t-90 221zM201 283 q0 -97 71.5 -155t192.5 -58q158 0 256 105.5t98 275.5v41h-231q-235 0 -314 -56q-73 -49 -73 -153zM303 1227v200h117v-200h-117zM662 1227v200h114v-200h-114z" />
<glyph unicode="&#xe5;" horiz-adv-x="1087" d="M98 287q0 153 119 225q111 63 363 63h239v52q0 151 -73.5 229t-215.5 78q-101 0 -178.5 -42.5t-142.5 -131.5l-74 61q78 104 174 153.5t221 49.5q188 0 290 -103t102 -294v-627h-95l-6 195q-57 -100 -157 -154.5t-228 -54.5q-158 0 -248 80t-90 221zM201 283 q0 -97 71.5 -155t192.5 -58q158 0 256 105.5t98 275.5v41h-231q-235 0 -314 -56q-73 -49 -73 -153zM352 1298q0 78 55 132.5t132 54.5q75 0 129.5 -55.5t54.5 -131.5t-53.5 -130t-130.5 -54q-78 0 -132.5 53.5t-54.5 130.5zM414 1298q0 -53 35.5 -88.5t89.5 -35.5 q53 0 89 36t36 88q0 54 -35.5 89.5t-89.5 35.5t-89.5 -35.5t-35.5 -89.5z" />
<glyph unicode="&#xe6;" horiz-adv-x="1779" d="M98 285q0 290 451 290h272v52q0 150 -75 228.5t-216 78.5q-103 0 -180 -42.5t-139 -131.5l-76 61q79 104 176 153.5t226 49.5q148 0 238.5 -70.5t113.5 -203.5q46 125 139 197.5t225 72.5q89 0 161 -26.5t119 -70t79 -102t45.5 -120t13.5 -126.5q0 -57 -6 -92h-750 q5 -191 95.5 -297t251.5 -106q100 0 169.5 30t139.5 103l74 -63q-89 -89 -176.5 -125.5t-206.5 -36.5q-158 0 -263 84.5t-141 234.5h-12q-102 -321 -402 -321q-162 0 -254 81.5t-92 217.5zM201 285q0 -97 68.5 -154t187.5 -57q144 0 243 97t121 298v31h-266 q-354 0 -354 -215zM915 559h660q1 7 -6 82q-6 52 -25.5 100.5t-56 93.5t-98 72t-140.5 27q-147 0 -238 -106t-96 -269z" />
<glyph unicode="&#xe7;" horiz-adv-x="1038" d="M113 502q0 102 28 194.5t81.5 166t139.5 117.5t193 44q134 0 237.5 -69t161.5 -201l-98 -39q-40 103 -119.5 161t-181.5 58q-84 0 -150 -35.5t-107 -96.5t-62 -137.5t-21 -162.5q0 -116 36 -210.5t115 -155t191 -60.5q104 0 181.5 57t111.5 160l94 -35 q-49 -132 -150 -202t-237 -70h-14l-76 -129q91 -10 143 -31q113 -47 113 -156q0 -85 -55.5 -137.5t-147.5 -52.5q-55 0 -105.5 29t-80.5 79l41 47q23 -43 62.5 -66.5t84.5 -23.5q65 0 100 31.5t35 91.5q0 94 -112 125q-64 17 -166 17l102 182q-171 27 -269.5 168t-98.5 342z " />
<glyph unicode="&#xe8;" horiz-adv-x="1085" d="M115 500q0 227 117.5 375.5t318.5 148.5q89 0 162.5 -27t122 -72t81.5 -105t47.5 -122.5t14.5 -128.5q0 -56 -6 -86h-758q3 -190 97.5 -297.5t256.5 -107.5q96 0 167 30t143 105l71 -63q-88 -90 -176 -127t-207 -37q-142 0 -245.5 67.5t-155 182.5t-51.5 264zM215 567 h668q0 14 -2 43q-2 64 -23 121.5t-60 104.5t-102.5 74.5t-144.5 27.5q-143 0 -234 -104.5t-102 -266.5zM272 1427h109l213 -286h-82z" />
<glyph unicode="&#xe9;" horiz-adv-x="1085" d="M115 500q0 227 117.5 375.5t318.5 148.5q89 0 162.5 -27t122 -72t81.5 -105t47.5 -122.5t14.5 -128.5q0 -56 -6 -86h-758q3 -190 97.5 -297.5t256.5 -107.5q96 0 167 30t143 105l71 -63q-88 -90 -176 -127t-207 -37q-142 0 -245.5 67.5t-155 182.5t-51.5 264zM215 567 h668q0 14 -2 43q-2 64 -23 121.5t-60 104.5t-102.5 74.5t-144.5 27.5q-143 0 -234 -104.5t-102 -266.5zM512 1141l219 286h109l-246 -286h-82z" />
<glyph unicode="&#xea;" horiz-adv-x="1085" d="M115 500q0 227 117.5 375.5t318.5 148.5q89 0 162.5 -27t122 -72t81.5 -105t47.5 -122.5t14.5 -128.5q0 -56 -6 -86h-758q3 -190 97.5 -297.5t256.5 -107.5q96 0 167 30t143 105l71 -63q-88 -90 -176 -127t-207 -37q-142 0 -245.5 67.5t-155 182.5t-51.5 264zM215 567 h668q0 14 -2 43q-2 64 -23 121.5t-60 104.5t-102.5 74.5t-144.5 27.5q-143 0 -234 -104.5t-102 -266.5zM252 1128l301 314l299 -314h-88l-211 220l-211 -220h-90z" />
<glyph unicode="&#xeb;" horiz-adv-x="1085" d="M115 500q0 227 117.5 375.5t318.5 148.5q89 0 162.5 -27t122 -72t81.5 -105t47.5 -122.5t14.5 -128.5q0 -56 -6 -86h-758q3 -190 97.5 -297.5t256.5 -107.5q96 0 167 30t143 105l71 -63q-88 -90 -176 -127t-207 -37q-142 0 -245.5 67.5t-155 182.5t-51.5 264zM215 567 h668q0 14 -2 43q-2 64 -23 121.5t-60 104.5t-102.5 74.5t-144.5 27.5q-143 0 -234 -104.5t-102 -266.5zM315 1227v200h117v-200h-117zM674 1227v200h114v-200h-114z" />
<glyph unicode="&#xec;" horiz-adv-x="489" d="M-37 1427h109l213 -286h-82zM195 0v1010h100v-1010h-100z" />
<glyph unicode="&#xed;" horiz-adv-x="489" d="M195 0v1010h100v-1010h-100zM205 1141l219 286h108l-245 -286h-82z" />
<glyph unicode="&#xee;" horiz-adv-x="489" d="M-55 1128l301 314l299 -314h-88l-211 220l-211 -220h-90zM195 0v1010h100v-1010h-100z" />
<glyph unicode="&#xef;" horiz-adv-x="489" d="M8 1227v200h117v-200h-117zM195 0v1010h100v-1010h-100zM367 1227v200h114v-200h-114z" />
<glyph unicode="&#xf0;" horiz-adv-x="1251" d="M109 438q0 262 160 429t399 167q132 0 219 -68t129 -178q0 300 -150 447l-311 -102l-18 57l274 90q-162 111 -459 117l6 71q356 -11 541 -157l256 84l19 -60l-224 -73q172 -180 172 -553q0 -110 -22 -213.5t-68.5 -196t-114 -161.5t-164.5 -109.5t-212 -40.5 q-195 0 -313.5 125t-118.5 325zM203 440q0 -166 96 -264t248 -98q98 0 180 35.5t137 95.5t89.5 134t47.5 157q10 46 5 97t-16.5 101t-39.5 96t-64 80.5t-90 55t-118 20.5q-214 0 -344.5 -145t-130.5 -365z" />
<glyph unicode="&#xf1;" horiz-adv-x="1130" d="M195 0v1010h100v-179q44 92 132.5 142.5t203.5 50.5q161 0 245.5 -102.5t84.5 -307.5v-614h-101v590q0 176 -61.5 260t-188.5 84q-150 0 -232.5 -116.5t-82.5 -336.5v-481h-100zM256 1200q0 112 48 174t132 62q44 0 77.5 -19.5t55 -47t42 -55.5t48 -47.5t62.5 -19.5 q45 0 75.5 49.5t30.5 130.5h66q0 -113 -47.5 -180t-124.5 -67q-48 0 -84 19.5t-58 47.5t-41 56t-45 47.5t-59 19.5q-54 0 -85.5 -45.5t-31.5 -124.5h-61z" />
<glyph unicode="&#xf2;" horiz-adv-x="1171" d="M109 506q0 228 132.5 373t342.5 145q209 0 343 -145.5t134 -372.5q0 -228 -133.5 -374t-343.5 -146t-342.5 145.5t-132.5 374.5zM211 506q0 -192 102 -311t271 -119q170 0 273.5 120t103.5 310q0 191 -103.5 309.5t-273.5 118.5q-169 0 -271 -118.5t-102 -309.5z M303 1427h109l213 -286h-82z" />
<glyph unicode="&#xf3;" horiz-adv-x="1171" d="M109 506q0 228 132.5 373t342.5 145q209 0 343 -145.5t134 -372.5q0 -228 -133.5 -374t-343.5 -146t-342.5 145.5t-132.5 374.5zM211 506q0 -192 102 -311t271 -119q170 0 273.5 120t103.5 310q0 191 -103.5 309.5t-273.5 118.5q-169 0 -271 -118.5t-102 -309.5z M545 1141l219 286h108l-245 -286h-82z" />
<glyph unicode="&#xf4;" horiz-adv-x="1171" d="M109 506q0 228 132.5 373t342.5 145q209 0 343 -145.5t134 -372.5q0 -228 -133.5 -374t-343.5 -146t-342.5 145.5t-132.5 374.5zM211 506q0 -192 102 -311t271 -119q170 0 273.5 120t103.5 310q0 191 -103.5 309.5t-273.5 118.5q-169 0 -271 -118.5t-102 -309.5z M285 1128l301 314l299 -314h-88l-211 220l-211 -220h-90z" />
<glyph unicode="&#xf5;" horiz-adv-x="1171" d="M109 506q0 228 132.5 373t342.5 145q209 0 343 -145.5t134 -372.5q0 -228 -133.5 -374t-343.5 -146t-342.5 145.5t-132.5 374.5zM211 506q0 -192 102 -311t271 -119q170 0 273.5 120t103.5 310q0 191 -103.5 309.5t-273.5 118.5q-169 0 -271 -118.5t-102 -309.5z M266 1200q0 112 48 174t132 62q44 0 77.5 -19.5t55 -47t42 -55.5t48 -47.5t62.5 -19.5q46 0 76.5 49.5t30.5 130.5h65q0 -113 -47.5 -180t-124.5 -67q-48 0 -84 19.5t-58 47.5t-41 56t-45 47.5t-59 19.5q-54 0 -85 -45.5t-31 -124.5h-62z" />
<glyph unicode="&#xf6;" horiz-adv-x="1171" d="M109 506q0 228 132.5 373t342.5 145q209 0 343 -145.5t134 -372.5q0 -228 -133.5 -374t-343.5 -146t-342.5 145.5t-132.5 374.5zM211 506q0 -192 102 -311t271 -119q170 0 273.5 120t103.5 310q0 191 -103.5 309.5t-273.5 118.5q-169 0 -271 -118.5t-102 -309.5z M348 1227v200h117v-200h-117zM707 1227v200h114v-200h-114z" />
<glyph unicode="&#xf7;" horiz-adv-x="1007" d="M152 594v86h696v-86h-696zM444 145v207h111v-207h-111zM444 905v209h111v-209h-111z" />
<glyph unicode="&#xf8;" horiz-adv-x="1171" d="M109 506q0 228 132.5 373t342.5 145q136 0 243 -66l99 158h80l-123 -196q84 -68 131 -175.5t47 -238.5q0 -228 -133.5 -374t-343.5 -146q-140 0 -246 65l-98 -155h-80l123 196q-83 68 -128.5 175.5t-45.5 238.5zM211 506q0 -214 123 -334l444 711q-85 51 -194 51 q-169 0 -271 -118.5t-102 -309.5zM387 131q82 -55 197 -55q170 0 273.5 120t103.5 310q0 105 -33 191.5t-94 142.5z" />
<glyph unicode="&#xf9;" horiz-adv-x="1130" d="M170 395v615h100v-590q0 -79 12 -139t39.5 -107.5t77.5 -72.5t121 -25q153 0 234.5 116t81.5 328v490h100v-1010h-100v178q-46 -95 -135 -143.5t-201 -48.5q-164 0 -247 104.5t-83 304.5zM270 1427h109l213 -286h-82z" />
<glyph unicode="&#xfa;" horiz-adv-x="1130" d="M170 395v615h100v-590q0 -79 12 -139t39.5 -107.5t77.5 -72.5t121 -25q153 0 234.5 116t81.5 328v490h100v-1010h-100v178q-46 -95 -135 -143.5t-201 -48.5q-164 0 -247 104.5t-83 304.5zM512 1141l219 286h109l-246 -286h-82z" />
<glyph unicode="&#xfb;" horiz-adv-x="1130" d="M170 395v615h100v-590q0 -79 12 -139t39.5 -107.5t77.5 -72.5t121 -25q153 0 234.5 116t81.5 328v490h100v-1010h-100v178q-46 -95 -135 -143.5t-201 -48.5q-164 0 -247 104.5t-83 304.5zM252 1128l301 314l299 -314h-88l-211 220l-211 -220h-90z" />
<glyph unicode="&#xfc;" horiz-adv-x="1130" d="M170 395v615h100v-590q0 -79 12 -139t39.5 -107.5t77.5 -72.5t121 -25q153 0 234.5 116t81.5 328v490h100v-1010h-100v178q-46 -95 -135 -143.5t-201 -48.5q-164 0 -247 104.5t-83 304.5zM315 1227v200h117v-200h-117zM674 1227v200h114v-200h-114z" />
<glyph unicode="&#xfd;" horiz-adv-x="1034" d="M49 1010h111l383 -881l323 881h113l-545 -1428h-108l163 426zM477 1141l219 286h109l-246 -286h-82z" />
<glyph unicode="&#xfe;" horiz-adv-x="1220" d="M197 -418v1845h100v-624q52 104 149 163.5t220 59.5q203 0 321.5 -143.5t118.5 -378.5q0 -230 -116 -374t-324 -144q-126 0 -222.5 59t-146.5 162v-625h-100zM289 504q0 -188 98 -308t264 -120q167 0 260 119t93 309q0 193 -95 312.5t-258 119.5q-162 0 -262 -119.5 t-100 -312.5z" />
<glyph unicode="&#xff;" horiz-adv-x="1034" d="M49 1010h111l383 -881l323 881h113l-545 -1428h-108l163 426zM281 1227v200h116v-200h-116zM639 1227v200h115v-200h-115z" />
<glyph unicode="&#x152;" horiz-adv-x="2396" d="M150 713q0 329 176.5 529t466.5 200q190 0 336 -90.5t225 -253.5v329h930v-96h-826v-557h735v-98h-735v-580h826v-96h-930v328q-79 -162 -224.5 -252t-336.5 -90q-290 0 -466.5 200t-176.5 527zM254 713q0 -287 146 -457t393 -170q246 0 392 170t146 457q0 288 -146 458 t-392 170q-248 0 -393.5 -169.5t-145.5 -458.5z" />
<glyph unicode="&#x153;" horiz-adv-x="1943" d="M106 506q0 144 61 262.5t171 187t248 68.5q142 0 254 -73t172 -197q53 126 154.5 198t242.5 72q93 0 168 -29t122.5 -75.5t79.5 -107.5t45 -121.5t13 -121.5q0 -62 -6 -86h-760q6 -191 99 -298t255 -107q98 0 169.5 30.5t142.5 104.5l71 -63q-89 -89 -176 -126.5 t-207 -37.5q-148 0 -254 71.5t-159 196.5q-62 -123 -173.5 -195.5t-252.5 -72.5q-138 0 -248 69t-171 188t-61 263zM213 506q0 -184 103 -308t270 -124q112 0 199 58t133.5 156t46.5 218q0 184 -105 307t-274 123q-167 0 -270 -122.5t-103 -307.5zM1073 571h664v47 q-4 59 -24.5 113.5t-58.5 101.5t-102 75t-145 28q-140 0 -229.5 -100t-104.5 -265z" />
<glyph unicode="&#x178;" horiz-adv-x="1353" d="M78 1427h123l473 -782l477 782h125l-547 -884v-543h-106v543zM440 1645v200h117v-200h-117zM799 1645v200h114v-200h-114z" />
<glyph unicode="&#x2c6;" horiz-adv-x="743" d="M72 1128l301 314l299 -314h-88l-211 220l-211 -220h-90z" />
<glyph unicode="&#x2dc;" horiz-adv-x="935" d="M150 1200q0 112 48 174t132 62q44 0 77.5 -19.5t55 -47t41.5 -55.5t47.5 -47.5t62.5 -19.5q46 0 76.5 49.5t30.5 130.5h65q0 -113 -47.5 -180t-124.5 -67q-48 0 -84 19.5t-57.5 47.5t-41 56t-45 47.5t-58.5 19.5q-54 0 -85.5 -45.5t-31.5 -124.5h-61z" />
<glyph unicode="&#x2000;" horiz-adv-x="930" />
<glyph unicode="&#x2001;" horiz-adv-x="1860" />
<glyph unicode="&#x2002;" horiz-adv-x="930" />
<glyph unicode="&#x2003;" horiz-adv-x="1860" />
<glyph unicode="&#x2004;" horiz-adv-x="620" />
<glyph unicode="&#x2005;" horiz-adv-x="465" />
<glyph unicode="&#x2006;" horiz-adv-x="310" />
<glyph unicode="&#x2007;" horiz-adv-x="310" />
<glyph unicode="&#x2008;" horiz-adv-x="232" />
<glyph unicode="&#x2009;" horiz-adv-x="372" />
<glyph unicode="&#x200a;" horiz-adv-x="103" />
<glyph unicode="&#x2010;" horiz-adv-x="897" d="M182 596v80h533v-80h-533z" />
<glyph unicode="&#x2011;" horiz-adv-x="897" d="M182 596v80h533v-80h-533z" />
<glyph unicode="&#x2012;" horiz-adv-x="897" d="M182 596v80h533v-80h-533z" />
<glyph unicode="&#x2013;" horiz-adv-x="1083" d="M182 596v80h719v-80h-719z" />
<glyph unicode="&#x2014;" horiz-adv-x="2068" d="M0 596v80h2068v-80h-2068z" />
<glyph unicode="&#x2018;" horiz-adv-x="587" d="M113 840l276 587h72l-232 -587h-116z" />
<glyph unicode="&#x2019;" horiz-adv-x="587" d="M127 842l231 585h115l-274 -585h-72z" />
<glyph unicode="&#x201a;" horiz-adv-x="587" d="M127 -322l231 586h115l-274 -586h-72z" />
<glyph unicode="&#x201c;" horiz-adv-x="915" d="M113 840l276 587h72l-232 -587h-116zM438 840l277 587h73l-233 -587h-117z" />
<glyph unicode="&#x201d;" horiz-adv-x="915" d="M127 842l231 585h115l-274 -585h-72zM453 842l231 585h117l-277 -585h-71z" />
<glyph unicode="&#x201e;" horiz-adv-x="921" d="M127 -322l231 586h115l-274 -586h-72zM461 -322l231 586h115l-275 -586h-71z" />
<glyph unicode="&#x2022;" horiz-adv-x="899" d="M209 485q0 100 71 171t169 71q100 0 170.5 -71t70.5 -171q0 -98 -70.5 -168.5t-170.5 -70.5q-98 0 -169 70.5t-71 168.5z" />
<glyph unicode="&#x2026;" horiz-adv-x="1499" d="M266 0v209h131v-209h-131zM684 0v209h131v-209h-131zM1104 0v209h129v-209h-129z" />
<glyph unicode="&#x202f;" horiz-adv-x="372" />
<glyph unicode="&#x2039;" horiz-adv-x="636" d="M90 516l389 340v-92l-280 -248l280 -248v-92z" />
<glyph unicode="&#x203a;" horiz-adv-x="636" d="M154 176v92l282 248l-282 248v92l391 -340z" />
<glyph unicode="&#x205f;" horiz-adv-x="465" />
<glyph unicode="&#x20ac;" horiz-adv-x="1519" d="M180 532l2 74h127q-6 62 -6 125q0 71 8 123h-129v72h140q49 236 212 376t418 140q238 0 385 -115l-57 -86q-124 100 -328 100q-210 0 -344 -112t-180 -303h702l-2 -72h-714q-8 -55 -8 -125q0 -65 6 -123h716l-2 -74h-702q41 -208 172 -327t344 -119q214 0 352 119l58 -84 q-163 -135 -410 -135q-258 0 -417.5 147.5t-203.5 398.5h-139z" />
<glyph unicode="&#x2122;" horiz-adv-x="1495" d="M180 1364v63h387v-63h-157v-479h-70v479h-160zM692 885v542h109l149 -395l150 395h104v-542h-65v467l-168 -420h-43l-170 426v-473h-66z" />
<glyph unicode="&#x25fc;" horiz-adv-x="1013" d="M0 0v1014h1014v-1014h-1014z" />
<glyph unicode="&#xfb03;" horiz-adv-x="1552" d="M43 924v86h176v100q0 148 105.5 240t265.5 92q143 0 256 -76q88 76 229 76q157 0 283 -92l-51 -70q-96 78 -228 78q-117 0 -177 -63t-60 -201v-84h524v-1010h-102v924h-422v-924h-99v924h-421v-924h-103v924h-176zM322 1010h421v86q0 133 54 207q-93 55 -203 55 q-126 0 -199 -68t-73 -182v-98z" />
<glyph unicode="&#xfb04;" horiz-adv-x="1622" d="M43 924v86h176v100q0 148 105.5 240t265.5 92q144 0 256 -74q86 74 229 74q156 0 291 -96v-1131q0 -137 102 -137q47 0 103 20l2 -88q-84 -24 -139 -24q-170 0 -170 204v1113q-77 55 -185 55q-117 0 -177 -63t-60 -201v-84h243v-86h-243v-924h-99v924h-421v-924h-103v924 h-176zM322 1010h421v86q0 130 52 207q-86 55 -201 55q-126 0 -199 -68t-73 -182v-98z" />
</font>
</defs>
</svg>
