<?xml version="1.0" standalone="no"?>
<!DOCTYPE svg PUBLIC "-//W3C//DTD SVG 1.1//EN" "http://www.w3.org/Graphics/SVG/1.1/DTD/svg11.dtd" >
<svg xmlns="http://www.w3.org/2000/svg" xmlns:xlink="http://www.w3.org/1999/xlink" version="1.1">
<metadata></metadata>
<defs>
<font id="hk_groteskbold" horiz-adv-x="1200" >
<font-face units-per-em="2048" ascent="1638" descent="-410" />
<missing-glyph horiz-adv-x="497" />
<glyph unicode="&#xfb01;" horiz-adv-x="1130" d="M10 815v195h166v71q0 112 59.5 197t155.5 127.5t211 42.5q123 0 214 -26t177 -79l-114 -174q-116 80 -265 80q-96 0 -144 -46t-48 -126v-67h567v-1010h-246v815h-321v-815h-246v815h-166z" />
<glyph unicode="&#xfb02;" horiz-adv-x="1234" d="M10 815v195h166v71q0 112 59.5 197t155.5 127.5t211 42.5q131 0 219.5 -20.5t222.5 -86.5v-1073q0 -63 70 -63q36 0 80 12v-207q-102 -30 -174 -30q-103 0 -162 54t-59 167v1013q-81 35 -185 35q-96 0 -144 -46t-48 -126v-67h205l-2 -195h-203v-815h-246v815h-166z" />
<glyph horiz-adv-x="0" />
<glyph horiz-adv-x="682" />
<glyph unicode=" "  horiz-adv-x="497" />
<glyph unicode="&#x09;" horiz-adv-x="497" />
<glyph unicode="&#xa0;" horiz-adv-x="497" />
<glyph unicode="!" horiz-adv-x="632" d="M182 0v266h269v-266h-269zM195 1427h243l-28 -995h-187z" />
<glyph unicode="&#x22;" horiz-adv-x="903" d="M172 874v553h207v-553h-207zM524 874v553h207v-553h-207z" />
<glyph unicode="#" horiz-adv-x="1388" d="M76 418v174h272l55 264h-243v182h280l92 389h195l-90 -397h252l86 397h194l-92 -397h236v-174h-273l-57 -264h248v-174h-285l-90 -418h-192l90 418h-254l-86 -418h-193l90 418h-235zM543 592h252l53 264h-252z" />
<glyph unicode="$" d="M74 403l254 64q14 -128 95 -192t202 -64q112 0 173.5 51t61.5 131q0 47 -23.5 85t-63.5 64.5t-92 49.5t-109 45.5t-114 47t-109 58t-92 75t-63.5 102.5t-23.5 135q0 152 92 252t240 131v217h225v-217q211 -44 322 -240l-213 -131q-36 73 -97.5 113.5t-132.5 40.5 q-77 0 -128.5 -43t-51.5 -111q0 -43 23.5 -77t63.5 -59t92 -46.5t109 -43.5t114 -46.5t109 -59t92 -77t63.5 -104.5t23.5 -138q0 -169 -109 -282t-280 -142v-232l-225 -2v236q-165 29 -282.5 134.5t-145.5 274.5z" />
<glyph unicode="%" horiz-adv-x="1433" d="M78 1118q0 143 81.5 236.5t209.5 93.5q127 0 210 -95t83 -237q0 -139 -81.5 -233.5t-205.5 -94.5q-131 0 -214 93.5t-83 236.5zM201 0l860 1427h174l-860 -1427h-174zM244 1118q0 -75 35 -119.5t96 -44.5q53 0 87 46t34 116q0 75 -35 120.5t-92 45.5q-58 0 -91.5 -44.5 t-33.5 -119.5zM772 311q0 142 80.5 235t208.5 93q127 0 211 -95t84 -235t-82.5 -234.5t-206.5 -94.5q-131 0 -213 92.5t-82 238.5zM938 311q0 -77 34.5 -121.5t94.5 -44.5q54 0 88.5 46t34.5 118q0 74 -35.5 119t-93.5 45q-57 0 -90 -44t-33 -118z" />
<glyph unicode="&#x26;" horiz-adv-x="1388" d="M76 334q0 78 26.5 145t77.5 120.5t103 92t125 80.5q-170 176 -170 336q0 100 58.5 178.5t148 118t188.5 39.5q156 0 267.5 -97t111.5 -237q0 -119 -68 -208.5t-188 -170.5l200 -225q35 93 35 196l240 -24q-9 -190 -107 -361l213 -239l-174 -154l-188 215 q-186 -162 -430 -162q-133 0 -238 40.5t-168 123t-63 193.5zM315 330q0 -70 60.5 -107t163.5 -37q170 0 292 119l-270 307q-58 -36 -96 -63t-75.5 -63t-56 -74.5t-18.5 -81.5zM475 1104q0 -80 121 -223q91 57 139.5 109t48.5 116q0 62 -39.5 103.5t-109.5 41.5 q-67 0 -113.5 -39t-46.5 -108z" />
<glyph unicode="'" horiz-adv-x="550" d="M172 903v524h207v-524h-207z" />
<glyph unicode="(" horiz-adv-x="573" d="M96 713q0 284 66 497t180 340h221q-272 -337 -272 -841q0 -272 64 -460t206 -376h-215q-113 117 -181.5 358.5t-68.5 481.5z" />
<glyph unicode=")" horiz-adv-x="573" d="M10 1550h221q114 -127 180 -340t66 -497q0 -240 -68.5 -481.5t-181.5 -358.5h-215q143 188 207 376.5t64 459.5q0 503 -273 841z" />
<glyph unicode="*" horiz-adv-x="854" d="M104 1139l58 168l198 -82l-28 202h184l-27 -202l199 82l55 -168l-215 -33l150 -160l-150 -104l-106 211l-103 -211l-149 104l149 160z" />
<glyph unicode="+" horiz-adv-x="1202" d="M78 530v205h422v420h205v-420h419v-205h-419v-421h-205v421h-422z" />
<glyph unicode="," horiz-adv-x="634" d="M133 -305l135 571h285l-258 -571h-162z" />
<glyph unicode="-" horiz-adv-x="868" d="M139 514v184h590v-184h-590z" />
<glyph unicode="." horiz-adv-x="645" d="M199 0v266h247v-266h-247z" />
<glyph unicode="/" horiz-adv-x="899" d="M-39 -434l746 1861h231l-748 -1861h-229z" />
<glyph unicode="0" d="M115 713q0 74 4 137.5t16 141.5t33 140t57.5 123.5t86 102.5t122 66.5t162.5 25.5q114 0 202 -43.5t142 -113.5t89 -168.5t48 -199t13 -214.5q0 -113 -12.5 -212t-46.5 -196.5t-86.5 -167t-138 -112.5t-196.5 -43q-92 0 -166.5 25.5t-125 66.5t-88.5 102t-59.5 123.5 t-34.5 139.5t-17 140t-4 136zM367 713q0 -54 1 -89t3.5 -86.5t9.5 -85.5t18 -75t28.5 -67t41.5 -49.5t58.5 -34.5t76.5 -11q40 0 72 11.5t54.5 35.5t39 50t26.5 68t16 75.5t9 85.5t3.5 86t0.5 88q0 65 -1 105t-5.5 98.5t-13.5 95.5t-25.5 79t-40.5 65.5t-60 39.5t-83 16 t-83 -16t-60 -40t-40.5 -66t-25.5 -79t-13.5 -96t-5.5 -99t-1 -105z" />
<glyph unicode="1" d="M238 1010v194h190q154 0 154 137v86h235v-1427h-246v1010h-333z" />
<glyph unicode="2" d="M102 0v203q62 37 118.5 74t129 90.5t132.5 105.5t120.5 117t101.5 128t67 135t26 142q0 97 -50 155t-151 58q-54 0 -96.5 -17.5t-70 -46t-46 -68.5t-27 -81t-10.5 -88l-242 19q0 100 32.5 192t93 166t155.5 118t211 44q197 0 321.5 -119t124.5 -315q0 -116 -47 -236 t-123.5 -221t-166 -184t-183.5 -140h580v-231h-1000z" />
<glyph unicode="3" d="M59 451l244 14q0 -118 81.5 -184t211.5 -66q76 0 136.5 22.5t100 76.5t39.5 132q0 48 -14 83.5t-42.5 57t-57.5 35t-74.5 19t-77 7t-80.5 1.5v195q271 0 271 182q0 91 -58 138.5t-149 47.5q-99 0 -158.5 -54t-60.5 -150l-242 16q0 130 63.5 228t166 147t227.5 49 q121 0 223.5 -45.5t167.5 -136t65 -209.5q0 -193 -165 -283q121 -38 181 -133.5t60 -220.5q0 -105 -43 -190t-116.5 -139t-168 -82.5t-200.5 -28.5q-109 0 -203.5 30t-168.5 87t-116.5 148t-42.5 206z" />
<glyph unicode="4" d="M27 336v147l698 944h215v-856h227v-235h-227v-336h-246v336h-667zM338 571h356v502z" />
<glyph unicode="5" d="M76 412l241 41q12 -97 83 -167.5t190 -70.5q86 0 147.5 42.5t89 105t27.5 135.5q0 108 -65.5 181t-192.5 73q-161 0 -246 -134l-231 58l137 751h795v-235h-592l-51 -272q97 61 221 61q140 0 252 -66.5t172.5 -176.5t60.5 -240q0 -136 -66 -254t-187 -191t-269 -73 q-202 0 -345.5 124t-170.5 308z" />
<glyph unicode="6" d="M82 475q0 137 80 266l426 686h282l-292 -450q110 6 213 -35q146 -55 238.5 -181t92.5 -284q0 -135 -69.5 -249.5t-189 -181t-259.5 -66.5q-141 0 -261.5 66.5t-190.5 180.5t-70 248zM334 477q0 -108 78.5 -185t191.5 -77q112 0 190 77t78 185t-78 185t-190 77 q-113 0 -191.5 -77t-78.5 -185z" />
<glyph unicode="7" d="M88 1192v235h1030v-131l-633 -1296h-282l604 1192h-719z" />
<glyph unicode="8" d="M72 422q0 242 207 354q-138 97 -138 271q0 92 38 168.5t102 127t146.5 78t172.5 27.5t172.5 -27.5t146.5 -78t102 -127t38 -168.5q0 -175 -137 -271q206 -111 206 -354q0 -107 -43.5 -193t-117.5 -139.5t-168 -81.5t-199 -28q-83 0 -160 17t-144 53t-117 87.5 t-78.5 124.5t-28.5 160zM317 444q0 -111 79 -171t204 -60t204 60t79 171q0 110 -78 172t-205 62t-205 -62t-78 -172zM387 1030q0 -85 58.5 -134.5t154.5 -49.5t154.5 49.5t58.5 134.5q0 84 -59 133t-154 49t-154 -49t-59 -133z" />
<glyph unicode="9" d="M80 950q0 135 69.5 249.5t189 181.5t259.5 67q141 0 261.5 -67t190.5 -181t70 -248q0 -137 -80 -266l-426 -686h-282l293 451q-112 -6 -213 34q-146 55 -239 181t-93 284zM330 950q0 -108 78 -185t190 -77q113 0 191.5 77t78.5 185t-78.5 185t-191.5 77q-112 0 -190 -77 t-78 -185z" />
<glyph unicode=":" horiz-adv-x="673" d="M203 0v266h268v-266h-268zM203 696v269h268v-269h-268z" />
<glyph unicode=";" horiz-adv-x="663" d="M100 -305l138 571h284l-258 -571h-164zM238 696v269h270v-269h-270z" />
<glyph unicode="&#x3c;" horiz-adv-x="1310" d="M35 598l1100 627l92 -162l-815 -465l815 -465l-92 -162z" />
<glyph unicode="=" horiz-adv-x="1267" d="M215 352v205h838v-205h-838zM215 805v205h838v-205h-838z" />
<glyph unicode="&#x3e;" horiz-adv-x="1310" d="M84 133l815 465l-815 465l92 162l1100 -627l-1100 -627z" />
<glyph unicode="?" horiz-adv-x="999" d="M41 1001q0 210 119.5 328.5t320.5 118.5q126 0 228.5 -45t166.5 -138.5t64 -220.5q0 -75 -19 -135t-49.5 -97t-67 -65t-73 -47.5t-67 -37t-49.5 -39.5t-19 -50v-145h-209v147q0 67 18.5 117.5t48.5 80t66 52.5t72 42t66 41t48.5 57.5t18.5 83.5q0 98 -63.5 146t-172.5 48 q-231 0 -231 -242h-217zM360 0v266h269v-266h-269z" />
<glyph unicode="@" horiz-adv-x="2025" d="M96 526q0 191 67.5 359.5t187 292.5t293.5 196t378 72q206 0 379.5 -73t288.5 -196.5t179 -285.5t64 -340q0 -96 -18 -185.5t-56 -170t-92 -141t-132 -95.5t-171 -35q-193 0 -258 139q-18 43 -24 99q-128 -119 -297 -119q-67 0 -123 22t-95 59.5t-66.5 89.5t-40.5 111 t-13 124q0 83 20.5 169.5t62.5 167.5t99 144.5t137 102t170 38.5q91 0 158 -36.5t104 -98.5l19 86h199q-14 -78 -55.5 -248t-69 -309t-27.5 -227q0 -64 19.5 -88.5t74.5 -24.5q74 0 131 38.5t89.5 102.5t48.5 137t16 152q0 140 -49.5 266.5t-140 223.5t-228 154.5 t-301.5 57.5t-302.5 -57t-233 -155t-147 -231.5t-52.5 -283.5q0 -158 57.5 -289t156 -216.5t228.5 -132t277 -46.5q124 0 243 39l68 -182q-143 -55 -313 -55q-187 0 -353 62t-289.5 173.5t-195.5 278t-72 364.5zM733 440q0 -200 168 -200q77 0 142 41t105.5 106t62.5 141 t22 150q0 196 -168 196q-78 0 -143 -41t-105 -105.5t-62 -139.5t-22 -148z" />
<glyph unicode="A" horiz-adv-x="1349" d="M8 0l572 1427h192l569 -1427h-278l-109 295h-559l-108 -295h-279zM483 530h385l-192 521z" />
<glyph unicode="B" horiz-adv-x="1288" d="M180 0v1427h498q213 0 332.5 -95.5t119.5 -264.5q0 -100 -41 -177t-116 -120q233 -83 233 -352q0 -196 -123.5 -307t-341.5 -111h-561zM436 236h285q107 0 168 54t61 148q0 91 -58.5 139t-170.5 48h-285v-389zM436 860h242q196 0 196 162q0 82 -51 126t-145 44h-242v-332 z" />
<glyph unicode="C" horiz-adv-x="1452" d="M78 715q0 335 188 535t504 200q226 0 390.5 -106t242.5 -302l-236 -92q-47 126 -148.5 191t-248.5 65q-207 0 -321.5 -128.5t-114.5 -360.5q0 -233 115 -363.5t321 -130.5q148 0 249.5 67t147.5 195l240 -90q-76 -199 -242 -307t-395 -108q-316 0 -504 200t-188 535z" />
<glyph unicode="D" horiz-adv-x="1415" d="M180 0v1427h414q355 0 549 -189t194 -536q0 -341 -191.5 -521.5t-553.5 -180.5h-412zM436 236h131q270 0 391 112.5t121 364.5q0 248 -118 363.5t-371 115.5h-154v-956z" />
<glyph unicode="E" horiz-adv-x="1249" d="M180 0v1427h950v-235h-694v-340h645v-236h-645v-380h694v-236h-950z" />
<glyph unicode="F" horiz-adv-x="1239" d="M180 0v1427h1012v-235h-756v-340h666v-236h-666v-616h-256z" />
<glyph unicode="G" horiz-adv-x="1542" d="M76 717q0 155 49 289.5t138 232.5t220.5 154.5t288.5 56.5q219 0 385 -107t244 -301l-236 -92q-47 124 -149.5 190t-247.5 66q-205 0 -320.5 -129.5t-115.5 -357.5q0 -235 123 -365.5t342 -130.5q171 0 267.5 79t96.5 216v19h-319v235h573v-772h-182l-31 152 q-63 -82 -173.5 -127t-248.5 -45q-148 0 -278 53.5t-224 148.5t-148 233.5t-54 301.5z" />
<glyph unicode="H" horiz-adv-x="1497" d="M180 0v1427h256v-575h625v575h256v-1427h-256v616h-625v-616h-256z" />
<glyph unicode="I" horiz-adv-x="616" d="M180 0v1427h256v-1427h-256z" />
<glyph unicode="J" horiz-adv-x="1144" d="M27 444l252 29q9 -130 65.5 -193t165.5 -63q115 0 170 71.5t55 221.5v682h-538v235h794v-931q0 -239 -129 -377.5t-352 -138.5q-210 0 -339 124t-144 340z" />
<glyph unicode="K" horiz-adv-x="1441" d="M180 0v1427h256v-671l641 671h336l-530 -540l544 -887h-297l-421 711l-273 -277v-434h-256z" />
<glyph unicode="L" horiz-adv-x="1064" d="M180 0v1427h256v-1191h611v-236h-867z" />
<glyph unicode="M" horiz-adv-x="1828" d="M180 0v1427h367l366 -1005l369 1005h367v-1427h-256v1067l-355 -942h-247l-355 942v-1067h-256z" />
<glyph unicode="N" horiz-adv-x="1480" d="M180 0v1427h264l600 -983v983h256v-1427h-266l-598 987v-987h-256z" />
<glyph unicode="O" horiz-adv-x="1519" d="M78 713q0 217 85.5 384t240.5 259t356 92q202 0 357 -92t240 -259t85 -384q0 -327 -189 -530t-493 -203t-493 203t-189 530zM334 713q0 -224 115.5 -357t310.5 -133t310.5 133.5t115.5 356.5q0 224 -115.5 357.5t-310.5 133.5t-310.5 -132.5t-115.5 -358.5z" />
<glyph unicode="P" horiz-adv-x="1177" d="M180 0v1427h467q240 0 363 -103.5t123 -307.5q0 -207 -124.5 -315.5t-361.5 -108.5h-213v-592h-254zM434 827h187q135 0 195.5 44t60.5 141t-59.5 138.5t-196.5 41.5h-187v-365z" />
<glyph unicode="Q" horiz-adv-x="1566" d="M76 713q0 217 85.5 384t240.5 259t356 92q202 0 357 -92t240 -259t85 -384q0 -282 -144 -475l213 -209l-155 -150l-215 209q-164 -108 -381 -108q-304 0 -493 203t-189 530zM332 713q0 -224 115.5 -357t310.5 -133q109 0 194 43l-180 174l154 158l186 -180q72 119 72 295 q0 224 -115.5 357.5t-310.5 133.5t-310.5 -132.5t-115.5 -358.5z" />
<glyph unicode="R" horiz-adv-x="1273" d="M180 0v1427h467q248 0 367 -106.5t119 -304.5q0 -304 -265 -393l385 -623h-297l-342 592h-86h-94v-592h-254zM434 827h187q130 0 193 42t63 143q0 100 -62.5 140t-193.5 40h-187v-365z" />
<glyph unicode="S" horiz-adv-x="1140" d="M43 403l254 64q13 -120 92.5 -188t204.5 -68q107 0 171 49.5t64 132.5q0 73 -62.5 127t-221.5 117q-225 88 -315.5 181t-90.5 237q0 177 122.5 285t322.5 108q144 0 255 -64t179 -186l-213 -131q-37 72 -97.5 113t-132.5 41q-76 0 -128 -44.5t-52 -109.5 q0 -63 61.5 -111.5t221.5 -111.5q230 -88 318.5 -181t88.5 -247q0 -192 -137.5 -312t-357.5 -120q-214 0 -365 116t-182 303z" />
<glyph unicode="T" horiz-adv-x="1183" d="M16 1192v235h1151v-235h-446v-1192h-258v1192h-447z" />
<glyph unicode="U" horiz-adv-x="1390" d="M150 516v911h256v-882q0 -174 65 -246t223 -72t224.5 73t66.5 245v882h256v-901q0 -270 -138.5 -408t-408.5 -138q-269 0 -406.5 135.5t-137.5 400.5z" />
<glyph unicode="V" horiz-adv-x="1349" d="M8 1427h283l385 -1009l383 1009h282l-569 -1427h-192z" />
<glyph unicode="W" horiz-adv-x="2019" d="M23 1427h266l301 -1036l309 955h219l312 -955l299 1036h268l-428 -1427h-250l-309 940l-312 -940h-247z" />
<glyph unicode="X" horiz-adv-x="1351" d="M23 0l477 713l-475 714h307l344 -536l346 536h305l-475 -714l479 -713h-307l-350 528l-344 -528h-307z" />
<glyph unicode="Y" horiz-adv-x="1325" d="M-6 1427h301l364 -624l369 624h303l-538 -870v-557h-256v557z" />
<glyph unicode="Z" horiz-adv-x="1277" d="M55 0v178l809 1014h-762v235h1104v-186l-800 -1005h800v-236h-1151z" />
<glyph unicode="[" horiz-adv-x="638" d="M174 -166v1755h436v-164h-237v-1425h237v-166h-436z" />
<glyph unicode="\" horiz-adv-x="937" d="M-39 1530h229l789 -1964h-229z" />
<glyph unicode="]" horiz-adv-x="638" d="M29 0h237v1425h-237v164h436v-1755h-436v166z" />
<glyph unicode="^" horiz-adv-x="1234" d="M45 424l571 1087l574 -1087h-260l-314 627l-309 -627h-262z" />
<glyph unicode="_" horiz-adv-x="1132" d="M137 0h858v-186h-858v186z" />
<glyph unicode="`" horiz-adv-x="528" d="M16 1427h263l213 -290h-185z" />
<glyph unicode="a" horiz-adv-x="1081" d="M49 309q0 89 39 154.5t113 99.5q99 45 268 45h252v29q0 83 -51.5 130.5t-139.5 47.5q-158 0 -272 -151l-178 149q181 217 455 217q200 0 316 -105t116 -288v-637h-226l-20 131q-44 -71 -125.5 -111t-181.5 -40q-160 0 -262.5 92t-102.5 237zM295 305q0 -54 42.5 -85.5 t115.5 -31.5q111 0 189.5 69t78.5 167h-219q-120 0 -166 -35q-41 -27 -41 -84z" />
<glyph unicode="b" horiz-adv-x="1173" d="M145 0v1427h246v-520q47 57 125.5 90t165.5 33q190 0 308 -140.5t118 -383.5q0 -234 -113 -380t-313 -146q-193 0 -291 120v-100h-246zM369 504q0 -134 63 -215.5t191 -81.5q120 0 179.5 77t59.5 220q0 144 -60.5 223.5t-180.5 79.5q-126 0 -189 -84.5t-63 -218.5z" />
<glyph unicode="c" horiz-adv-x="1011" d="M55 502q0 81 18.5 157t58.5 143.5t96.5 118t137.5 80t177 29.5q154 0 266.5 -74.5t169.5 -222.5l-234 -92q-20 80 -74 127t-128 47q-81 0 -136 -46t-77.5 -114t-22.5 -153t22 -151.5t77 -111t137 -44.5q73 0 127.5 46t74.5 124l224 -86q-51 -141 -162.5 -220t-261.5 -79 q-119 0 -215 44t-154.5 118t-89.5 166t-31 194z" />
<glyph unicode="d" horiz-adv-x="1173" d="M66 506q0 243 118 383.5t308 140.5q86 0 164.5 -33t125.5 -90v520h246v-1427h-246v100q-98 -120 -290 -120q-200 0 -313 146t-113 380zM311 504q0 -143 59.5 -220t180.5 -77q128 0 191 81.5t63 215.5t-63 218.5t-189 84.5q-120 0 -181 -79.5t-61 -223.5z" />
<glyph unicode="e" horiz-adv-x="1062" d="M59 500q0 81 17.5 156.5t55.5 144t93 119t135.5 80.5t178.5 30q114 0 204 -40t146.5 -110.5t85.5 -162.5t29 -199q0 -36 -7 -94h-692q8 -103 71.5 -162t180.5 -59q147 0 242 108l170 -149q-164 -182 -414 -182q-126 0 -223.5 43t-155.5 116.5t-87.5 165t-29.5 195.5z M303 608h465q0 99 -64.5 158t-166.5 59q-107 0 -166.5 -64.5t-67.5 -152.5z" />
<glyph unicode="f" horiz-adv-x="677" d="M10 815v195h195v114q0 324 305 324q103 0 190 -41l-79 -188q-39 24 -84 24q-31 0 -50.5 -12t-27 -34t-9 -36t-1.5 -35v-116h235v-195h-235v-815h-246v815h-193z" />
<glyph unicode="g" horiz-adv-x="1052" d="M61 -119q0 20 5 45l143 92q-119 66 -119 207q0 122 94 203q-82 101 -82 231q0 161 121 266t293 105q134 0 238 -63l153 131l129 -156l-145 -119q43 -81 43 -176q0 -164 -119.5 -266t-290.5 -102q-104 0 -194 38q-29 -19 -29 -53q0 -35 30 -57.5t79 -32t112 -19.5 t128 -17.5t128 -26.5t112 -46.5t79 -79.5t30 -122q0 -152 -125 -226.5t-339 -74.5q-228 0 -351 81.5t-123 237.5zM305 -141q0 -41 37.5 -67.5t88.5 -36t114 -9.5q56 0 101 8.5t76.5 30.5t31.5 55q0 26 -19 44t-59.5 29t-78 17t-101.5 14t-103 15l-86 -84q-2 -6 -2 -16z M348 653q0 -76 44.5 -125t127.5 -49q82 0 125 48.5t43 125.5q0 78 -45 125t-123 47t-125 -47.5t-47 -124.5z" />
<glyph unicode="h" horiz-adv-x="1173" d="M145 0v1427h246v-532q104 135 305 135q170 0 263.5 -99t93.5 -280v-651h-246v590q0 115 -45.5 170t-140.5 55q-122 0 -176 -97t-54 -315v-403h-246z" />
<glyph unicode="i" horiz-adv-x="532" d="M137 1200v227h258v-227h-258zM143 0v1010h246v-1010h-246z" />
<glyph unicode="j" horiz-adv-x="536" d="M-4 -211q44 -12 78 -12q71 0 71 63v1170h246v-1186q0 -130 -64.5 -196t-172.5 -66q-76 0 -158 30v197zM139 1200v227h258v-227h-258z" />
<glyph unicode="k" horiz-adv-x="1122" d="M145 0v1427h246v-827l371 410h330l-377 -392l420 -618h-293l-295 467l-156 -172v-295h-246z" />
<glyph unicode="l" horiz-adv-x="569" d="M133 242v1185h246v-1169q0 -63 72 -63q34 0 77 12v-197q-82 -30 -157 -30q-108 0 -173 66t-65 196z" />
<glyph unicode="m" horiz-adv-x="1742" d="M143 1010h238v-127q86 147 270 147q217 0 295 -199q102 199 326 199q88 0 157 -31.5t111 -86t63 -123t21 -146.5v-643h-246v569q0 246 -172 246q-48 0 -83.5 -14.5t-56.5 -48.5t-33.5 -64t-17.5 -87.5t-6 -91t-1 -100.5v-8v-7.5v-8.5v-385h-246v569q0 246 -170 246 q-33 0 -60 -8.5t-46.5 -20t-35 -35t-25.5 -42.5t-16.5 -54t-10 -57.5t-5.5 -64.5t-2 -64v-67v-17v-385h-246z" />
<glyph unicode="n" horiz-adv-x="1171" d="M143 0v1010h246v-117q103 137 305 137q170 0 263.5 -99.5t93.5 -279.5v-651h-246v590q0 25 -1 41.5t-6 47t-17 51t-31.5 42t-53.5 32.5t-78 11q-55 0 -96 -16.5t-65 -52t-39 -68.5t-20.5 -90t-7 -90.5t-1.5 -94.5v-403h-246z" />
<glyph unicode="o" horiz-adv-x="1118" d="M53 506q0 144 60 262.5t177 190t269 71.5q151 0 268 -71.5t177.5 -190t60.5 -262.5q0 -143 -60.5 -262t-177.5 -191.5t-268 -72.5q-114 0 -210.5 42t-160.5 114t-99.5 167.5t-35.5 202.5zM299 506q0 -134 64.5 -222.5t195.5 -88.5t195.5 88.5t64.5 222.5q0 64 -15 118.5 t-45 98t-81 68t-119 24.5t-119 -24.5t-81 -68t-45 -98t-15 -118.5z" />
<glyph unicode="p" horiz-adv-x="1173" d="M145 -418v1428h246v-101q50 61 127 91t164 30q200 0 313 -146t113 -380q0 -243 -118 -383.5t-308 -140.5q-87 0 -165.5 32.5t-125.5 89.5v-520h-246zM369 506q0 -140 63 -225.5t189 -85.5q121 0 181 80t60 231q0 309 -239 309q-128 0 -191 -83.5t-63 -225.5z" />
<glyph unicode="q" horiz-adv-x="1171" d="M63 504q0 234 113 380t313 146q87 0 164 -30t127 -91v101h246v-1428h-246v520q-47 -57 -125.5 -89.5t-165.5 -32.5q-190 0 -308 140.5t-118 383.5zM309 506q0 -150 60.5 -230.5t181.5 -80.5q126 0 189 85.5t63 225.5q0 142 -63 225.5t-191 83.5q-240 0 -240 -309z" />
<glyph unicode="r" horiz-adv-x="829" d="M143 0v1010h248v-172q31 91 106 141.5t165 50.5q100 0 192 -57l-119 -217q-53 35 -123 35q-223 0 -223 -283v-508h-246z" />
<glyph unicode="s" horiz-adv-x="917" d="M37 262l196 88q61 -166 216 -166q79 0 121 36.5t42 82.5q0 30 -22.5 52t-59 34.5t-83 26.5t-95.5 26.5t-95.5 36t-83 54.5t-59 83t-22.5 119q0 139 107.5 217t263.5 78q129 0 227 -57.5t156 -161.5l-191 -104q-32 58 -78.5 93.5t-121.5 35.5q-58 0 -93.5 -25t-35.5 -61 q0 -31 29 -53t75.5 -36.5t103 -29t113 -38t103 -56t75.5 -89t29 -131.5q0 -85 -34.5 -151.5t-91.5 -106t-125 -59.5t-142 -20q-155 0 -270.5 81t-153.5 201z" />
<glyph unicode="t" horiz-adv-x="747" d="M20 815v195h164v235l246 182v-417h252v-195h-252v-514q0 -117 129 -117q49 0 123 23v-197q-92 -30 -184 -30q-66 0 -121.5 17.5t-99 53t-68.5 95t-25 137.5v532h-164z" />
<glyph unicode="u" horiz-adv-x="1169" d="M119 379v631h246v-570q0 -22 0.5 -36t4 -42.5t10 -48t20.5 -43.5t33 -39t49.5 -25.5t68.5 -10.5q48 0 85 15.5t60.5 37.5t40.5 61.5t25 70.5t12.5 83.5t5 81.5t0.5 82v383h246v-1010h-246v117q-103 -137 -301 -137q-74 0 -134.5 21t-102 57.5t-69.5 87.5t-41 109t-13 124 z" />
<glyph unicode="v" horiz-adv-x="1005" d="M-10 1010h268l244 -691l248 691h266l-412 -1010h-203z" />
<glyph unicode="w" horiz-adv-x="1478" d="M8 1010h262l172 -633l191 633h211l190 -631l174 631h262l-311 -1010h-221l-199 662l-198 -662h-222z" />
<glyph unicode="x" horiz-adv-x="1032" d="M6 0l346 508l-346 502h301l209 -334l209 334h301l-348 -502l348 -508h-301l-209 340l-209 -340h-301z" />
<glyph unicode="y" horiz-adv-x="1034" d="M-10 1010h270l256 -701l258 701h270l-573 -1428h-266l180 445z" />
<glyph unicode="z" horiz-adv-x="1005" d="M49 0v164l578 639h-549v207h862v-176l-555 -627h555v-207h-891z" />
<glyph unicode="{" horiz-adv-x="616" d="M49 600v162q21 8 23.5 9t22 9.5t24 13t19 15t19 21t12.5 26t10.5 34.5t2.5 42v301q0 134 59 209.5t167 75.5h159v-158h-75q-101 0 -101 -131v-301q0 -98 -36.5 -154t-106.5 -88v-12q70 -32 106.5 -87t36.5 -153v-301q0 -131 101 -131h75v-160h-159q-111 0 -168.5 76.5 t-57.5 210.5v301q0 26 -5 48t-10 36.5t-19 28t-20.5 20t-26.5 16t-24.5 11t-27.5 10.5z" />
<glyph unicode="|" horiz-adv-x="620" d="M219 -518v2068h182v-2068h-182z" />
<glyph unicode="}" horiz-adv-x="616" d="M49 2h76q100 0 100 131v301q0 98 37 153t107 87v12q-70 32 -107 88t-37 154v301q0 131 -100 131h-76v158h160q108 0 166.5 -75t58.5 -210v-301q0 -26 5 -48t10 -36.5t19 -28t20.5 -20t26.5 -16t24.5 -11t27.5 -10.5v-162q-21 -8 -23.5 -9t-22 -9.5t-24 -13t-19 -15 t-19 -21t-12.5 -26t-10.5 -34.5t-2.5 -42v-301q0 -134 -57 -210.5t-168 -76.5h-160v160z" />
<glyph unicode="~" horiz-adv-x="1228" d="M156 393q0 153 75.5 246.5t200.5 93.5q69 0 120 -24t79.5 -58.5t51 -68.5t49.5 -58t61 -24q41 0 67.5 55.5t26.5 140.5h186q0 -161 -76.5 -260.5t-203.5 -99.5q-68 0 -117.5 24t-76.5 58t-50 67.5t-51.5 57.5t-65.5 24q-42 0 -66 -47.5t-24 -126.5h-186z" />
<glyph unicode="&#xa1;" horiz-adv-x="632" d="M182 743v267h269v-267h-269zM195 -418l28 996h187l28 -996h-243z" />
<glyph unicode="&#xa2;" horiz-adv-x="1118" d="M104 502q0 119 39 223.5t123.5 184.5t202.5 106v215h225v-209q242 -46 334 -289l-233 -92q-20 80 -74.5 127t-128.5 47q-81 0 -136 -46t-77.5 -114t-22.5 -153t22 -151.5t77 -111t137 -44.5q73 0 128 46t75 124l223 -86q-41 -116 -125 -191t-199 -98v-219l-225 -2v225 q-118 26 -202.5 105t-123.5 182t-39 221z" />
<glyph unicode="&#xa3;" horiz-adv-x="1226" d="M133 0v209q102 43 175 118t73 158q0 51 -21 125h-223v207h174q-15 35 -27 101t-12 124q0 179 114.5 298.5t309.5 119.5q163 0 276 -85t144 -228l-190 -72q-33 178 -226 178q-105 0 -163 -54t-58 -163q0 -53 13 -116t32 -103h402v-207h-355q13 -67 13 -127 q0 -173 -121 -276h653v-207h-983z" />
<glyph unicode="&#xa4;" horiz-adv-x="1353" d="M172 266l107 107q-81 119 -80.5 264.5t80.5 263.5l-105 105l131 137l107 -111q120 83 265.5 84t264.5 -82l107 107l133 -131l-109 -107q83 -119 83 -265.5t-83 -266.5l109 -105l-131 -135l-109 109q-118 -82 -265 -82t-267 82l-109 -109zM383.5 634.5 q-0.5 -122.5 81.5 -204.5q89 -88 210.5 -88t207.5 88q87 88 88 207t-88 207q-86 86 -207 86t-209 -88q-83 -85 -83.5 -207.5z" />
<glyph unicode="&#xa5;" horiz-adv-x="1431" d="M47 1427h311l357 -624l356 624h313l-417 -682h198v-198h-315v-135h315v-199h-315v-213h-266v213h-320v199h320v135h-320v198h203z" />
<glyph unicode="&#xa6;" horiz-adv-x="636" d="M217 -311v735h203v-735h-203zM217 739v750h203v-750h-203z" />
<glyph unicode="&#xa7;" horiz-adv-x="1214" d="M92 594q0 177 121 295q-37 72 -37 166q0 92 35.5 167.5t97 124t141.5 75t171 26.5q138 0 251 -62t183 -188l-213 -131q-36 73 -97.5 113.5t-132.5 40.5q-77 0 -128.5 -43t-51.5 -111q0 -24 9 -46.5t20 -38.5t36 -34t42.5 -28.5t55 -27t56.5 -24t64 -24.5 q53 -21 83.5 -33.5t79.5 -37t78 -45.5t64.5 -54.5t55 -69.5t33 -84.5t13.5 -103.5q0 -177 -121 -295q37 -72 37 -166q0 -182 -128 -287.5t-316 -105.5q-138 0 -251 62t-183 188l213 131q36 -73 97 -113.5t132 -40.5q77 0 128.5 43t51.5 111q0 22 -5 41t-18.5 35.5t-25.5 30 t-36.5 28t-40.5 23.5t-49.5 23t-50.5 20.5t-56 21.5q-41 16 -64.5 25.5t-63 27.5t-63.5 32t-57 36t-53 43.5t-42.5 50.5t-35 60t-21 70.5t-8.5 82.5zM348 616q0 -32 9.5 -59t32.5 -50t43 -39t60.5 -35.5t65 -29.5t74.5 -30q12 -5 43 -17t50.5 -19.5t48.5 -21.5t54 -28 q37 43 37 106q0 38 -16.5 70.5t-38.5 54.5t-66 46t-74.5 37t-88.5 36q-13 5 -43.5 17t-50.5 20t-49 21.5t-54 27.5q-37 -43 -37 -107z" />
<glyph unicode="&#xa8;" horiz-adv-x="884" d="M139 1200v227h207v-227h-207zM539 1200v227h206v-227h-206z" />
<glyph unicode="&#xa9;" horiz-adv-x="1734" d="M98 713q0 152 61 289.5t164 237t245.5 158t299.5 58.5q156 0 298.5 -58.5t245 -158t163.5 -237t61 -289.5q0 -203 -103 -373.5t-279.5 -269.5t-385.5 -99q-210 0 -387 99t-280 269.5t-103 373.5zM252 713q0 -159 82 -294t224 -213.5t310 -78.5q167 0 309 78.5t224 213.5 t82 294q0 160 -82.5 295.5t-224 213.5t-308.5 78q-126 0 -240 -46t-196.5 -124.5t-131 -187.5t-48.5 -229zM487 711q0 84 25 160.5t73 138.5t126 98.5t176 36.5q127 0 220.5 -62t139.5 -184l-192 -74q-18 61 -62.5 99.5t-105.5 38.5q-96 0 -145.5 -74t-49.5 -178 q0 -49 11 -91.5t34 -78t61.5 -56t88.5 -20.5q62 0 106 36.5t62 96.5l182 -70q-40 -117 -131.5 -182t-216.5 -65q-79 0 -145.5 23.5t-113 64.5t-79.5 96t-48.5 117t-15.5 129z" />
<glyph unicode="&#xaa;" horiz-adv-x="880" d="M104 938q0 111 77.5 166t203.5 55h197q0 27 -7 51q-24 101 -151 101q-101 0 -180 -107l-119 80q63 88 134 126t169 38q139 0 219 -78t80 -209v-430h-135l-4 84q-90 -100 -234 -100q-103 0 -176.5 61.5t-73.5 161.5zM266 938q0 -34 36 -59t79 -25q57 0 105.5 31t74.5 78 q18 33 21 61h-187q-60 0 -94.5 -23t-34.5 -63z" />
<glyph unicode="&#xab;" horiz-adv-x="1028" d="M10 516l432 358v-212l-182 -146l182 -145v-213zM449 516l432 358v-212l-183 -146l183 -145v-213z" />
<glyph unicode="&#xac;" horiz-adv-x="1304" d="M133 586v219h957v-512h-236v293h-721z" />
<glyph unicode="&#xad;" horiz-adv-x="1011" d="M139 514v184h733v-184h-733z" />
<glyph unicode="&#xae;" horiz-adv-x="1734" d="M98 713q0 152 61 289.5t164 237t245.5 158t299.5 58.5q156 0 298.5 -58.5t245 -158t163.5 -237t61 -289.5q0 -203 -103 -373.5t-279.5 -269.5t-385.5 -99q-210 0 -387 99t-280 269.5t-103 373.5zM252 713q0 -159 82 -294t224 -213.5t310 -78.5q167 0 309 78.5t224 213.5 t82 294q0 160 -82.5 295.5t-224 213.5t-308.5 78q-126 0 -240 -46t-196.5 -124.5t-131 -187.5t-48.5 -229zM612 291v846h273q131 0 214 -70t83 -182q0 -73 -43.5 -132t-116.5 -87l231 -375h-186l-205 358h-43h-45v-358h-162zM774 782h125q58 3 89.5 30t31.5 71 q0 51 -35 79.5t-98 28.5h-113v-209z" />
<glyph unicode="&#xaf;" horiz-adv-x="837" d="M137 1159v144h563v-144h-563z" />
<glyph unicode="&#xb0;" horiz-adv-x="878" d="M143 1153q0 121 86.5 208t208.5 87q123 0 210 -86.5t87 -208.5q0 -123 -87 -210t-210 -87q-122 0 -208.5 87t-86.5 210zM309 1153q0 -55 37.5 -93t91.5 -38q57 0 95 37.5t38 93.5q0 54 -38 91.5t-95 37.5q-54 0 -91.5 -37.5t-37.5 -91.5z" />
<glyph unicode="&#xb1;" horiz-adv-x="1320" d="M106 0h1108v-186h-1108v186zM106 621v186h461v430h187v-430h460v-186h-460v-431h-187v431h-461z" />
<glyph unicode="&#xb4;" horiz-adv-x="540" d="M33 1137l227 290h264l-311 -290h-180z" />
<glyph unicode="&#xb5;" horiz-adv-x="1302" d="M217 -332v1342h244v-576q0 -102 50 -164.5t142 -62.5q108 0 168 61t60 189v553h245v-1010h-245v119q-56 -70 -136.5 -104.5t-160.5 -34.5q-101 0 -168 34v-346h-199z" />
<glyph unicode="&#xb6;" horiz-adv-x="1304" d="M61 1028q0 92 38 168.5t102 126t146.5 77t172.5 27.5h170v-1675h-170v877q-90 0 -172.5 27.5t-146.5 77t-102 126t-38 168.5zM913 -248v1675h174v-1675h-174z" />
<glyph unicode="&#xb7;" horiz-adv-x="612" d="M156 748q0 62 43 104.5t106 42.5q62 0 106 -42.5t44 -104.5q0 -63 -43.5 -107.5t-106.5 -44.5q-64 0 -106.5 44t-42.5 108z" />
<glyph unicode="&#xb8;" horiz-adv-x="559" d="M55 -397l138 57q8 -21 26 -34t41 -13q36 0 59 22t23 56q0 49 -47.5 80.5t-122.5 31.5h-70l123 195h146l-78 -98q32 -6 57 -15q66 -22 100.5 -69t34.5 -115q0 -97 -66 -163t-165 -66q-63 0 -118.5 37t-80.5 94z" />
<glyph unicode="&#xba;" horiz-adv-x="917" d="M98 1083q0 153 101.5 259t259.5 106q157 0 258.5 -106.5t101.5 -258.5q0 -153 -101.5 -258.5t-258.5 -105.5q-159 0 -260 105t-101 259zM268 1083q0 -98 47 -158.5t144 -60.5t143.5 60.5t46.5 158.5q0 99 -46.5 159.5t-143.5 60.5q-98 0 -144.5 -60.5t-46.5 -159.5z" />
<glyph unicode="&#xbb;" horiz-adv-x="1030" d="M143 158v213l183 145l-183 146v212l432 -358zM582 158v213l182 145l-182 146v212l432 -358z" />
<glyph unicode="&#xbf;" horiz-adv-x="999" d="M59 -35q0 75 19 135t49.5 97t67 65t73 47.5t67 37t49.5 39.5t19 50v146h209v-148q0 -67 -18.5 -117.5t-48.5 -80t-66 -52t-72 -41.5t-66 -41t-48.5 -57.5t-18.5 -83.5q0 -98 63.5 -146t172.5 -48q119 0 175 60.5t56 180.5h217q0 -210 -119.5 -328t-320.5 -118 q-93 0 -175.5 26.5t-146 75.5t-100.5 127t-37 174zM371 743v267h268v-267h-268z" />
<glyph unicode="&#xc0;" horiz-adv-x="1349" d="M8 0l572 1427h192l569 -1427h-278l-109 295h-559l-108 -295h-279zM293 1845h262l213 -291h-184zM483 530h385l-192 521z" />
<glyph unicode="&#xc1;" horiz-adv-x="1349" d="M8 0l572 1427h192l569 -1427h-278l-109 295h-559l-108 -295h-279zM483 530h385l-192 521zM586 1554l227 291h264l-311 -291h-180z" />
<glyph unicode="&#xc2;" horiz-adv-x="1349" d="M8 0l572 1427h192l569 -1427h-278l-109 295h-559l-108 -295h-279zM356 1526l320 356l319 -356h-190l-129 147l-129 -147h-191zM483 530h385l-192 521z" />
<glyph unicode="&#xc3;" horiz-adv-x="1349" d="M8 0l572 1427h192l569 -1427h-278l-109 295h-559l-108 -295h-279zM334 1563q0 137 58 212.5t159 75.5q39 0 73 -14.5t57.5 -35.5t44 -42.5t41.5 -36t40 -14.5q27 0 44 36.5t17 100.5h148q0 -138 -56.5 -213.5t-154.5 -75.5q-44 0 -80.5 15t-60 36t-43 42t-40 36t-40.5 15 q-31 0 -48.5 -36t-17.5 -101h-141zM483 530h385l-192 521z" />
<glyph unicode="&#xc4;" horiz-adv-x="1349" d="M8 0l572 1427h192l569 -1427h-278l-109 295h-559l-108 -295h-279zM373 1618v227h207v-227h-207zM483 530h385l-192 521zM772 1618v227h207v-227h-207z" />
<glyph unicode="&#xc5;" horiz-adv-x="1349" d="M8 0l565 1411q-59 30 -95 86t-36 123q0 97 68.5 165t165.5 68q95 0 164 -68t69 -165q0 -68 -36 -124.5t-95 -84.5l563 -1411h-278l-109 295h-559l-108 -295h-279zM483 530h385l-192 521zM575 1622q0 -44 29 -73t72 -29q44 0 72 29t28 73t-27 71t-73 27q-45 0 -73 -27.5 t-28 -70.5z" />
<glyph unicode="&#xc6;" horiz-adv-x="1974" d="M8 0l570 1427h1296v-225h-713v-381h625v-215h-625v-375h713v-231h-971v311h-502l-114 -311h-279zM487 547h416v665h-170z" />
<glyph unicode="&#xc7;" horiz-adv-x="1452" d="M78 715q0 335 188 535t504 200q226 0 390.5 -106t242.5 -302l-236 -92q-47 126 -148.5 191t-248.5 65q-207 0 -321.5 -128.5t-114.5 -360.5q0 -233 115 -363.5t321 -130.5q148 0 249.5 67t147.5 195l240 -90q-70 -184 -217.5 -291t-351.5 -122l-64 -82q52 -11 100 -37 q93 -55 93 -162q0 -97 -66.5 -163t-165.5 -66q-101 0 -176 65l78 119q48 -43 104 -43q37 0 59.5 22.5t22.5 59.5q0 42 -31 67t-79 33q-52 8 -129 8l112 181q-285 23 -451.5 219.5t-166.5 511.5z" />
<glyph unicode="&#xc8;" horiz-adv-x="1249" d="M180 0v1427h950v-235h-694v-340h645v-236h-645v-380h694v-236h-950zM272 1845h263l213 -291h-185z" />
<glyph unicode="&#xc9;" horiz-adv-x="1249" d="M180 0v1427h950v-235h-694v-340h645v-236h-645v-380h694v-236h-950zM565 1554l228 291h264l-312 -291h-180z" />
<glyph unicode="&#xca;" horiz-adv-x="1249" d="M180 0v1427h950v-235h-694v-340h645v-236h-645v-380h694v-236h-950zM336 1526l319 356l320 -356h-191l-129 147l-129 -147h-190z" />
<glyph unicode="&#xcb;" horiz-adv-x="1249" d="M180 0v1427h950v-235h-694v-340h645v-236h-645v-380h694v-236h-950zM352 1618v227h207v-227h-207zM752 1618v227h206v-227h-206z" />
<glyph unicode="&#xcc;" horiz-adv-x="616" d="M-74 1845h262l213 -291h-184zM180 0v1427h256v-1427h-256z" />
<glyph unicode="&#xcd;" horiz-adv-x="616" d="M180 0v1427h256v-1427h-256zM219 1554l227 291h265l-312 -291h-180z" />
<glyph unicode="&#xce;" horiz-adv-x="616" d="M-10 1526l319 356l320 -356h-191l-129 147l-129 -147h-190zM180 0v1427h256v-1427h-256z" />
<glyph unicode="&#xcf;" horiz-adv-x="616" d="M6 1618v227h207v-227h-207zM180 0v1427h256v-1427h-256zM406 1618v227h206v-227h-206z" />
<glyph unicode="&#xd0;" horiz-adv-x="1415" d="M18 633v164h162v630h414q355 0 549 -189t194 -536q0 -341 -191.5 -521.5t-553.5 -180.5h-412v633h-162zM436 236h131q270 0 391 112.5t121 364.5q0 248 -118 363.5t-371 115.5h-154v-395h244v-164h-244v-397z" />
<glyph unicode="&#xd1;" horiz-adv-x="1480" d="M180 0v1427h264l600 -983v983h256v-1427h-266l-598 987v-987h-256zM399 1563q0 137 58 212.5t159 75.5q39 0 73 -14.5t57.5 -35.5t44 -42.5t41.5 -36t40 -14.5q27 0 44.5 36.5t17.5 100.5h147q0 -138 -56.5 -213.5t-154.5 -75.5q-44 0 -80.5 15t-60 36t-43 42t-40 36 t-40.5 15q-31 0 -48 -35.5t-17 -101.5h-142z" />
<glyph unicode="&#xd2;" horiz-adv-x="1519" d="M78 713q0 217 85.5 384t240.5 259t356 92q202 0 357 -92t240 -259t85 -384q0 -327 -189 -530t-493 -203t-493 203t-189 530zM334 713q0 -224 115.5 -357t310.5 -133t310.5 133.5t115.5 356.5q0 224 -115.5 357.5t-310.5 133.5t-310.5 -132.5t-115.5 -358.5zM377 1845h262 l213 -291h-184z" />
<glyph unicode="&#xd3;" horiz-adv-x="1519" d="M78 713q0 217 85.5 384t240.5 259t356 92q202 0 357 -92t240 -259t85 -384q0 -327 -189 -530t-493 -203t-493 203t-189 530zM334 713q0 -224 115.5 -357t310.5 -133t310.5 133.5t115.5 356.5q0 224 -115.5 357.5t-310.5 133.5t-310.5 -132.5t-115.5 -358.5zM670 1554 l227 291h264l-311 -291h-180z" />
<glyph unicode="&#xd4;" horiz-adv-x="1519" d="M78 713q0 217 85.5 384t240.5 259t356 92q202 0 357 -92t240 -259t85 -384q0 -327 -189 -530t-493 -203t-493 203t-189 530zM334 713q0 -224 115.5 -357t310.5 -133t310.5 133.5t115.5 356.5q0 224 -115.5 357.5t-310.5 133.5t-310.5 -132.5t-115.5 -358.5zM440 1526 l320 356l319 -356h-190l-129 147l-129 -147h-191z" />
<glyph unicode="&#xd5;" horiz-adv-x="1519" d="M78 713q0 217 85.5 384t240.5 259t356 92q202 0 357 -92t240 -259t85 -384q0 -327 -189 -530t-493 -203t-493 203t-189 530zM334 713q0 -224 115.5 -357t310.5 -133t310.5 133.5t115.5 356.5q0 224 -115.5 357.5t-310.5 133.5t-310.5 -132.5t-115.5 -358.5zM418 1563 q0 137 58 212.5t159 75.5q39 0 73 -14.5t57.5 -35.5t44 -42.5t41.5 -36t40 -14.5q27 0 44 36.5t17 100.5h148q0 -138 -56.5 -213.5t-154.5 -75.5q-44 0 -80.5 15t-60 36t-43 42t-40 36t-40.5 15q-31 0 -48.5 -36t-17.5 -101h-141z" />
<glyph unicode="&#xd6;" horiz-adv-x="1519" d="M78 713q0 217 85.5 384t240.5 259t356 92q202 0 357 -92t240 -259t85 -384q0 -327 -189 -530t-493 -203t-493 203t-189 530zM334 713q0 -224 115.5 -357t310.5 -133t310.5 133.5t115.5 356.5q0 224 -115.5 357.5t-310.5 133.5t-310.5 -132.5t-115.5 -358.5zM457 1618v227 h207v-227h-207zM856 1618v227h207v-227h-207z" />
<glyph unicode="&#xd7;" horiz-adv-x="1081" d="M98 305l299 301l-299 299l144 144l297 -299l301 299l143 -144l-299 -299l299 -301l-143 -141l-301 297l-297 -297z" />
<glyph unicode="&#xd8;" horiz-adv-x="1519" d="M78 713q0 217 85.5 384t240.5 259t356 92q169 0 311 -68l29 47h184l-82 -133q115 -99 177.5 -248t62.5 -333q0 -327 -189 -530t-493 -203q-168 0 -311 67l-29 -47h-184l81 135q-115 98 -177 246t-62 332zM334 713q0 -227 117 -359l491 813q-78 37 -182 37 q-195 0 -310.5 -132.5t-115.5 -358.5zM578 260q78 -37 182 -37q195 0 310.5 133.5t115.5 356.5q0 228 -117 360z" />
<glyph unicode="&#xd9;" horiz-adv-x="1390" d="M150 516v911h256v-882q0 -174 65 -246t223 -72t224.5 73t66.5 245v882h256v-901q0 -270 -138.5 -408t-408.5 -138q-269 0 -406.5 135.5t-137.5 400.5zM313 1845h262l213 -291h-184z" />
<glyph unicode="&#xda;" horiz-adv-x="1390" d="M150 516v911h256v-882q0 -174 65 -246t223 -72t224.5 73t66.5 245v882h256v-901q0 -270 -138.5 -408t-408.5 -138q-269 0 -406.5 135.5t-137.5 400.5zM606 1554l228 291h264l-312 -291h-180z" />
<glyph unicode="&#xdb;" horiz-adv-x="1390" d="M150 516v911h256v-882q0 -174 65 -246t223 -72t224.5 73t66.5 245v882h256v-901q0 -270 -138.5 -408t-408.5 -138q-269 0 -406.5 135.5t-137.5 400.5zM377 1526l319 356l320 -356h-191l-129 147l-129 -147h-190z" />
<glyph unicode="&#xdc;" horiz-adv-x="1390" d="M150 516v911h256v-882q0 -174 65 -246t223 -72t224.5 73t66.5 245v882h256v-901q0 -270 -138.5 -408t-408.5 -138q-269 0 -406.5 135.5t-137.5 400.5zM393 1618v227h207v-227h-207zM793 1618v227h206v-227h-206z" />
<glyph unicode="&#xdd;" horiz-adv-x="1325" d="M-6 1427h301l364 -624l369 624h303l-538 -870v-557h-256v557zM573 1554l228 291h264l-311 -291h-181z" />
<glyph unicode="&#xde;" horiz-adv-x="1153" d="M180 0v1427h234v-196h258q207 0 322.5 -106.5t115.5 -297.5q0 -201 -130.5 -313.5t-363.5 -112.5h-202v-401h-234zM414 614h202q261 0 261 205q0 211 -261 211h-202v-416z" />
<glyph unicode="&#xdf;" horiz-adv-x="1310" d="M145 0v891q0 557 545 557q219 0 350 -83.5t131 -231.5q0 -66 -22 -119t-57 -86t-77.5 -58t-84.5 -41.5t-77 -31t-57 -32t-22 -38.5q0 -27 28 -45t73 -30t99 -25t108 -35t99 -54t73 -89t28 -132q0 -85 -34.5 -151.5t-91.5 -106t-125 -59.5t-142 -20q-155 0 -270.5 81 t-153.5 201l197 88q61 -166 215 -166q79 0 121 36.5t42 82.5q0 34 -28 57.5t-73 38.5t-99 29t-108 35t-99 51t-73 83.5t-28 125.5q0 64 22 113t57 78t77.5 51t85 37t77.5 29.5t57 35t22 47.5q0 51 -66.5 78t-163.5 27q-48 0 -88.5 -8t-69.5 -19.5t-52 -31.5t-37.5 -38 t-25 -45.5t-15.5 -47t-7.5 -49.5t-3 -45.5t-0.5 -43.5v-891h-256z" />
<glyph unicode="&#xe0;" horiz-adv-x="1081" d="M49 309q0 89 39 154.5t113 99.5q99 45 268 45h252v29q0 83 -51.5 130.5t-139.5 47.5q-158 0 -272 -151l-178 149q181 217 455 217q200 0 316 -105t116 -288v-637h-226l-20 131q-44 -71 -125.5 -111t-181.5 -40q-160 0 -262.5 92t-102.5 237zM145 1427h263l213 -290h-185z M295 305q0 -54 42.5 -85.5t115.5 -31.5q111 0 189.5 69t78.5 167h-219q-120 0 -166 -35q-41 -27 -41 -84z" />
<glyph unicode="&#xe1;" horiz-adv-x="1081" d="M49 309q0 89 39 154.5t113 99.5q99 45 268 45h252v29q0 83 -51.5 130.5t-139.5 47.5q-158 0 -272 -151l-178 149q181 217 455 217q200 0 316 -105t116 -288v-637h-226l-20 131q-44 -71 -125.5 -111t-181.5 -40q-160 0 -262.5 92t-102.5 237zM295 305q0 -54 42.5 -85.5 t115.5 -31.5q111 0 189.5 69t78.5 167h-219q-120 0 -166 -35q-41 -27 -41 -84zM438 1137l228 290h264l-312 -290h-180z" />
<glyph unicode="&#xe2;" horiz-adv-x="1081" d="M49 309q0 89 39 154.5t113 99.5q99 45 268 45h252v29q0 83 -51.5 130.5t-139.5 47.5q-158 0 -272 -151l-178 149q181 217 455 217q200 0 316 -105t116 -288v-637h-226l-20 131q-44 -71 -125.5 -111t-181.5 -40q-160 0 -262.5 92t-102.5 237zM209 1108l319 356l320 -356 h-191l-129 147l-129 -147h-190zM295 305q0 -54 42.5 -85.5t115.5 -31.5q111 0 189.5 69t78.5 167h-219q-120 0 -166 -35q-41 -27 -41 -84z" />
<glyph unicode="&#xe3;" horiz-adv-x="1081" d="M49 309q0 89 39 154.5t113 99.5q99 45 268 45h252v29q0 83 -51.5 130.5t-139.5 47.5q-158 0 -272 -151l-178 149q181 217 455 217q200 0 316 -105t116 -288v-637h-226l-20 131q-44 -71 -125.5 -111t-181.5 -40q-160 0 -262.5 92t-102.5 237zM186 1145q0 137 58 213 t159 76q39 0 73 -15t57.5 -36t44 -42t41.5 -36t40 -15q27 0 44.5 36.5t17.5 100.5h147q0 -138 -56.5 -213t-154.5 -75q-44 0 -80.5 14.5t-60 35.5t-43 42.5t-40 36t-40.5 14.5q-31 0 -48 -35.5t-17 -101.5h-142zM295 305q0 -54 42.5 -85.5t115.5 -31.5q111 0 189.5 69 t78.5 167h-219q-120 0 -166 -35q-41 -27 -41 -84z" />
<glyph unicode="&#xe4;" horiz-adv-x="1081" d="M49 309q0 89 39 154.5t113 99.5q99 45 268 45h252v29q0 83 -51.5 130.5t-139.5 47.5q-158 0 -272 -151l-178 149q181 217 455 217q200 0 316 -105t116 -288v-637h-226l-20 131q-44 -71 -125.5 -111t-181.5 -40q-160 0 -262.5 92t-102.5 237zM225 1200v227h207v-227h-207z M295 305q0 -54 42.5 -85.5t115.5 -31.5q111 0 189.5 69t78.5 167h-219q-120 0 -166 -35q-41 -27 -41 -84zM625 1200v227h206v-227h-206z" />
<glyph unicode="&#xe5;" horiz-adv-x="1081" d="M49 309q0 89 39 154.5t113 99.5q99 45 268 45h252v29q0 83 -51.5 130.5t-139.5 47.5q-158 0 -272 -151l-178 149q181 217 455 217q200 0 316 -105t116 -288v-637h-226l-20 131q-44 -71 -125.5 -111t-181.5 -40q-160 0 -262.5 92t-102.5 237zM295 305q0 -54 42.5 -85.5 t115.5 -31.5q111 0 189.5 69t78.5 167h-219q-120 0 -166 -35q-41 -27 -41 -84zM295 1313q0 97 68 165t165 68q95 0 164.5 -68t69.5 -165t-68.5 -165.5t-165.5 -68.5t-165 69.5t-68 164.5zM428 1315q0 -44 28.5 -73.5t71.5 -29.5q44 0 72.5 29.5t28.5 73.5q0 43 -27.5 70.5 t-73.5 27.5q-45 0 -72.5 -27.5t-27.5 -70.5z" />
<glyph unicode="&#xe6;" horiz-adv-x="1687" d="M47 305q0 48 12 88.5t30.5 69t48.5 51.5t57.5 37.5t67.5 24.5t68 15t68.5 7.5t60.5 3t52 0.5h213v35q0 84 -51.5 131t-138.5 47q-78 0 -148.5 -39.5t-124.5 -111.5l-178 149q176 217 465 217q114 0 200 -35.5t132 -101.5q60 64 132.5 95.5t176.5 31.5q113 0 198 -36 t136.5 -102t76.5 -152.5t25 -192.5q0 -54 -6 -113h-668q11 -106 64 -161.5t166 -55.5q145 0 239 104l172 -149q-88 -93 -188 -133.5t-223 -40.5q-256 0 -369 162h-27q-76 -91 -163 -130.5t-197 -39.5q-181 0 -280 90.5t-99 234.5zM299 301q0 -51 41.5 -82t116.5 -31 q114 0 184.5 66t83.5 162v8h-199q-227 0 -227 -123zM950 602h449q0 66 -29 119q-26 45 -77.5 69.5t-116.5 24.5q-110 0 -168 -64.5t-58 -148.5z" />
<glyph unicode="&#xe7;" horiz-adv-x="1011" d="M55 502q0 81 18.5 157t58.5 143.5t96.5 118t137.5 80t177 29.5q154 0 266.5 -74.5t169.5 -222.5l-234 -92q-20 80 -74 127t-128 47q-81 0 -136 -46t-77.5 -114t-22.5 -153t22 -151.5t77 -111t137 -44.5q73 0 127.5 46t74.5 124l224 -86q-50 -137 -157 -216t-251 -83 l-61 -80q52 -11 100 -37q92 -55 92 -162q0 -97 -66 -163t-165 -66q-101 0 -176 65l77 119q48 -43 105 -43q37 0 59.5 22.5t22.5 59.5q0 42 -31 67t-80 33q-52 8 -129 8l117 189q-120 26 -206 104.5t-125.5 182.5t-39.5 223z" />
<glyph unicode="&#xe8;" horiz-adv-x="1062" d="M59 500q0 81 17.5 156.5t55.5 144t93 119t135.5 80.5t178.5 30q114 0 204 -40t146.5 -110.5t85.5 -162.5t29 -199q0 -36 -7 -94h-692q8 -103 71.5 -162t180.5 -59q147 0 242 108l170 -149q-164 -182 -414 -182q-126 0 -223.5 43t-155.5 116.5t-87.5 165t-29.5 195.5z M158 1427h262l213 -290h-184zM303 608h465q0 99 -64.5 158t-166.5 59q-107 0 -166.5 -64.5t-67.5 -152.5z" />
<glyph unicode="&#xe9;" horiz-adv-x="1062" d="M59 500q0 81 17.5 156.5t55.5 144t93 119t135.5 80.5t178.5 30q114 0 204 -40t146.5 -110.5t85.5 -162.5t29 -199q0 -36 -7 -94h-692q8 -103 71.5 -162t180.5 -59q147 0 242 108l170 -149q-164 -182 -414 -182q-126 0 -223.5 43t-155.5 116.5t-87.5 165t-29.5 195.5z M303 608h465q0 99 -64.5 158t-166.5 59q-107 0 -166.5 -64.5t-67.5 -152.5zM451 1137l227 290h264l-311 -290h-180z" />
<glyph unicode="&#xea;" horiz-adv-x="1062" d="M59 500q0 81 17.5 156.5t55.5 144t93 119t135.5 80.5t178.5 30q114 0 204 -40t146.5 -110.5t85.5 -162.5t29 -199q0 -36 -7 -94h-692q8 -103 71.5 -162t180.5 -59q147 0 242 108l170 -149q-164 -182 -414 -182q-126 0 -223.5 43t-155.5 116.5t-87.5 165t-29.5 195.5z M221 1108l320 356l319 -356h-190l-129 147l-129 -147h-191zM303 608h465q0 99 -64.5 158t-166.5 59q-107 0 -166.5 -64.5t-67.5 -152.5z" />
<glyph unicode="&#xeb;" horiz-adv-x="1062" d="M59 500q0 81 17.5 156.5t55.5 144t93 119t135.5 80.5t178.5 30q114 0 204 -40t146.5 -110.5t85.5 -162.5t29 -199q0 -36 -7 -94h-692q8 -103 71.5 -162t180.5 -59q147 0 242 108l170 -149q-164 -182 -414 -182q-126 0 -223.5 43t-155.5 116.5t-87.5 165t-29.5 195.5z M238 1200v227h206v-227h-206zM303 608h465q0 99 -64.5 158t-166.5 59q-107 0 -166.5 -64.5t-67.5 -152.5zM637 1200v227h207v-227h-207z" />
<glyph unicode="&#xec;" horiz-adv-x="532" d="M-117 1427h262l213 -290h-184zM143 0v1010h246v-1010h-246z" />
<glyph unicode="&#xed;" horiz-adv-x="532" d="M143 0v1010h246v-1010h-246zM176 1137l227 290h265l-312 -290h-180z" />
<glyph unicode="&#xee;" horiz-adv-x="532" d="M-53 1108l319 356l320 -356h-191l-129 147l-129 -147h-190zM143 0v1010h246v-1010h-246z" />
<glyph unicode="&#xef;" horiz-adv-x="532" d="M-37 1200v227h207v-227h-207zM143 0v1010h246v-1010h-246zM362 1200v227h207v-227h-207z" />
<glyph unicode="&#xf0;" horiz-adv-x="1189" d="M49 455q0 122 45.5 228t121 178t172.5 113.5t200 41.5q151 0 282 -88q0 157 -84 260l-354 -94l-29 106l279 74q-110 61 -272 67l18 164q320 -23 487 -168l119 31l29 -106l-64 -17q119 -169 119 -473q0 -230 -70 -406.5t-207 -277t-323 -100.5q-218 0 -343.5 130 t-125.5 337zM279 457q0 -125 73 -191.5t180 -66.5q104 0 185 55t120.5 135.5t39.5 167.5q0 109 -67 183.5t-192 74.5q-82 0 -149 -32t-107 -84.5t-61.5 -114.5t-21.5 -127z" />
<glyph unicode="&#xf1;" horiz-adv-x="1171" d="M143 0v1010h246v-117q103 137 305 137q170 0 263.5 -99.5t93.5 -279.5v-651h-246v590q0 25 -1 41.5t-6 47t-17 51t-31.5 42t-53.5 32.5t-78 11q-55 0 -96 -16.5t-65 -52t-39 -68.5t-20.5 -90t-7 -90.5t-1.5 -94.5v-403h-246zM242 1145q0 137 58 213t159 76q39 0 73 -15 t57.5 -36t44 -42t41.5 -36t40 -15q27 0 44 36.5t17 100.5h148q0 -138 -56.5 -213t-154.5 -75q-44 0 -80.5 14.5t-60 35.5t-43 42.5t-40 36t-40.5 14.5q-31 0 -48.5 -36t-17.5 -101h-141z" />
<glyph unicode="&#xf2;" horiz-adv-x="1118" d="M53 506q0 144 60 262.5t177 190t269 71.5q151 0 268 -71.5t177.5 -190t60.5 -262.5q0 -143 -60.5 -262t-177.5 -191.5t-268 -72.5q-114 0 -210.5 42t-160.5 114t-99.5 167.5t-35.5 202.5zM176 1427h262l213 -290h-184zM299 506q0 -134 64.5 -222.5t195.5 -88.5 t195.5 88.5t64.5 222.5q0 64 -15 118.5t-45 98t-81 68t-119 24.5t-119 -24.5t-81 -68t-45 -98t-15 -118.5z" />
<glyph unicode="&#xf3;" horiz-adv-x="1118" d="M53 506q0 144 60 262.5t177 190t269 71.5q151 0 268 -71.5t177.5 -190t60.5 -262.5q0 -143 -60.5 -262t-177.5 -191.5t-268 -72.5q-114 0 -210.5 42t-160.5 114t-99.5 167.5t-35.5 202.5zM299 506q0 -134 64.5 -222.5t195.5 -88.5t195.5 88.5t64.5 222.5q0 64 -15 118.5 t-45 98t-81 68t-119 24.5t-119 -24.5t-81 -68t-45 -98t-15 -118.5zM469 1137l227 290h265l-312 -290h-180z" />
<glyph unicode="&#xf4;" horiz-adv-x="1118" d="M53 506q0 144 60 262.5t177 190t269 71.5q151 0 268 -71.5t177.5 -190t60.5 -262.5q0 -143 -60.5 -262t-177.5 -191.5t-268 -72.5q-114 0 -210.5 42t-160.5 114t-99.5 167.5t-35.5 202.5zM240 1108l319 356l320 -356h-191l-129 147l-129 -147h-190zM299 506 q0 -134 64.5 -222.5t195.5 -88.5t195.5 88.5t64.5 222.5q0 64 -15 118.5t-45 98t-81 68t-119 24.5t-119 -24.5t-81 -68t-45 -98t-15 -118.5z" />
<glyph unicode="&#xf5;" horiz-adv-x="1118" d="M53 506q0 144 60 262.5t177 190t269 71.5q151 0 268 -71.5t177.5 -190t60.5 -262.5q0 -143 -60.5 -262t-177.5 -191.5t-268 -72.5q-114 0 -210.5 42t-160.5 114t-99.5 167.5t-35.5 202.5zM217 1145q0 137 58 213t159 76q39 0 73 -15t57.5 -36t44 -42t41.5 -36t40 -15 q27 0 44.5 36.5t17.5 100.5h147q0 -138 -56.5 -213t-154.5 -75q-44 0 -80.5 14.5t-60 35.5t-43 42.5t-40 36t-40.5 14.5q-31 0 -48.5 -36t-17.5 -101h-141zM299 506q0 -134 64.5 -222.5t195.5 -88.5t195.5 88.5t64.5 222.5q0 64 -15 118.5t-45 98t-81 68t-119 24.5 t-119 -24.5t-81 -68t-45 -98t-15 -118.5z" />
<glyph unicode="&#xf6;" horiz-adv-x="1118" d="M53 506q0 144 60 262.5t177 190t269 71.5q151 0 268 -71.5t177.5 -190t60.5 -262.5q0 -143 -60.5 -262t-177.5 -191.5t-268 -72.5q-114 0 -210.5 42t-160.5 114t-99.5 167.5t-35.5 202.5zM256 1200v227h207v-227h-207zM299 506q0 -134 64.5 -222.5t195.5 -88.5 t195.5 88.5t64.5 222.5q0 64 -15 118.5t-45 98t-81 68t-119 24.5t-119 -24.5t-81 -68t-45 -98t-15 -118.5zM655 1200v227h207v-227h-207z" />
<glyph unicode="&#xf7;" horiz-adv-x="1034" d="M86 535v204h862v-204h-862zM383 145v267h268v-267h-268zM383 862v266h268v-266h-268z" />
<glyph unicode="&#xf8;" horiz-adv-x="1118" d="M53 506q0 144 60 262.5t177 190t269 71.5q108 0 203 -39l63 107h185l-115 -189q82 -72 126 -176.5t44 -226.5q0 -143 -60.5 -262t-177.5 -191.5t-268 -72.5q-113 0 -203 38l-65 -106h-185l115 190q-80 74 -124 179.5t-44 224.5zM299 506q0 -121 47 -199l301 496 q-41 12 -88 12q-68 0 -119 -24.5t-81 -68t-45 -98t-15 -118.5zM471 207q38 -12 88 -12q131 0 195.5 88.5t64.5 222.5q0 121 -47 199z" />
<glyph unicode="&#xf9;" horiz-adv-x="1169" d="M119 379v631h246v-570q0 -22 0.5 -36t4 -42.5t10 -48t20.5 -43.5t33 -39t49.5 -25.5t68.5 -10.5q48 0 85 15.5t60.5 37.5t40.5 61.5t25 70.5t12.5 83.5t5 81.5t0.5 82v383h246v-1010h-246v117q-103 -137 -301 -137q-74 0 -134.5 21t-102 57.5t-69.5 87.5t-41 109t-13 124 zM188 1427h263l213 -290h-185z" />
<glyph unicode="&#xfa;" horiz-adv-x="1169" d="M119 379v631h246v-570q0 -22 0.5 -36t4 -42.5t10 -48t20.5 -43.5t33 -39t49.5 -25.5t68.5 -10.5q48 0 85 15.5t60.5 37.5t40.5 61.5t25 70.5t12.5 83.5t5 81.5t0.5 82v383h246v-1010h-246v117q-103 -137 -301 -137q-74 0 -134.5 21t-102 57.5t-69.5 87.5t-41 109t-13 124 zM481 1137l228 290h264l-311 -290h-181z" />
<glyph unicode="&#xfb;" horiz-adv-x="1169" d="M119 379v631h246v-570q0 -22 0.5 -36t4 -42.5t10 -48t20.5 -43.5t33 -39t49.5 -25.5t68.5 -10.5q48 0 85 15.5t60.5 37.5t40.5 61.5t25 70.5t12.5 83.5t5 81.5t0.5 82v383h246v-1010h-246v117q-103 -137 -301 -137q-74 0 -134.5 21t-102 57.5t-69.5 87.5t-41 109t-13 124 zM252 1108l319 356l320 -356h-191l-129 147l-129 -147h-190z" />
<glyph unicode="&#xfc;" horiz-adv-x="1169" d="M119 379v631h246v-570q0 -22 0.5 -36t4 -42.5t10 -48t20.5 -43.5t33 -39t49.5 -25.5t68.5 -10.5q48 0 85 15.5t60.5 37.5t40.5 61.5t25 70.5t12.5 83.5t5 81.5t0.5 82v383h246v-1010h-246v117q-103 -137 -301 -137q-74 0 -134.5 21t-102 57.5t-69.5 87.5t-41 109t-13 124 zM268 1200v227h207v-227h-207zM668 1200v227h206v-227h-206z" />
<glyph unicode="&#xfd;" horiz-adv-x="1034" d="M-10 1010h270l256 -701l258 701h270l-573 -1428h-266l180 445zM428 1137l227 290h265l-312 -290h-180z" />
<glyph unicode="&#xfe;" horiz-adv-x="1173" d="M145 -418v1845h246v-518q50 61 127 91t164 30q200 0 313 -146t113 -380q0 -243 -118 -383.5t-308 -140.5q-87 0 -165.5 32.5t-125.5 89.5v-520h-246zM369 506q0 -140 63 -225.5t189 -85.5q121 0 181 80t60 231q0 309 -239 309q-128 0 -191 -83.5t-63 -225.5z" />
<glyph unicode="&#xff;" horiz-adv-x="1034" d="M-10 1010h270l256 -701l258 701h270l-573 -1428h-266l180 445zM215 1200v227h207v-227h-207zM614 1200v227h207v-227h-207z" />
<glyph unicode="&#x152;" horiz-adv-x="2258" d="M78 713q0 217 85.5 384t240.5 259t356 92q254 0 430 -143v122h950v-235h-694v-340h645v-236h-645v-380h694v-236h-950v123q-176 -143 -430 -143q-304 0 -493 203t-189 530zM334 713q0 -224 115.5 -357t310.5 -133t310.5 133.5t115.5 356.5q0 224 -115.5 357.5 t-310.5 133.5t-310.5 -132.5t-115.5 -358.5z" />
<glyph unicode="&#x153;" horiz-adv-x="1849" d="M51 506q0 144 63.5 263t183 190t271.5 71q117 0 215.5 -43.5t167.5 -120.5q134 164 373 164q102 0 183.5 -31.5t133.5 -82t86.5 -118.5t49 -136.5t14.5 -139.5q0 -70 -8 -98h-692q33 -221 251 -221q147 0 242 108l170 -149q-164 -182 -414 -182q-251 0 -391 163 q-147 -163 -381 -163q-115 0 -212.5 42t-164 114t-104 168t-37.5 202zM309 506q0 -64 15 -118.5t45 -99t81.5 -70t118.5 -25.5t118.5 25.5t81.5 70t45 99t15 118.5q0 135 -64.5 223t-195.5 88t-195.5 -88t-64.5 -223zM1092 602h458q0 37 -8 64q-20 76 -78.5 116.5 t-140.5 40.5q-191 0 -231 -221z" />
<glyph unicode="&#x178;" horiz-adv-x="1325" d="M-6 1427h301l364 -624l369 624h303l-538 -870v-557h-256v557zM360 1618v227h207v-227h-207zM760 1618v227h207v-227h-207z" />
<glyph unicode="&#x2c6;" horiz-adv-x="655" d="M8 1108l320 356l319 -356h-190l-129 147l-129 -147h-191z" />
<glyph unicode="&#x2dc;" horiz-adv-x="876" d="M96 1145q0 137 58 213t159 76q39 0 73 -15t57.5 -36t44 -42t41.5 -36t40 -15q27 0 44.5 36.5t17.5 100.5h147q0 -138 -56.5 -213t-154.5 -75q-44 0 -80.5 14.5t-60 35.5t-43 42.5t-40 36t-40.5 14.5q-31 0 -48 -35.5t-17 -101.5h-142z" />
<glyph unicode="&#x2000;" horiz-adv-x="941" />
<glyph unicode="&#x2001;" horiz-adv-x="1882" />
<glyph unicode="&#x2002;" horiz-adv-x="941" />
<glyph unicode="&#x2003;" horiz-adv-x="1882" />
<glyph unicode="&#x2004;" horiz-adv-x="627" />
<glyph unicode="&#x2005;" horiz-adv-x="470" />
<glyph unicode="&#x2006;" horiz-adv-x="313" />
<glyph unicode="&#x2007;" horiz-adv-x="313" />
<glyph unicode="&#x2008;" horiz-adv-x="235" />
<glyph unicode="&#x2009;" horiz-adv-x="376" />
<glyph unicode="&#x200a;" horiz-adv-x="104" />
<glyph unicode="&#x2010;" horiz-adv-x="868" d="M139 514v184h590v-184h-590z" />
<glyph unicode="&#x2011;" horiz-adv-x="868" d="M139 514v184h590v-184h-590z" />
<glyph unicode="&#x2012;" horiz-adv-x="868" d="M139 514v184h590v-184h-590z" />
<glyph unicode="&#x2013;" horiz-adv-x="1052" d="M139 514v184h774v-184h-774z" />
<glyph unicode="&#x2014;" horiz-adv-x="2068" d="M0 514v184h2068v-184h-2068z" />
<glyph unicode="&#x2018;" horiz-adv-x="577" d="M51 854l258 573h162l-135 -573h-285z" />
<glyph unicode="&#x2019;" horiz-adv-x="577" d="M104 856l136 571h284l-258 -571h-162z" />
<glyph unicode="&#x201a;" horiz-adv-x="577" d="M104 -305l136 571h284l-258 -571h-162z" />
<glyph unicode="&#x201c;" horiz-adv-x="970" d="M51 854l258 573h162l-135 -573h-285zM444 854l256 573h164l-135 -573h-285z" />
<glyph unicode="&#x201d;" horiz-adv-x="970" d="M104 856l136 571h284l-258 -571h-162zM498 856l135 571h285l-259 -571h-161z" />
<glyph unicode="&#x201e;" horiz-adv-x="991" d="M104 -305l136 571h284l-258 -571h-162zM518 -305l135 571h285l-258 -571h-162z" />
<glyph unicode="&#x2022;" horiz-adv-x="759" d="M139 485q0 100 70 171t170 71q99 0 169 -71t70 -171q0 -99 -70 -169t-169 -70t-169.5 70t-70.5 169z" />
<glyph unicode="&#x2026;" horiz-adv-x="1480" d="M199 0v266h247v-266h-247zM616 0v266h248v-266h-248zM1034 0v266h248v-266h-248z" />
<glyph unicode="&#x202f;" horiz-adv-x="376" />
<glyph unicode="&#x2039;" horiz-adv-x="589" d="M10 516l432 358v-212l-182 -146l182 -145v-213z" />
<glyph unicode="&#x203a;" horiz-adv-x="591" d="M143 158v213l183 145l-183 146v212l432 -358z" />
<glyph unicode="&#x205f;" horiz-adv-x="470" />
<glyph unicode="&#x20ac;" horiz-adv-x="1411" d="M104 487l2 164h99q-2 20 -2 64q0 26 4 80h-98v163h124q63 226 235.5 358t424.5 132q265 0 428 -129l-133 -213q-119 100 -295 100q-141 0 -240.5 -65.5t-150.5 -182.5h553l-2 -163h-594q-4 -54 -4 -80q0 -44 2 -64h596l-4 -164h-555q49 -123 151 -193.5t248 -70.5 q175 0 295 101l133 -213q-166 -131 -428 -131q-257 0 -430.5 136.5t-233.5 370.5h-125z" />
<glyph unicode="&#x2122;" horiz-adv-x="1544" d="M129 1286v141h446v-141h-145v-401h-154v401h-147zM684 885v542h250l76 -321l73 321h246v-542h-153v385l-117 -385h-98l-123 385v-385h-154z" />
<glyph unicode="&#x25fc;" horiz-adv-x="1013" d="M0 0v1014h1014v-1014h-1014z" />
<glyph unicode="&#xfb03;" horiz-adv-x="1730" d="M10 815v195h166v71q0 112 59.5 197t155.5 127.5t211 42.5q172 0 299 -88q117 88 287 88q123 0 214 -26t177 -79l-115 -174q-116 80 -264 80q-96 0 -144 -46t-48 -126v-67h585v-1010h-245v815h-340v-815h-246v815h-340v-815h-246v815h-166zM422 1010h340v71q0 67 22 125 q-74 43 -170 43t-144 -46t-48 -126v-67z" />
<glyph unicode="&#xfb04;" horiz-adv-x="1783" d="M10 815v195h166v71q0 112 59.5 197t155.5 127.5t211 42.5q172 0 297 -86q122 86 289 86q123 0 216 -26.5t189 -84.5v-1069q0 -63 70 -63q33 0 80 12v-207q-105 -30 -174 -30q-103 0 -162 54t-59 167v1026q-74 22 -148 22q-96 0 -144 -46t-48 -126v-67h192v-195h-192v-815 h-246v815h-340v-815h-246v815h-166zM422 1010h340v71q0 63 20 125q-71 43 -168 43q-96 0 -144 -46t-48 -126v-67z" />
</font>
</defs>
</svg>
