<?xml version="1.0" standalone="no"?>
<!DOCTYPE svg PUBLIC "-//W3C//DTD SVG 1.1//EN" "http://www.w3.org/Graphics/SVG/1.1/DTD/svg11.dtd" >
<svg xmlns="http://www.w3.org/2000/svg" xmlns:xlink="http://www.w3.org/1999/xlink" version="1.1">
<metadata></metadata>
<defs>
<font id="butlerultralight" horiz-adv-x="1363" >
<font-face units-per-em="2048" ascent="1505" descent="-543" />
<missing-glyph horiz-adv-x="481" />
<glyph horiz-adv-x="0" />
<glyph horiz-adv-x="682" />
<glyph unicode=" "  horiz-adv-x="481" />
<glyph unicode="&#x09;" horiz-adv-x="481" />
<glyph unicode="&#xa0;" horiz-adv-x="481" />
<glyph unicode="!" horiz-adv-x="583" d="M213 68q0 -35 25.5 -60.5t62.5 -25.5q35 0 60.5 25.5t25.5 60.5q0 36 -25 61t-61 25q-37 0 -62.5 -24.5t-25.5 -61.5zM246 1524h112l-24 -1211h-64z" />
<glyph unicode="&#x22;" horiz-adv-x="862" d="M207 1442h123l-29 -670h-61zM547 1442h125l-31 -670h-61z" />
<glyph unicode="#" horiz-adv-x="1417" d="M90 524v62h305l97 424h-273v61h285l104 457h72l-105 -457h377l105 457h71l-104 -457h301v-61h-313l-97 -424h281v-62h-295l-119 -524h-71l118 524h-376l-119 -524h-72l119 524h-291zM467 586h377l96 424h-377z" />
<glyph unicode="$" horiz-adv-x="948" d="M41.5 1152.5q1.5 31.5 11.5 69.5t31 76q4 6 12.5 17t39.5 38.5t67.5 48.5t97.5 39t129 19v252h80v-252q89 -7 172 -30.5t122 -43.5l38 -20v-344h-21q0 75 -3.5 124.5t-14.5 99.5t-31.5 81t-55 57t-85.5 39t-121 17v-660l156 -100q80 -53 133 -115t75 -118t25.5 -113.5 t-7 -102t-30.5 -81.5q-3 -6 -10 -17t-35 -38.5t-64 -49t-101 -41t-142 -22.5v-248h-80v248q-67 3 -129 15t-103.5 27t-73.5 29t-46 23l-15 10v393h17q0 -141 13.5 -225t52.5 -143t106 -83t178 -28v709l-127 86q-7 6 -33.5 25.5t-41.5 31t-42.5 35.5t-44 42.5t-38.5 47 t-33 53.5t-20.5 58t-8 64.5zM140.5 1117q9.5 -49 51.5 -102.5t113 -99.5l125 -81v608q-46 -1 -94 -19t-87 -49t-69 -71t-39.5 -88.5t0 -97.5zM510 0q106 7 179 52t100.5 109.5t25 137t-42.5 141t-106 113.5l-156 102v-655z" />
<glyph unicode="%" horiz-adv-x="1949" d="M289 1012q0 51 5.5 97.5t23 99.5t45 91t77 63.5t113.5 25.5t113.5 -25.5t77.5 -63.5t45.5 -91t23.5 -99.5t6 -97.5q0 -49 -6 -94.5t-23.5 -95.5t-45.5 -86.5t-77 -60.5t-114 -24t-114 24t-76.5 60t-45 87t-23 95.5t-5.5 94.5zM369 1012q0 -85 11 -148t28 -99.5 t42.5 -58.5t49.5 -29t53 -7q31 0 55.5 7t50 29t42.5 58.5t27.5 99.5t10.5 148q0 358 -186 358q-184 0 -184 -358zM459 0l934 1442h84l-934 -1442h-84zM1120 410q0 51 5.5 97.5t23 99t45 90.5t77 63.5t113.5 25.5q65 0 114 -25t77.5 -63.5t46 -91t23.5 -99.5t6 -97 q0 -49 -6 -94.5t-23.5 -95.5t-46 -86.5t-77.5 -60.5t-114 -24t-114 24t-76.5 60t-45 87t-23 95.5t-5.5 94.5zM1200 410q0 -85 11 -148t28 -99.5t42.5 -58.5t49.5 -29t53 -7q40 0 70 13t58 47.5t43.5 105.5t15.5 176q0 358 -187 358q-184 0 -184 -358z" />
<glyph unicode="&#x26;" horiz-adv-x="1515" d="M140.5 407q18.5 71 60 137.5t93 114t105.5 76.5l138 86l-88 127q-81 106 -114.5 206t-19 175t67.5 125.5t139 65.5q93 15 169 -8t122 -74q33 -36 54.5 -85.5t25 -112.5t-16 -127t-78.5 -132.5t-153 -124.5l311 -453q81 246 258 281q67 14 105 -18q13 -9 21 -25.5t6 -39 t-19 -40.5q-20 -23 -50.5 -25.5t-55.5 17.5q-16 12 -20.5 22t-6.5 27q0 22 -31 20q-52 -4 -106 -66q-56 -65 -86 -171l164 -231q30 -43 67.5 -68t59.5 -29l22 -4q40 0 70.5 24t29.5 70h15q-3 -80 -53 -122.5t-101 -42.5q-2 2 -13 0t-34 3.5t-47 14t-52.5 30.5t-49.5 54 l-131 197q-14 -56 -54.5 -110.5t-96.5 -96t-126.5 -66t-140.5 -27t-142 27t-129 91.5q-65 73 -86 154.5t-2.5 152.5zM215.5 431.5q-12.5 -63.5 8 -137t77.5 -138.5q60 -67 146.5 -94.5t173 -12.5t165 79.5t119.5 168.5l-356 508l-137 -82q-41 -25 -81 -67t-71.5 -101.5 t-44 -123zM411.5 1310.5q1.5 -58.5 22 -120t58.5 -117.5l143 -203q101 59 160 134t71.5 149.5t-5 144.5t-64.5 129q-47 51 -121.5 68.5t-147.5 -8.5q-59 -23 -88.5 -70.5t-28 -106z" />
<glyph unicode="'" horiz-adv-x="425" d="M154 1442h122l-28 -670h-62z" />
<glyph unicode="(" horiz-adv-x="632" d="M162 520q0 120 24.5 240t64 216.5t87.5 185t96 153.5t87.5 113.5t64.5 73.5l24 24l21 -19q-77 -91 -138.5 -195t-98 -197.5t-62.5 -185t-37 -165.5t-16.5 -131t-4.5 -88v-31q2 -3 0 -20.5t1.5 -56t7 -85.5t16 -108t27.5 -123.5t43 -132.5t62 -135t84 -130.5t110 -119.5 l-19 -25q-9 7 -25 21.5t-62 63t-88 102t-93.5 138.5t-88 174t-62 206t-25.5 237z" />
<glyph unicode=")" horiz-adv-x="638" d="M-4 1509l20 19l25.5 -25.5t63 -71.5t89 -114.5t94 -152t89 -187t63 -215t25.5 -240.5t-24.5 -236.5t-64 -207t-86.5 -172.5t-94.5 -140t-87 -101t-64.5 -64l-24 -21l-18 25q104 94 178 222t106 244t49 219t17 164v62q-2 3 0.5 19.5t-1.5 54.5t-7 84t-15.5 109t-28 128.5 t-44 142t-63 150.5t-85.5 153.5t-112 151.5z" />
<glyph unicode="*" horiz-adv-x="1093" d="M129 1100l35 104l360 -155l-35 393h111l-35 -393l363 155l33 -104l-383 -90l258 -295l-88 -66l-203 336l-203 -336l-88 66l258 295z" />
<glyph unicode="+" horiz-adv-x="1464" d="M115 592v88h573v588h86v-588h572v-88h-572v-592h-86v592h-573z" />
<glyph unicode="," horiz-adv-x="376" d="M106 -238q45 29 72 62.5t33.5 61t4.5 51t-11.5 37.5t-20.5 16q-3 1 -11.5 2.5t-13 2.5t-11.5 4.5t-13 8.5q-23 18 -23 48.5t21 52.5q22 22 51 22t49 -22q33 -31 34.5 -99.5t-31.5 -132.5q-1 -2 -9.5 -15.5t-11 -17.5t-11.5 -16t-16 -18.5t-19 -16.5t-26.5 -19t-31.5 -18z " />
<glyph unicode="-" horiz-adv-x="909" d="M131 477v88h645v-88h-645z" />
<glyph unicode="." horiz-adv-x="348" d="M115 57q0 31 19 51.5t48 20.5q28 0 49 -21t21 -51q0 -27 -21 -47t-49 -20q-29 0 -48 19.5t-19 47.5z" />
<glyph unicode="/" horiz-adv-x="798" d="M29 -43l630 1528h105l-631 -1528h-104z" />
<glyph unicode="0" horiz-adv-x="1208" d="M70 709q0 70 5.5 136t21 143t40 142.5t66 127.5t95.5 105.5t132 70t172 26.5t171.5 -26.5t131.5 -70t95.5 -105.5t66 -127.5t40 -142.5t21 -143t5.5 -136q0 -69 -5.5 -133.5t-21 -139t-40 -138t-66 -123t-95.5 -101.5t-131.5 -67t-171.5 -25t-172 25t-132 67t-95.5 101.5 t-66 123t-40 138t-21 139t-5.5 133.5zM188 709q0 -169 26.5 -298.5t67 -205.5t97.5 -124t110.5 -64.5t112.5 -16.5q50 0 95.5 12t93.5 40.5t87 82t70.5 129t48.5 189.5t17 256q0 170 -26.5 302.5t-67.5 212t-97.5 130.5t-110 69.5t-110.5 18.5q-60 0 -114.5 -18.5 t-110.5 -69.5t-96.5 -130.5t-66.5 -211.5t-26 -303z" />
<glyph unicode="1" horiz-adv-x="665" d="M92 1243l232 217h67v-1284q0 -46 9.5 -77.5t21.5 -47.5t35 -24t38.5 -9.5t43.5 -1.5v-16h-392v16q30 0 48 2t38.5 10.5t31.5 25.5t18.5 47.5t7.5 74.5v1065q0 45 -7.5 64.5t-30 17.5t-57 -24t-94.5 -70z" />
<glyph unicode="2" horiz-adv-x="921" d="M80 0l436 680q199 279 156 477q-26 123 -137 179q-103 53 -217 21q-119 -32 -173 -139q-33 -64 -34 -147l-27 4q-1 65 11.5 120.5t33 93t48 67.5t58 47.5t61 30t58 17.5t49 7.5t33.5 1.5h13q151 0 251.5 -100t100.5 -242q0 -22 -2.5 -43t-11 -45t-14.5 -42t-23 -47 t-27 -46t-35.5 -54t-38.5 -55t-46 -65t-50 -70q-42 -60 -133 -198.5t-162 -247.5l-70 -109h459q57 0 110 29.5t85 87.5h16l-57 -213h-721z" />
<glyph unicode="3" horiz-adv-x="991" d="M90 1128q0 53 11.5 98.5t29.5 77.5t45.5 57.5t53 41.5t59.5 27.5t58.5 17t55.5 8.5t44.5 3.5t31.5 0.5q89 0 161 -44.5t112 -112.5t49 -151.5t-14.5 -160t-91.5 -139t-171 -86.5q172 -21 270.5 -131.5t98.5 -247.5q0 -84 -21.5 -150.5t-60 -109.5t-84 -73t-100.5 -45 t-102 -21t-97 -6q-122 0 -208 42.5t-111 88.5q-17 39 10 77q20 23 50.5 26.5t53.5 -15.5q23 -20 26 -50t-16 -55q-18 -21 -47 -24l2 -3q29 -28 102 -50q65 -19 138 -19q83 0 145 18t110.5 59.5t70 117.5t14.5 186q-5 68 -27.5 126.5t-67 109.5t-122.5 80.5t-182 29.5v25 q69 0 130.5 28t104 74t66.5 106.5t24.5 122.5t-28 126t-86.5 114q-61 53 -144 61.5t-154 -21t-119.5 -93t-45.5 -142.5h-27z" />
<glyph unicode="4" horiz-adv-x="1050" d="M59 432v25l668 985h59v-938h183v-72h-183v-233q0 -52 6.5 -86.5t15.5 -53.5t28.5 -28t36 -11t47.5 -2v-18h-375v18q38 0 58 4t40 20t27.5 51.5t7.5 94.5v244h-619zM130.5 511.5q3.5 -7.5 55.5 -7.5h492v823l-520 -764q-31 -44 -27.5 -51.5z" />
<glyph unicode="5" horiz-adv-x="1103" d="M127 207q17 27 47.5 34t58.5 -10q26 -17 32 -48.5t-9 -57.5q-15 -25 -53 -29q-15 -1 15.5 -25t102.5 -47.5t156 -23.5q89 0 176 35t154 102.5t92 165.5t-10 223q-39 122 -144 190t-259.5 73t-352.5 -56l94 709h709l-21 -111h-673l-68 -481q150 51 295.5 51.5t255.5 -43 t185.5 -124.5t93.5 -187q20 -122 -5 -221t-79.5 -161.5t-131.5 -105t-155 -60t-156 -17.5q-76 0 -143.5 18t-108.5 43.5t-65 46t-31 33.5q-25 48 -2 84z" />
<glyph unicode="6" horiz-adv-x="1032" d="M86 651q0 121 18.5 236t57.5 219.5t94 182.5t135 124.5t174 46.5q235 0 268 -125l1 -4q6 -19 -1 -43.5t-24 -36.5q-25 -20 -57 -16t-52 29q-18 25 -14.5 55.5t27.5 50.5q30 19 55 16q4 -1 4 2q-1 13 -37 28q-43 19 -108 24q-204 18 -318 -202t-114 -656q39 139 123 217 t241 78q84 0 151 -26.5t109.5 -69t71 -100t40 -115.5t11.5 -120q0 -238 -101 -351t-315 -113q-102 0 -178.5 31t-126 86.5t-80 140.5t-43 184t-12.5 227zM195 496q0 -261 83.5 -378.5t247.5 -117.5q48 0 91.5 12.5t84 43t70 77t47 119t17.5 164.5q0 100 -18 175t-45.5 117.5 t-67 69t-75.5 35t-77 8.5q-75 0 -135 -22t-97 -54.5t-64.5 -78.5t-40.5 -86t-21 -84z" />
<glyph unicode="7" horiz-adv-x="1124" d="M96 1231l29 211h924l-58 -92q-220 -391 -320 -719.5t-100 -630.5h-137q38 343 158.5 653.5t376.5 696.5h-693q-58 0 -88.5 -13t-40.5 -29.5t-27 -63.5q-3 -9 -5 -13h-19z" />
<glyph unicode="8" horiz-adv-x="1054" d="M74 342q0 128 102.5 238t267.5 174q-168 95 -223 169t-55 210q0 151 105 239t253 88q177 0 267 -93t90 -247q0 -88 -93.5 -192t-197.5 -133q62 -31 102.5 -53t91.5 -54.5t83 -64t61.5 -71.5t43 -87.5t13.5 -102.5q0 -96 -33.5 -169.5t-93.5 -119t-139.5 -68.5t-175.5 -23 q-469 0 -469 360zM166 344q0 -81 23.5 -143.5t60 -99.5t88 -60.5t101 -32t104.5 -8.5q29 0 62 5t75 17.5t79 37.5t68.5 59.5t49 89t16.5 121.5q-2 56 -16 96t-54 84.5t-110 90.5t-185 106q-44 23 -67 36q-37 -16 -66 -31.5t-75.5 -50.5t-77 -75t-53.5 -104t-23 -138z M240 1200q0 -67 15 -120.5t40 -91.5t68.5 -71.5t88.5 -56.5t113 -51q26 4 65.5 29t81 64t69.5 99t26 123q-2 75 -19.5 132t-44 91.5t-64 56.5t-75 30t-80.5 8q-69 0 -133 -28.5t-107.5 -85t-43.5 -128.5z" />
<glyph unicode="9" horiz-adv-x="1013" d="M74 1006q0 454 415 454q103 0 177.5 -27t123 -76t77 -129t40 -174.5t11.5 -222.5q0 -205 -25 -359t-78 -265.5t-139.5 -168t-206.5 -56.5q-70 0 -124.5 14.5t-82 31.5t-48 43t-24.5 36t-8 24q-6 19 1 43.5t24 36.5q25 20 56.5 16.5t51.5 -28.5q19 -25 15 -56t-27 -51 q-30 -19 -55 -16q-3 1 -3 -2q1 -12 32 -32q52 -34 131 -40q138 -12 224 63t131.5 269t45.5 526q-19 -67 -44 -115.5t-65 -89.5t-100.5 -61.5t-142.5 -20.5q-84 0 -151 26.5t-109.5 69.5t-71 100.5t-40 116t-11.5 120.5zM180 1036q0 -100 18 -175t45.5 -118t67 -70 t75.5 -35.5t77 -8.5q54 0 99.5 11.5t77 28t58.5 45t43 53t30.5 61t21.5 59.5t16 59q0 263 -79 379.5t-241 116.5q-60 0 -114 -24.5t-98 -72.5t-70.5 -128t-26.5 -181z" />
<glyph unicode=":" horiz-adv-x="339" d="M109 217q0 31 19 51.5t48 20.5q28 0 49 -21t21 -51q0 -27 -21 -47t-49 -20q-29 0 -48 19.5t-19 47.5zM109 717q0 31 19 51t48 20q28 0 49 -20.5t21 -50.5q0 -28 -21 -48t-49 -20q-29 0 -48 20t-19 48z" />
<glyph unicode=";" horiz-adv-x="339" d="M100 -76q45 29 72 62.5t33.5 61t4.5 51t-11.5 37.5t-20.5 16q-3 1 -11.5 2.5t-13 2.5t-11.5 4.5t-13 8.5q-23 18 -23 48t21 52q22 22 51 22t49 -22q33 -31 34 -99t-32 -132q-1 -2 -9.5 -15.5t-11 -17.5t-11.5 -16t-16 -18.5t-19 -16.5t-26.5 -19t-31.5 -18zM109 717 q0 31 19 51t48 20q28 0 49 -20.5t21 -50.5q0 -28 -21 -48t-49 -20q-29 0 -48 20t-19 48z" />
<glyph unicode="&#x3c;" horiz-adv-x="1228" d="M94 500v88l1039 532v-94l-940 -481l940 -488v-90z" />
<glyph unicode="=" horiz-adv-x="1255" d="M113 272v88h1046v-88h-1046zM113 733v88h1046v-88h-1046z" />
<glyph unicode="&#x3e;" horiz-adv-x="1228" d="M96 -33v90l940 488l-940 483v92l1039 -532v-88z" />
<glyph unicode="?" horiz-adv-x="1163" d="M166 1284q6 30 46.5 79.5t102.5 76.5q122 54 239 56t206.5 -41.5t146.5 -133t64 -209.5q2 -61 -10 -117.5t-30 -97t-51 -81.5t-57.5 -64.5t-66 -52.5t-59.5 -39.5t-54 -30.5q-132 -74 -115 -287l-28 -4q-6 41 -7 70.5t5 75t33 89.5t73 82q11 9 36 29q37 29 57.5 47 t53.5 57.5t49 79t26 101.5t3 135q-9 112 -47.5 189t-91.5 113.5t-119.5 48.5t-127 3.5t-117.5 -31.5q-79 -30 -90 -72q-6 -25 13 -31q3 -1 5 -1q26 0 47 -31q19 -26 13.5 -57.5t-31.5 -50.5t-58 -12.5t-51 32.5q-23 32 -8 80zM438 68q0 -36 25 -61t61 -25q37 0 62.5 24.5 t25.5 61.5q0 35 -25.5 60.5t-62.5 25.5q-35 0 -60.5 -25.5t-25.5 -60.5z" />
<glyph unicode="@" horiz-adv-x="1763" d="M102 352q13 170 72.5 312.5t152.5 242t214.5 167.5t259 97.5t284.5 24.5q133 -5 246.5 -57t193.5 -141.5t114 -224.5t8 -294q-19 -116 -60 -207t-89 -144t-105 -87.5t-102.5 -46.5t-86.5 -12q-69 0 -98.5 23.5t-22.5 84.5q-20 -36 -76.5 -72t-140.5 -36q-114 0 -189 83.5 t-69 223.5q8 195 127.5 333.5t290.5 137.5q44 -1 80.5 -8.5t57.5 -18t35 -21t19 -17.5l5 -7l16 53l84 2q-125 -538 -141 -612q-22 -113 67 -113q31 0 66 9t83 39.5t89 78.5t79.5 135.5t59.5 200.5q10 57 10.5 115t-11 121.5t-35 121t-66 111t-99.5 94.5t-139 69t-182 36 q-176 14 -329 -35t-264.5 -151t-184 -252t-93.5 -334q-1 -9 -3 -25t-2.5 -65.5t4 -98t20.5 -115.5t43 -126t76 -121t114 -108t163 -80.5t218 -45.5q150 -15 281 27.5t188 91.5l11 -12q-6 -5 -18 -14.5t-56 -32.5t-95 -41t-136.5 -32.5t-180.5 -14.5q-66 0 -138 12.5 t-150 40.5t-149.5 70t-134.5 106.5t-107.5 143t-66 185.5t-12.5 230zM733 251q6 -58 20.5 -97t42.5 -64t58 -37t66 -16q33 -3 62.5 5t48 21.5t33 28t20.5 24.5l6 11l98 418q0 11 2 33t-7 49.5t-22.5 52.5t-45 42t-73.5 17q-105 0 -190 -90.5t-111 -261.5q-14 -78 -8 -136z " />
<glyph unicode="A" d="M35 0v18q35 0 57 7.5t50 34t55.5 80.5t63 144t81.5 228l332 930h8l489 -1239q46 -115 79.5 -148.5t84.5 -36.5v-18h-348v18q22 0 36.5 3t28.5 17q12 14 14 39q0 3 1 6q0 24 -10 66q-11 47 -39 113l-80 209h-576q-75 -217 -87 -279q-6 -32 -6 -58q0 -60 34 -86 q41 -30 141 -30v-18h-409zM369 489h563l-291 760z" />
<glyph unicode="B" horiz-adv-x="1091" d="M76 0v18q66 0 92.5 44t26.5 149v1030q0 97 -26.5 139.5t-92.5 42.5v19h319q78 0 137 -5t119.5 -18t102.5 -38t76 -63t50.5 -95.5t16.5 -132.5q0 -68 -15.5 -123.5t-39.5 -91.5t-57 -62.5t-62.5 -40t-62 -21.5t-50 -10t-30.5 -2q34 0 65 -2.5t74.5 -11.5t79.5 -24.5 t73 -44t62.5 -66t42 -95t16.5 -128.5q0 -74 -15.5 -131t-40 -96t-70 -65.5t-87.5 -41t-112.5 -22t-126.5 -9.5t-146 -2h-319zM315 18h103h5q60 0 90.5 1t83 7.5t80 19.5t63.5 38.5t54 63t31 95t13 132.5q0 55 -7 101t-18 79.5t-30.5 59.5t-37.5 43.5t-46 29.5t-50 18.5 t-55 10t-55 4t-56 0.5h-168v-703zM315 739h168q48 0 81.5 6t69.5 26.5t57.5 57.5t35.5 103t14 158q0 86 -19.5 148.5t-49 97.5t-75 55t-86 26t-93.5 6h-103v-684z" />
<glyph unicode="C" horiz-adv-x="1339" d="M82 721q0 188 52.5 331.5t149 231.5t224.5 132t285 44q166 0 263.5 -25t190.5 -100l-18 -311h-19q0 82 -18.5 148.5t-47 109t-69 74t-77.5 47.5t-81 25.5t-70 11.5t-54 2q-52 0 -95 -4t-102.5 -21t-106 -45.5t-95.5 -83t-81.5 -128.5t-53.5 -186.5t-21 -252.5 q0 -113 13 -207.5t34 -163.5t54 -124t66 -91t77 -62.5t80 -40t82.5 -21.5t77.5 -9.5t71 -1.5q25 0 50 2t68.5 11.5t81 25.5t79 47.5t71 74.5t48.5 110t19 149h19l18 -311q-116 -76 -204.5 -101.5t-249.5 -25.5q-157 0 -285.5 45.5t-224 134.5t-148.5 231.5t-53 327.5z" />
<glyph unicode="D" horiz-adv-x="1292" d="M84 0v18q66 0 94.5 42.5t28.5 146.5v1034q0 96 -28 139t-95 43v19h340q93 0 171.5 -8.5t158.5 -30t143.5 -56.5t120 -90.5t94 -129.5t59 -177t21.5 -229q0 -134 -22 -241.5t-58.5 -182t-94 -129t-119 -86.5t-144.5 -51t-158.5 -25t-171.5 -6h-340zM334 18h90 q159 0 231 13q233 42 328 255q74 164 74 435q0 142 -23 254t-57.5 184.5t-91 124.5t-106 78.5t-122 41t-118.5 17t-115 2.5h-90v-1405z" />
<glyph unicode="E" horiz-adv-x="1085" d="M57 0v18q63 0 82 36.5t19 144.5v1089q0 51 -2.5 75.5t-15 39.5t-29 17.5t-54.5 2.5v19h879v-348h-18q0 69 -11 120t-26 86.5t-51 59t-66 36t-92 19t-107 7.5t-133 1h-149v-686h192q31 0 48.5 0.5t46 4.5t45.5 11.5t37.5 22t31.5 35.5t19 53.5t8 73.5h18v-420h-18 q0 41 -8 73.5t-20 53.5t-33 35.5t-38 22t-45.5 11.5t-45.5 4.5t-46 0.5h-192v-701h114q218 0 280 7q140 16 199 90q68 85 68 291h19v-406h-906z" />
<glyph unicode="F" horiz-adv-x="964" d="M51 0v18q63 0 82 36.5t19 144.5v1089q0 51 -2.5 75.5t-15 39.5t-29 17.5t-54.5 2.5v19h877v-348h-19q0 49 -4 89t-16 71.5t-22.5 55.5t-35 42t-41.5 30t-54 20t-60 12t-73 6t-79.5 2.5t-90.5 0.5h-9h-148v-686h191q31 0 48.5 0.5t46 4.5t45 11.5t37 22t31.5 35.5t19 53.5 t8 73.5h19v-420h-19q0 41 -8 73.5t-19 53.5t-31.5 35.5t-37.5 22t-45.5 11.5t-46 4.5t-47.5 0.5h-191v-504q0 -83 15.5 -126.5t42.5 -57t78 -13.5v-18h-361z" />
<glyph unicode="G" horiz-adv-x="1400" d="M80 721q0 125 23 234t73 202.5t123 160t178.5 104.5t235.5 38q137 0 231 -15t152.5 -39.5t128.5 -70.5l-21 -311h-18q0 105 -27 182t-69 121.5t-107 71t-127 35t-143 8.5q-74 0 -140 -20.5t-130 -72t-110 -131t-74 -207t-28 -290.5q0 -118 15 -217t40.5 -172t62 -130.5 t78.5 -95t90.5 -62t96.5 -34.5t99 -10q185 0 294 55t109 160q0 219 -10 267q-10 53 -47 65q-23 8 -96 8v18h385v-18q-63 0 -82 -12q-32 -21 -40 -118q-7 -78 -7 -357q-223 -86 -506 -86q-130 0 -235.5 38t-178.5 104.5t-123 160t-73 202.5t-23 234z" />
<glyph unicode="H" horiz-adv-x="1193" d="M53 0v18q31 8 46.5 13t31 18.5t20.5 25.5t9.5 44.5t5 64t0.5 95.5v888q0 84 -3.5 127.5t-17 73t-33.5 40t-59 17.5v17h299v-17q-34 -11 -45 -23.5t-17.5 -63t-6.5 -171.5v-458h628v458q0 121 -6.5 171.5t-17.5 63t-45 23.5v17h297v-17q-24 -4 -33 -6t-24.5 -8t-20 -12 t-13.5 -20t-10.5 -30t-5 -43.5t-4 -59.5t-0.5 -79v-888q0 -49 1 -76.5t4.5 -59t10.5 -48t19.5 -33.5t30.5 -27t45 -17v-18h-297v18q42 15 55.5 65t13.5 196v399h-628v-399q0 -91 1.5 -138t10.5 -73.5t17.5 -32.5t31.5 -14q5 -2 8 -3v-18h-299z" />
<glyph unicode="I" horiz-adv-x="499" d="M80 0v18q67 0 90 34.5t23 137.5v1094q0 64 -10.5 93.5t-32 38.5t-70.5 9v17h348v-17q-69 0 -91 -24.5t-22 -116.5v-1094q0 -103 23.5 -137.5t89.5 -34.5v-18h-348z" />
<glyph unicode="J" horiz-adv-x="684" d="M-12 -326q58 21 104.5 49t93.5 79t78.5 118t51.5 170t20 232v665q0 302 -19 370t-118 68v17h401v-17q-147 0 -147 -188v-864q0 -343 -105.5 -511t-353.5 -204z" />
<glyph unicode="K" horiz-adv-x="1320" d="M84 0h358v18q-70 0 -96.5 31t-26.5 131v1104q0 30 3.5 52.5t7.5 37.5t15.5 25t18.5 15.5t25 8t28 2.5h34h14v17h-381v-17q70 0 92.5 -25t22.5 -116v-1104q0 -101 -24 -131.5t-91 -30.5v-18zM422 713l233 284q169 198 213 272q32 54 32 88.5t-32 50.5q-34 17 -102 17v17 h451v-17q-36 0 -67 -8t-61.5 -22.5t-72 -52.5t-80.5 -78.5t-106 -122t-130 -161t-170 -216.5l484 -649q24 -31 58.5 -52t67 -29.5t61 -12.5t45.5 -3h18v-18h-115q-42 0 -73.5 2.5t-63 12.5t-53.5 19.5t-51 35t-49 46.5t-54.5 66.5t-60.5 82.5t-74 106z" />
<glyph unicode="L" horiz-adv-x="1091" d="M88 1425v17h324v-17q-66 0 -88.5 -36t-22.5 -146v-1225h74h123t106.5 3t91.5 8t76.5 15.5t62.5 26t49.5 39t37 54t26 72t15 93t4.5 115.5h16v-444h-879v18q39 0 57 22t20.5 50.5t2.5 100.5v11v10v11v1039q0 99 -16.5 131t-79.5 32z" />
<glyph unicode="M" horiz-adv-x="1703" d="M53 0v18q43 0 69.5 2t57 9t48 20.5t36.5 37.5t28.5 59t18.5 86t12 117t3 153v792q-18 31 -38.5 54t-44.5 36.5t-39.5 21.5t-42.5 11.5t-32 4t-29 1.5v19h299l570 -1280l405 1280h275v-19q-37 0 -62.5 -7t-49 -25t-35 -55t-11.5 -93v-1012q0 -69 12.5 -114t38 -65.5 t51.5 -27t64 -6.5v-18h-430v18q37 0 60 6.5t45 27t32 65t10 114.5v1151l-444 -1400h-17l-569 1278v-758q0 -141 10.5 -232t25.5 -142.5t51 -75.5t67 -29t94 -5v-18h-539z" />
<glyph unicode="N" horiz-adv-x="1529" d="M10 1425v17h256l946 -1268v768q0 91 -0.5 131.5t-3.5 103t-9.5 87t-19 61.5t-30 49t-45.5 28t-63.5 19.5t-84.5 3.5v17h549v-17q-60 0 -101.5 -8t-72.5 -17.5t-49.5 -42t-29.5 -55t-15 -85t-5 -103.5t-1 -138v-34v-942h-23l-848 1120v-618q0 -85 0.5 -126t4 -101 t10 -86.5t18.5 -63t30.5 -51t46 -30.5t64 -21t84.5 -5v-18h-561v18q43 0 77 3t61.5 13t48 18t36 30.5t26 38t17.5 52.5t11 61t5.5 76.5t2 87.5t0.5 104v643l-88 117q-44 55 -80 89.5t-67 49t-45.5 18t-42.5 5.5q-6 1 -9 1z" />
<glyph unicode="O" horiz-adv-x="1429" d="M86 711q0 125 21.5 234t69 204.5t119 164t177.5 107.5t238 39t238 -39t177 -107.5t119 -164t69 -204.5t21 -234t-21.5 -232.5t-69 -200t-119 -157.5t-177 -102t-237.5 -37t-238 37t-177.5 102t-119 157.5t-69 200t-21.5 232.5zM205 711q0 -163 29.5 -289.5t77.5 -204.5 t115.5 -128t136.5 -69.5t147 -19.5q64 0 121.5 14t115.5 45t104.5 86t83 131t56.5 187t20 248q0 162 -29 290.5t-77 209.5t-114.5 134.5t-135.5 75t-145 21.5q-77 0 -146.5 -21.5t-136.5 -75t-115.5 -134.5t-78 -209.5t-29.5 -290.5z" />
<glyph unicode="P" horiz-adv-x="1058" d="M63 0h406v18h-70t-45 11t-29.5 18.5t-12.5 43.5t-7 64v100v26v340q143 0 228 5.5t178.5 27.5t142.5 65t81 119.5t32 189.5q0 114 -32 191.5t-81 121.5t-142 66.5t-179 28.5t-228 6h-223v-17h14q24 0 34.5 0.5t25 -3t19 -4.5t11.5 -11.5t8 -17t3 -27.5t2 -36v-50v-1006 q0 -48 -1 -82.5t-5 -62t-7 -45t-13 -30t-17 -18.5t-24.5 -9.5t-30 -4t-38.5 -0.5v-18zM305 639v786q188 0 254 -9q172 -24 240 -134q57 -91 57 -254q0 -82 -16 -144t-37.5 -103t-67 -69t-80 -42.5t-103 -21.5t-109.5 -8t-125 -1h-13z" />
<glyph unicode="Q" horiz-adv-x="1406" d="M84 711q0 125 21.5 234t69 204.5t119 164t177.5 107.5t238 39t238 -39t177 -107.5t119 -164t69 -204.5t21 -234t-21.5 -232.5t-69 -200t-119 -157.5t-177 -102t-237.5 -37t-238 37t-177.5 102t-119 157.5t-69 200t-21.5 232.5zM201 -238l16 -16q51 33 158 57q51 12 94 12 q47 0 84 -14l139 -63q92 -42 143.5 -64t108 -40.5t88.5 -21.5q12 -2 27 -2q20 0 43 3q39 5 69.5 21t71.5 44l90 68l-14 12q-26 -20 -50.5 -33t-60.5 -25q-30 -9 -66 -9q-8 0 -16 1q-46 2 -98 19l-268 99q-13 6 -37 14t-93 21.5t-134 14.5h-3q-64 0 -145 -23 q-83 -23 -147 -75zM203 711q0 -163 29.5 -289.5t77.5 -204.5t115.5 -128t136.5 -69.5t147 -19.5q64 0 121.5 14t115.5 45t104.5 86t83 131t56.5 187t20 248q0 162 -29 290.5t-77 209.5t-114.5 134.5t-135.5 75t-145 21.5q-77 0 -146.5 -21.5t-136.5 -75t-115.5 -134.5 t-78 -209.5t-29.5 -290.5z" />
<glyph unicode="R" horiz-adv-x="1112" d="M49 0v18q31 0 45.5 3t29.5 13t20.5 34.5t8.5 62.5t3 102v1061q0 49 -3 74t-17.5 38t-30.5 15t-56 2v19h273q82 0 142.5 -3t119 -10.5t99.5 -20.5t78 -33.5t60.5 -49.5t41 -68.5t25 -90.5t7.5 -115q0 -110 -28 -187t-80.5 -117.5t-114 -57.5t-140.5 -17q16 -3 41 -5.5 t41.5 -4t40 -7t40.5 -14t38 -25.5t37.5 -40.5t35 -59.5t34 -83t31 -111t28.5 -142q8 -32 22 -58t26 -42t32.5 -28t31.5 -17.5t34 -10t28.5 -4.5t26.5 -2v-18h-123q-81 0 -107 12q-37 19 -61 95q-18 55 -60 263q-10 49 -16 76q-9 45 -30 81t-45.5 58.5t-60 39t-63 24 t-67.5 12t-60.5 5t-52.5 0.5h-96v-486q0 -55 5 -86.5t19.5 -48.5t34 -22t54.5 -5v-18h-322zM258 684h64h8q74 0 109 1t92.5 7.5t85.5 20t64.5 40t53 65.5t29 97.5t12.5 135.5q0 61 -8 111t-18 86.5t-34 65t-40.5 47t-53 31t-57 18.5t-67.5 9.5t-69 3.5h-75h-32h-64v-739z " />
<glyph unicode="S" horiz-adv-x="1026" d="M64 1152q2 32 11.5 70t30.5 76q4 7 12.5 17.5t39 38.5t67.5 49.5t99 39t131 17.5q68 0 135.5 -9.5t114.5 -23.5t84.5 -28t56.5 -23l18 -10v-344h-20q0 70 -3 117t-12 95t-26.5 78t-45.5 57t-70 41.5t-99 23t-133 8.5q-55 0 -110 -23.5t-99 -62.5q-44 -38 -68 -92 q-22 -49 -22 -102v-9q2 -57 45 -120.5t127 -117.5l360 -235q80 -53 133 -115t75 -118q22 -55 26 -113q1 -16 1 -31q1 -39 -7 -71q-10 -44 -31 -82q-3 -7 -10 -18t-37 -40t-69 -51.5t-110.5 -40.5t-156.5 -18q-76 0 -146.5 10.5t-117.5 26t-83 31t-53 26.5l-16 10v393h16 q0 -98 6 -166t23.5 -124.5t45 -90t73 -57t105.5 -32.5t145 -9q97 0 169.5 30t110 78t51.5 109q7 32 7 63q0 29 -6 59q-13 61 -50 118t-94 96l-362 242q-7 6 -33 25.5t-41.5 31.5t-43 35.5t-44.5 42t-39 47t-33 53.5q-10 25 -20 58q-8 28 -9 56q1 4 1 8z" />
<glyph unicode="T" horiz-adv-x="1239" d="M39 1133v309h1159v-309h-18q0 61 -14.5 109t-35.5 78t-53.5 51.5t-57.5 31.5t-60 15.5t-49.5 6t-35.5 0.5h-202v-1275q0 -39 5.5 -64t12.5 -39t25.5 -20.5t33 -7.5t46.5 -1v-18h-355v18q32 0 46.5 1t33 7.5t25.5 20.5t12.5 39t5.5 64v1275h-203q-114 0 -166 -19 q-139 -51 -139 -273h-16z" />
<glyph unicode="U" horiz-adv-x="1329" d="M25 1423v19h368v-19q-32 0 -48.5 -2t-36.5 -11t-28.5 -27.5t-15 -53t-6.5 -86.5v-784q0 -199 107.5 -307.5t296.5 -108.5q194 0 297.5 114t103.5 318v506q0 81 -0.5 130.5t-4.5 101t-9 79t-16.5 55t-25 39t-37 22t-49.5 13t-65 2.5v19h444v-19q-158 0 -188.5 -63.5 t-30.5 -340.5v-38v-506v-7q0 -222 -124 -353q-126 -133 -365 -133q-197 0 -319.5 127.5t-122.5 369.5v770q0 109 -26.5 141.5t-98.5 32.5z" />
<glyph unicode="V" horiz-adv-x="1441" d="M27 1423v19h448v-19q-48 0 -81.5 -10.5t-49 -25t-21.5 -33t-5.5 -32t4.5 -24.5l413 -1173l293 809q82 243 95 296q12 49 12 84q0 47 -21 70q-37 39 -156 39v19h437v-19h-48t-39.5 -4.5t-34 -7.5t-29 -19t-27.5 -28.5t-26 -45.5t-29 -61t-31.5 -84t-38.5 -105.5 t-45 -133.5l-338 -934h-23l-467 1290q-18 47 -37.5 75t-46 40t-48 15t-60.5 3z" />
<glyph unicode="W" horiz-adv-x="2027" d="M29 1423v19h450v-19q-51 0 -86 -9.5t-50 -22t-20.5 -30t-4 -29t5.5 -23.5l409 -1170l258 826l-96 305q-34 90 -83 121.5t-120 31.5v19h449v-19q-43 0 -74.5 -6t-47.5 -17.5t-25.5 -22t-10.5 -26t-0.5 -23.5t2.5 -19l381 -1176l270 803q76 254 86 326q4 25 4 45 q0 65 -36 90q-38 26 -131 26v19h436v-19q-48 0 -77 -3t-56 -18.5t-42 -34t-35 -63t-35.5 -90t-43.5 -130.5q-10 -30 -15.5 -47.5t-15 -47t-18.5 -55.5l-318 -934h-22l-316 938l-290 -938h-25l-455 1270q-34 90 -82 121.5t-120 31.5z" />
<glyph unicode="X" horiz-adv-x="1343" d="M45 0v16q36 0 54.5 0.5t46.5 9t43 18.5t44.5 39t51 59.5t63.5 92t81 123.5t103 166l117 189l-313 512q-30 49 -52.5 82t-44 55t-36.5 34t-35.5 18.5t-35 7.5t-42.5 1v19h404v-19q-26 0 -41.5 -2.5t-31 -15.5t-15.5 -37t17 -70.5t56 -111.5l221 -393l95 161 q149 269 169 357q4 18 4 34q0 49 -41 65q-33 13 -102 13v19h467v-19q-60 0 -85 -2t-62 -15t-59.5 -40t-61.5 -79t-84.5 -129t-114.5 -193q-2 -3 -3 -5l-2.5 -5t-3 -5.5t-3.5 -5.5l-100 -170l325 -561q19 -32 34.5 -56.5t28.5 -44t27 -33.5t23 -24t24.5 -16.5t22.5 -10t27 -6 t28.5 -3.5t34.5 -3v-16h-377v16q49 0 68.5 19.5t10.5 56.5t-26.5 71.5t-48.5 84.5l-253 446l-113 -184q-155 -293 -182 -364q-18 -46 -18 -75q0 -25 14 -36q27 -19 124 -19v-16h-442z" />
<glyph unicode="Y" horiz-adv-x="1255" d="M18 1425v17h398v-17h-6q-21 0 -32.5 -0.5t-30.5 -5t-26.5 -12.5t-14 -24.5t-1.5 -40.5t20.5 -61t43.5 -85l313 -549l176 357q29 59 47.5 99.5t36 85t23 73t6 57.5t-12 46.5t-34 31.5t-56.5 20t-84 6v19h441v-19q-67 0 -92 -11q-45 -20 -102 -114q-51 -84 -167 -321 l-178 -361v-403q0 -32 2 -58t4.5 -45t9.5 -33.5t11.5 -24t16 -16t18 -10t22 -5t23.5 -1.5h28v-20h-354v20h28t23.5 1.5t21.5 5t17.5 10t16 16t11 24t9 33.5t4.5 45t2 58v401l-373 654q-41 70 -74.5 104t-53 40.5t-64.5 10.5q-11 1 -17 2z" />
<glyph unicode="Z" horiz-adv-x="1050" d="M115 0l741 1423h-104q-106 0 -165.5 -1t-128.5 -7.5t-102.5 -16t-72.5 -30.5t-56 -47.5t-36 -70.5t-28 -95.5t-18 -126.5h-30l32 414h811l-702 -1422q97 0 151 0.5t123.5 4.5t104 9.5t81 18t67 28.5t49 43t41 58t28.5 77t24.5 97.5t18.5 122.5h31l-49 -479h-811z" />
<glyph unicode="[" horiz-adv-x="579" d="M231 -299v1804h318v-20q-43 0 -66.5 -1.5t-57 -10.5t-50.5 -26.5t-30 -51.5t-13 -84v-1434q0 -43 13.5 -73.5t31.5 -46.5t50.5 -24.5t57.5 -10t64 -1.5v-20h-318z" />
<glyph unicode="\" horiz-adv-x="798" d="M29 1487h96l631 -1528h-97z" />
<glyph unicode="]" horiz-adv-x="583" d="M23 -279q39 0 64 1.5t57.5 10t50.5 24.5t31.5 46.5t13.5 73.5v1434q0 50 -13 84t-30 51.5t-50.5 26.5t-57 10.5t-66.5 1.5v20h317v-1804h-317v20z" />
<glyph unicode="^" horiz-adv-x="1134" d="M182 770l355 672h47l358 -672h-31l-352 524l-346 -524h-31z" />
<glyph unicode="_" horiz-adv-x="1146" d="M0 -172h1147v-64h-1147v64z" />
<glyph unicode="`" horiz-adv-x="632" d="M68 1438l100 28l379 -327h-17z" />
<glyph unicode="a" horiz-adv-x="911" d="M84 195q0 55 22 99t60 77t106 63.5t141.5 53.5t186.5 53v110q0 165 -72 241q-42 44 -104 45q-46 0 -102 -24q-43 -20 -69 -42.5t-32 -35.5t0 -14q33 -7 49 -26q20 -23 18 -54t-26 -53q-23 -21 -52.5 -18.5t-49.5 26.5q-20 26 -20 51q0 13 5 27q7 17 21.5 37.5t51.5 54 t87 60.5q37 18 82 28t71 10l27 1q65 0 110 -29t70 -85.5t35.5 -127.5t10.5 -168v-391q0 -5 0.5 -12.5t5 -27.5t12.5 -35t26 -27.5t42 -12.5q2 0 5.5 0.5t13.5 4.5t18.5 10.5t17 21.5t12.5 35l17 -6q-9 -52 -45 -92.5t-95 -40.5h-15.5t-33.5 8.5t-43 25t-34 54t-15 90.5 q-20 -79 -99.5 -128.5t-185.5 -49.5q-5 0 -13 0.5t-32 4.5t-46 11t-48.5 23t-46 37.5t-32.5 57t-13 79.5zM186 227q0 -88 51 -137t140 -49q153 0 223 149v332q-211 -53 -312.5 -122t-101.5 -173z" />
<glyph unicode="b" horiz-adv-x="1044" d="M29 1442v18l204 35v-682q43 71 126 111.5t171 40.5q91 0 164.5 -29t121 -76.5t79.5 -112.5t45.5 -134t13.5 -144q0 -222 -127.5 -354.5t-326.5 -132.5q-156 0 -275 100q-51 -67 -79 -80q-13 -6 -13 8v1333q0 55 -21 77t-83 22zM233 285q0 -126 70.5 -205.5t188.5 -79.5 q40 0 81.5 11.5t86.5 42.5t79.5 77.5t57 124t22.5 174.5q0 230 -90.5 359t-236.5 129q-119 0 -189 -73.5t-70 -199.5v-360z" />
<glyph unicode="c" horiz-adv-x="952" d="M92 467q0 133 58 246.5t165.5 182.5t241.5 69q72 0 128 -13.5t85.5 -32t48.5 -42t24 -40.5t5 -30q0 -43 -37 -64q-24 -12 -54 -4.5t-40 31.5q-14 28 -6 55t34 39q31 12 52 4q4 -1 3 1q-1 11 -35 31q-80 46 -208 46q-33 0 -70.5 -8.5t-88 -39t-89.5 -79t-66.5 -138 t-27.5 -206.5q0 -94 21 -171.5t55 -127.5t78.5 -84.5t90.5 -49.5t93 -15q70 0 127.5 22t94.5 58.5t59.5 74.5t33.5 78l15 -2q-5 -33 -18.5 -67.5t-41 -73t-65 -67.5t-96.5 -48.5t-130 -19.5q-59 0 -118 15t-118 51.5t-103.5 90.5t-72.5 139t-28 189z" />
<glyph unicode="d" horiz-adv-x="1021" d="M82 483q0 113 35 204.5t96 152t144.5 93t181.5 32.5q145 0 258 -88v458q0 57 -22.5 82t-82.5 25v18l205 35v-1372q0 -50 8.5 -70t32 -24t63.5 2v-17l-147 -30q-25 -4 -39.5 5t-16.5 20l-1 11v99q-44 -64 -125 -100.5t-164 -36.5q-92 0 -165.5 28.5t-121.5 76t-80 113 t-45.5 136t-13.5 147.5zM217 522q0 -233 91.5 -363t238.5 -130q102 0 176 66.5t74 170.5v428q0 103 -75.5 177.5t-174.5 74.5q-41 0 -82 -10.5t-87 -39.5t-80.5 -74.5t-57.5 -123t-23 -176.5z" />
<glyph unicode="e" horiz-adv-x="935" d="M76 461q0 230 118.5 367t292.5 137q70 0 134 -29t117 -84.5t84.5 -148.5t31.5 -211h-657q0 -127 24.5 -220t70 -146.5t103 -78t129.5 -24.5q99 0 183 66t104 149l12 -2q-3 -27 -17 -59.5t-41.5 -67t-64 -63t-89.5 -46.5t-113 -18q-186 0 -304 129t-118 350zM197 512h555 q0 96 -20 174t-49.5 125t-67 79t-69.5 44t-59 12q-36 0 -74.5 -14t-77.5 -47.5t-69.5 -82t-49.5 -124t-19 -166.5z" />
<glyph unicode="f" horiz-adv-x="540" d="M25 946h133q0 323 58 449.5t220 126.5q52 0 98 -18t60 -36q14 -15 20 -40t0 -46q-9 -31 -37 -45.5t-59 -5.5t-46 36.5t-5 59.5t35 43q9 5 -12 19q-24 16 -54 16q-38 0 -63.5 -12t-48.5 -46.5t-36 -96.5t-20.5 -162t-7.5 -242h240l-4 -18h-236v-809q0 -19 2.5 -33.5 t4.5 -24.5t10.5 -17.5t11.5 -11.5t17.5 -7t18.5 -4t24.5 -2.5t25.5 -2.5v-16h-297v16q25 3 33.5 4t21 6.5t15 9.5t6.5 17.5t4 26v39.5v809h-131z" />
<glyph unicode="g" horiz-adv-x="1052" d="M45 -138q35 97 150 173q-78 38 -78 141q-1 6 -0.5 17t8 40t22.5 53.5t51 48.5t87 34q-81 36 -118.5 111t-37.5 165q0 129 106 224.5t267 95.5q81 0 156.5 -27.5t127.5 -73.5q33 50 84.5 78.5t92.5 28.5q50 0 73 -33q15 -25 10 -53t-28 -45q-24 -18 -53.5 -14t-44.5 28 q-20 27 -11 55q2 5 -7 7q-5 1 -11 1q-22 0 -53 -20q-26 -18 -41 -43q38 -37 59 -94t21 -115q0 -129 -105.5 -225t-269.5 -96q-121 0 -203 36q-62 -4 -101 -62q-26 -39 -26 -76q0 -21 8 -41q30 -78 159 -81h11h205q14 0 46 1h36q123 0 179 -18q107 -34 107 -142q0 -18 -3 -37 q0 -6 -1.5 -16.5t-14 -43t-33.5 -63t-66 -71.5t-105 -75q-131 -74 -263 -91q-45 -6 -86 -6q-79 0 -143 22q-96 34 -140 106q-36 61 -36 122q0 37 13 74zM129 -229q13 -35 45 -80q41 -48 129 -77q70 -23 153 -23q22 0 44 1q109 8 190 60q52 33 88.5 70.5t52 68t23.5 56.5 t8 41v14v5.5t-3.5 13.5t-10 19.5t-21.5 21t-35 19.5t-53.5 13.5t-74.5 5.5h-289q-96 0 -164 25q-99 -74 -99 -171q0 -39 17 -83zM246 645q0 -81 27 -143.5t68 -95.5t82.5 -49.5t78.5 -16.5q30 0 63 9.5t68.5 32.5t63 56.5t45.5 87t18 119.5q0 81 -27.5 143t-69.5 94.5 t-83 48t-78 15.5q-42 0 -84 -15.5t-82 -48.5t-65 -94.5t-25 -142.5z" />
<glyph unicode="h" horiz-adv-x="970" d="M33 1442v18l205 35v-772q19 96 107 169t192 73q139 0 223 -83.5t84 -258.5v-492q0 -25 0.5 -41t4 -28t5.5 -18t11 -11t14 -6t22 -4.5t27 -6.5v-16h-266v16q9 3 23.5 7t18.5 5t13 5t11 6t6.5 9t5 12t2 17t1.5 23v31v483q0 138 -65 216.5t-189 78.5q-51 0 -96.5 -23 t-76 -58.5t-49 -65.5t-29.5 -57v-574q0 -26 0.5 -41t3.5 -27.5t5 -18t11 -10t14.5 -6t22 -4.5t27.5 -6v-18h-269v18q10 3 23.5 6.5t18.5 5t13.5 5t11 5.5t7 8.5t5 12t2 17t1.5 23v30.5v1210q0 57 -20 79t-82 22z" />
<glyph unicode="i" horiz-adv-x="425" d="M61 913v17l203 35v-834q0 -26 0.5 -41t3.5 -27.5t5 -18t11 -10t14.5 -6t22 -4.5t27.5 -6v-18h-268v18q10 3 23.5 6.5t18.5 5t13.5 5t11 5.5t7 8.5t5 12t2 17t1.5 23v30.5v682q0 57 -19.5 78.5t-81.5 21.5zM125 1210q0 31 19.5 51.5t48.5 20.5q28 0 48.5 -21t20.5 -51 q0 -28 -20.5 -47.5t-48.5 -19.5q-29 0 -48.5 19.5t-19.5 47.5z" />
<glyph unicode="j" horiz-adv-x="432" d="M-37 -451q37 13 67.5 35.5t51 54.5t36 63t24.5 74t15 74t8 76.5t2.5 68t0.5 60.5v748q0 59 -18.5 84.5t-81.5 25.5v17l202 35v-863q0 -190 -35.5 -308.5t-100 -176t-171.5 -84.5v16zM131 1210q0 31 19.5 51.5t48.5 20.5q28 0 48.5 -21t20.5 -51q0 -28 -20.5 -47.5 t-48.5 -19.5q-29 0 -48.5 19.5t-19.5 47.5z" />
<glyph unicode="k" horiz-adv-x="956" d="M20 1442v18l205 35v-1364q0 -26 0.5 -41t3.5 -27.5t5 -18t11 -10t14.5 -6t22 -4.5t27.5 -6v-18h-268v18q10 3 23.5 6.5t18.5 5t13.5 5t11 5.5t7 8.5t5 12t2 17t1.5 23v30.5v1210q0 57 -20.5 79t-82.5 22zM295 467l192 190l51 49q101 105 101 162q0 20 -12 33 q-26 29 -105 29v16h426v-16q-104 0 -173.5 -50.5t-309.5 -291.5l-28 -28l-26 -26l-30 -30l397 -424q37 -39 68 -50.5t80 -11.5v-18h-76q-43 0 -76.5 8t-59.5 20t-64 47t-66.5 66t-91.5 101z" />
<glyph unicode="l" horiz-adv-x="403" d="M47 1442v18l205 35v-1364q0 -26 0.5 -41t3.5 -27.5t5 -18t11 -10t14.5 -6t22 -4.5t27.5 -6v-18h-268v18q10 3 23.5 6.5t18.5 5t13.5 5t11 5.5t7 8.5t5 12t2 17t1.5 23v30.5v1210q0 57 -20.5 79t-82.5 22z" />
<glyph unicode="m" horiz-adv-x="1435" d="M23 913v17l204 35v-209q27 89 102 149t169 60q225 0 266 -222q26 93 101 157.5t171 64.5q279 0 279 -342v-492q0 -25 0.5 -41t4 -28t5.5 -18t11 -11t14 -6t22 -4.5t27 -6.5v-16h-266v16q9 3 23.5 7t18.5 5t13 5t11 6t6.5 9t5 12t2 17t1.5 23v31v483q0 143 -51.5 219 t-171.5 76q-46 0 -85.5 -19t-66 -50.5t-42.5 -58.5t-29 -58q6 -44 6 -100v-492q0 -25 0.5 -41t4 -28t5.5 -18t11 -11t14 -6t22 -4.5t27 -6.5v-16h-266v16q9 3 23 7t19 5t14 5t10.5 6t6.5 9t5.5 12t2 17t1.5 23.5v30.5v483q0 144 -51 219.5t-172 75.5q-143 0 -224 -184v-594 q0 -26 0.5 -41t3.5 -27.5t5 -18t11 -10t14.5 -6t22 -4.5t27.5 -6v-18h-268v18q10 3 23.5 6.5t18.5 5t13.5 5t11 5.5t7 8.5t5 12t2 17t1.5 23v30.5v680q0 57 -20 79.5t-82 22.5z" />
<glyph unicode="n" horiz-adv-x="958" d="M23 913v17l204 35v-209q30 87 113 148t178 61q139 0 223 -83.5t84 -258.5v-492q0 -25 0.5 -41t4 -28t5.5 -18t11 -11t14 -6t22 -4.5t27 -6.5v-16h-266v16q9 3 23 7t19 5t14 5t10.5 6t6.5 9t5.5 12t2 17t1.5 23.5v30.5v483q0 138 -65 216.5t-189 78.5q-46 0 -88 -18.5 t-72 -49.5t-49.5 -58.5t-34.5 -57.5v-594q0 -26 0.5 -41t3.5 -27.5t5 -18t11 -10t14.5 -6t22 -4.5t27.5 -6v-18h-268v18q10 3 23.5 6.5t18.5 5t13.5 5t11 5.5t7 8.5t5 12t2 17t1.5 23v30.5v680q0 57 -20 79.5t-82 22.5z" />
<glyph unicode="o" horiz-adv-x="1093" d="M84 473q0 103 28 191t83 156t144 106.5t202 38.5q114 0 202.5 -38.5t143 -106.5t82.5 -156t28 -191t-28 -190.5t-82.5 -155.5t-143 -106.5t-202.5 -38.5q-91 0 -166.5 25.5t-129 70t-90 106.5t-54 135t-17.5 154zM201 473q0 -107 19.5 -191t52 -136t77.5 -86t91.5 -47 t99.5 -13t99.5 13t91 47t76.5 86t51.5 135.5t19.5 191.5t-19.5 191.5t-51.5 135.5t-76.5 86t-91 47t-99.5 13t-99.5 -13t-91.5 -47t-77.5 -86t-52 -136t-19.5 -191z" />
<glyph unicode="p" horiz-adv-x="1060" d="M35 913v17l205 35v-152q43 70 126 111t171 41q91 0 164.5 -28.5t121 -76.5t79.5 -113t45.5 -135t13.5 -147q0 -225 -127.5 -354t-327.5 -129q-152 0 -266 92v-486q0 -30 2 -46.5t3 -28t10 -17t13.5 -8t24.5 -6t31 -6.5v-19h-269v19q10 3 28.5 8t22.5 6t13.5 7t10.5 10.5 t4 17t3 25.5v38v1223q0 57 -20 79.5t-82 22.5zM240 266q5 -120 74.5 -193t183.5 -73q41 0 81.5 10.5t86 40t80 75.5t57 123.5t22.5 176.5q0 233 -91 362.5t-236 129.5q-114 0 -183 -68.5t-75 -187.5v-396z" />
<glyph unicode="q" horiz-adv-x="1034" d="M80 483q0 225 127.5 353.5t327.5 128.5q148 0 264 -91q18 40 59 65q34 19 37 -1v-1350q0 -30 2 -46.5t3 -28t10 -17t13.5 -8t24.5 -6t31 -6.5v-19h-268v19q10 3 28.5 8t22.5 6t13.5 7t10.5 10.5t4 17t3 25.5v38v531q-44 -64 -125 -100.5t-164 -36.5q-113 0 -198 43 t-132.5 116t-70.5 159t-23 183zM215 522q0 -233 90.5 -363t237.5 -130q95 0 167.5 58.5t82.5 152.5v483q-10 95 -83 159t-167 64q-41 0 -82 -10.5t-86.5 -39.5t-80 -74.5t-57 -123t-22.5 -176.5z" />
<glyph unicode="r" horiz-adv-x="655" d="M29 913v17l204 35v-197q33 81 129 143q82 53 157 53q12 0 24 -1q45 -6 67 -52q12 -31 0 -60t-43 -42q-30 -12 -60.5 0.5t-43.5 42.5q-9 28 0 57q5 14 -13 13q-39 -2 -102 -48q-85 -63 -115 -147v-596q0 -26 0.5 -41t3.5 -27.5t5 -18t11 -10t14.5 -6t22 -4.5t27.5 -6v-18 h-268v18q10 3 23.5 6.5t18.5 5t13.5 5t11 5.5t7 8.5t5 12t2 17t1.5 23v30.5v682q0 57 -20 78.5t-82 21.5z" />
<glyph unicode="s" horiz-adv-x="811" d="M96 51v299h17q0 -64 5.5 -110t25.5 -94.5t54.5 -78t96 -48.5t147.5 -19q102 0 151 41q44 37 44 87q-1 6 -1 11q-6 57 -43.5 116.5t-96.5 98.5l-207 125q-143 105 -181 181q-18 36 -18 77q0 45 21 97q2 5 6 14t23.5 31.5t45 40t74 31.5t107.5 14q105 0 187.5 -17 t113.5 -34l30 -17v-270h-16q0 55 -7 98t-27.5 86t-54.5 71.5t-91.5 46t-134.5 17.5q-73 0 -119 -24q-48 -24 -60 -62q-7 -22 -6 -47q0 -18 3 -37q9 -45 44.5 -90t87.5 -78l207 -129q141 -89 182 -197q15 -40 15 -78q0 -67 -45 -130q-3 -4 -8 -10t-25.5 -22t-45 -28t-66 -22 t-89.5 -10q-69 0 -130.5 7t-99 17t-65.5 20.5t-39 17.5z" />
<glyph unicode="t" horiz-adv-x="573" d="M37 946h106v309l103 13v-322h241l-4 -18h-237v-627q0 -101 22 -161.5t55 -81.5t83 -21q43 0 78 30t46 72l13 -4q-13 -67 -59.5 -110t-118.5 -43q-110 0 -166 68.5t-56 244.5v633h-104z" />
<glyph unicode="u" horiz-adv-x="987" d="M35 911v17l213 37v-672q0 -70 22 -122t59 -80.5t79.5 -42t89.5 -13.5q100 0 160 52t85 130v567v53.5t-4 34.5t-7.5 23t-17.5 10t-26.5 6h-40.5v17l199 37v-811q0 -73 19.5 -96t84.5 -31v-17l-164 -26q-20 -4 -31 1.5t-11 12.5l-1 8v168q-18 -80 -90.5 -136t-177.5 -56 q-45 0 -85 6t-86 25.5t-78.5 51.5t-54 89t-21.5 133v483v47t-2.5 34t-3.5 26t-9 16t-13 11t-21 4t-27.5 3h-38.5z" />
<glyph unicode="v" horiz-adv-x="1050" d="M6 930v16h367v-16q-44 0 -69.5 -13.5t-30 -33t-3 -38.5t7.5 -33l7 -13l307 -674l201 567q2 5 4.5 13.5t8 33.5t6 47.5t-5.5 49.5t-21.5 47t-47.5 33.5t-78 13.5v16h392v-16q-34 0 -50 -1t-38.5 -7t-35.5 -18.5t-31 -36.5t-35 -59t-38 -87l-264 -739h-10l-397 849 q-8 16 -17 28.5t-18.5 22l-17 17t-18.5 12t-17 8t-17 5.5t-14.5 3t-14.5 2t-12 1z" />
<glyph unicode="w" horiz-adv-x="1392" d="M33 930v16h303v-16q-31 0 -49 -11.5t-21.5 -28t-2.5 -33.5t5 -29l4 -11l265 -680l161 490l-71 176q-45 117 -119 127v16h303v-16q-38 0 -60 -12.5t-26 -31t-3 -36.5t6 -30l5 -13l260 -670l197 619l2.5 10t3.5 24t0.5 34.5t-9 36.5t-22 34.5t-41.5 24.5t-65 10v16h325v-16 q-29 0 -49 -5.5t-44 -23.5t-45.5 -57.5t-41.5 -102.5l-241 -759h-9q-210 525 -245 616l-203 -616h-10l-326 821q-46 115 -137 127z" />
<glyph unicode="x" horiz-adv-x="1011" d="M6 0v16q66 0 93 8q97 29 233 211q34 44 71 99l66 96l-258 371q-66 83 -98 106t-88 23v16h342v-16q-17 0 -30 -4t-22 -15t-9.5 -28t11.5 -46t37 -65l170 -246l64 95q94 150 111 187q17 36 17 61q0 28 -22 42q-31 19 -110 19v16h409v-16h-6q-31 0 -46 -1t-42 -6.5 t-45.5 -17.5t-47.5 -35t-57 -57.5t-65.5 -85.5t-81.5 -119l-67 -98l256 -369q12 -18 24.5 -33.5t23 -26.5t23.5 -20.5t21.5 -15.5t21 -11t18.5 -7.5t18.5 -5t16 -3t15.5 -1.5l12 -1v-16h-328v16q32 0 43.5 15t6 36.5t-15.5 43t-21 36.5l-11 15l-178 254l-63 -92 q-122 -184 -141 -233q-7 -18 -7 -32q0 -25 24 -34q22 -9 81 -9v-16h-369z" />
<glyph unicode="y" horiz-adv-x="1077" d="M23 930v16h364v-16q-44 0 -67.5 -17.5t-25.5 -43t2.5 -51t12.5 -42.5l8 -18l291 -629l164 469q3 7 6.5 19t11.5 47t12 66q1 15 1 31q0 19 -2 39q-4 39 -18 66.5t-47 45.5q-30 18 -76 18h-5v16h392v-16q-33 0 -55 -6t-46.5 -24.5t-46.5 -56t-48.5 -97.5t-59.5 -152 l-322 -907q-32 -99 -98 -152q-15 -12 -40 -15.5t-46 5.5q-29 13 -39.5 42t0.5 56q13 29 41.5 40t56.5 -1q14 -6 25 -19t14 -26q6 -28 33 3q22 27 39 73l106 307l-379 803q-53 114 -159 127z" />
<glyph unicode="z" horiz-adv-x="837" d="M61 676l11 270h645l-514 -930q60 0 97.5 0.5t85 3.5t76.5 9t64 16t56 25.5t43.5 37.5t35 51t23 67t14.5 85h21l-19 -311h-634l526 930q-57 0 -90 -0.5t-82.5 -3t-78.5 -7t-68.5 -13t-62.5 -21.5t-49 -32t-40.5 -44t-25 -58.5t-13.5 -74.5h-21z" />
<glyph unicode="{" horiz-adv-x="647" d="M100 569v9q8 3 27.5 9.5t27 10t24 12t24 19t19.5 28t17 41t11.5 55.5t9 75t2.5 96v239q0 168 67 246t197 96l2 -8q-72 -26 -117.5 -106t-45.5 -228v-295q0 -64 -16 -117t-39 -84.5t-50.5 -54t-48.5 -31t-35 -8.5q14 0 34.5 -6.5t48.5 -25.5t51 -47.5t39 -79t16 -113.5 v-295q0 -77 13.5 -137.5t37 -99t51.5 -62t61 -35.5l-2 -8q-130 18 -197 96t-67 246v240q0 45 -2.5 82t-6 65t-10.5 50.5t-13.5 38t-17.5 28t-18.5 19.5t-21.5 14t-22.5 10t-24.5 8t-25 8z" />
<glyph unicode="|" horiz-adv-x="397" d="M156 -336v1841h82v-1841h-82z" />
<glyph unicode="}" horiz-adv-x="643" d="M106 -330q72 25 118 105.5t46 228.5v295q0 63 16 113.5t39 79t51 47.5t48.5 25.5t34.5 6.5q-14 0 -35 8.5t-48.5 31t-50.5 54t-39 84.5t-16 117v295q0 273 -164 334l3 8q130 -18 197 -96t67 -246v-239q0 -48 2.5 -88t6 -69.5t11 -54.5t13 -41.5t17 -30t19 -21t22 -15 t22 -10.5t24.5 -8.5t25 -8.5v-8q-9 -3 -25 -8t-24.5 -8t-22.5 -10t-21.5 -14t-18.5 -19.5t-17.5 -28t-13.5 -38t-10.5 -50.5t-6 -65t-2.5 -82v-240q0 -168 -67 -246t-197 -96z" />
<glyph unicode="~" horiz-adv-x="1155" d="M129 457q28 74 75 119.5t94.5 57t91 12.5t70.5 -7l27 -8l226 -88q25 -11 67.5 -13.5t88.5 4.5t87 32t58 65l8 -2q-21 -55 -52 -94.5t-64 -58.5t-68.5 -29t-66.5 -9t-55.5 4.5t-39.5 7.5l-14 5l-224 88q-28 10 -68 14t-86 -1.5t-87.5 -31t-61.5 -69.5z" />
<glyph horiz-adv-x="0" />
<glyph unicode="&#xa1;" horiz-adv-x="512" d="M170 1079q0 35 25.5 60.5t60.5 25.5q37 0 62.5 -25.5t25.5 -60.5q0 -37 -25.5 -61.5t-62.5 -24.5q-36 0 -61 25t-25 61zM199 -358l24 1192h64l24 -1192h-112z" />
<glyph unicode="&#xa2;" horiz-adv-x="1079" d="M152 467q0 194 117.5 337.5t303.5 160.5v249h41v-249q72 0 128 -13.5t86 -32t49 -42t24.5 -40.5t5.5 -30q0 -43 -37 -64q-24 -12 -54 -4.5t-40 31.5q-14 28 -5.5 55t34.5 39q31 12 51 4q4 -1 3 1q-1 11 -37 31q-81 46 -208 46v-919q56 0 104.5 15t82.5 38.5t60.5 55 t42 62t24.5 62.5l14 -2q-5 -32 -18 -65.5t-39 -71t-61 -66.5t-89.5 -49.5t-120.5 -23.5v-224h-41v224q-59 3 -115.5 19.5t-113 53.5t-98.5 91t-68 136.5t-26 184.5zM274 475q0 -107 26.5 -192t70.5 -136.5t95 -80.5t107 -37v917q-37 -5 -73.5 -20t-78.5 -50t-73.5 -84.5 t-52.5 -132t-21 -184.5z" />
<glyph unicode="&#xa3;" horiz-adv-x="1273" d="M71.5 208q9.5 43 42.5 85.5t82.5 71.5t130.5 29t177 -40q82 -39 135 -80q14 76 -4 141.5t-80 162.5q-74 114 -109 165h-202v21h190q-81 143 -108 270t-6.5 214.5t72.5 152.5t123.5 94t152 29t153.5 -33q118 -51 148 -184q3 -21 -6.5 -44t-28.5 -36q-26 -21 -60.5 -15.5 t-54.5 33.5q-22 28 -16 62.5t35 54.5q26 21 59 14q7 -1 7 7q2 24 -32 55q-25 23 -61 37q-65 24 -127.5 26.5t-114.5 -18t-91 -60t-55.5 -104t-10.5 -144t47.5 -186t115.5 -225.5h359v-21h-344l74 -108q43 -70 55 -149t3 -135t-30 -109q61 -41 118.5 -75t84.5 -47l27 -14 q34 -17 74.5 -14.5t75.5 16t58 50t23 86.5h23q1 -60 -15.5 -107.5t-41.5 -75.5t-57.5 -46.5t-61.5 -25.5t-56 -7q-24 0 -48.5 7.5t-57 29.5t-52 36.5t-67 53.5t-70.5 57q-65 -106 -155 -145t-209 -39q-15 0 -37 4.5t-58.5 17.5t-69 47.5t-48.5 83.5q-10 30 -0.5 73zM88 135 q8 -32 24 -56.5t36.5 -38.5t39.5 -23t41 -12t32 -4t22 -1q109 0 198 48t133 140q-101 79 -196 119q-110 42 -186.5 15.5t-116.5 -83t-27 -104.5z" />
<glyph unicode="&#xa4;" horiz-adv-x="1021" d="M37 285l129 131q-107 122 -107 291q0 165 107 290l-129 129l51 52l129 -129q124 106 291 106q170 0 291 -106l131 129l49 -52l-129 -129q106 -124 106 -290q0 -170 -106 -291l129 -131l-49 -49l-131 129q-125 -109 -291 -109q-163 0 -291 109l-129 -129zM132 705.5 q0 -157.5 110 -267.5q113 -110 266 -110q156 0 266 110q111 111 111 269q0 155 -111 266q-107 110 -266 110q-156 0 -266 -110t-110 -267.5z" />
<glyph unicode="&#xa5;" horiz-adv-x="1101" d="M-55 1427v15h397v-15h-25t-25 -2t-24.5 -6t-19 -11.5t-14.5 -19t-4 -29.5t6.5 -40.5t21.5 -54.5t37 -70l311 -541l172 346q30 60 48 100t36.5 85.5t24.5 74t7 59t-10.5 48t-33 32.5t-56 21t-83.5 6v17h440v-17h-4q-28 0 -40.5 -0.5t-34 -7t-32 -15.5t-32.5 -33 t-38.5 -52.5t-45.5 -80t-58.5 -110t-74.5 -147.5l-170 -340h358v-27h-365v-133h365v-26h-365v-242q0 -57 6.5 -94t15 -57t29 -29.5t35.5 -11t48 -1.5v-18h-355v18q24 0 35 0.5t28.5 4t25.5 10.5t18.5 21t14.5 34.5t7.5 51t3.5 71.5v242h-407v26h407v133h-407v27h393 l-358 627q-32 55 -55.5 87t-47 47t-41.5 19t-50 7q-10 1 -15 1z" />
<glyph unicode="&#xa6;" horiz-adv-x="346" d="M145 381h78v-772h-78v772zM145 737v768h78v-768h-78z" />
<glyph unicode="&#xa7;" horiz-adv-x="1054" d="M124.5 595.5q14.5 71.5 75.5 146.5t165 141q-25 21 -40.5 35t-34.5 33t-30.5 34.5t-24 35.5t-18.5 40t-10.5 44t-4 51t4.5 58q9 71 41 122.5t70.5 78t89.5 41.5t88 17.5t75 1.5q79 -3 152.5 -58.5t87.5 -120.5q5 -19 -2.5 -40.5t-24.5 -34.5q-25 -20 -57.5 -16t-54.5 30 q-19 26 -15 57t29 51q30 23 55 17q9 -2 6 6q-8 21 -53 50q-49 32 -96 38q-130 13 -220 -33t-106 -159q-13 -95 25.5 -159t167.5 -167l266 -188q73 -53 121.5 -115t67.5 -133t4 -142.5t-75.5 -146.5t-164.5 -141q24 -20 40.5 -34.5t35 -33t30.5 -34.5t24 -36t18 -40.5 t10.5 -44.5t4 -51.5t-4.5 -59.5q-9 -71 -42 -122.5t-73.5 -77.5t-92.5 -40.5t-90 -17t-75 -0.5q-74 3 -146 58.5t-87 117.5q-5 21 3 43t25 35q25 20 57 16t54 -29q20 -26 16.5 -58.5t-29.5 -51.5q-31 -24 -57 -19q-7 2 -6 -3q6 -16 55 -46q56 -36 105 -43q66 -9 132 6.5 t120 63.5t63 121q15 99 -24 164.5t-166 160.5l-267 189q-73 53 -121.5 115.5t-67 134t-4 143zM187.5 624q-7.5 -60 12 -120t59.5 -108.5t95 -88.5l316 -225q88 56 136 120.5t56 124.5t-12 120t-60.5 109.5t-95.5 88.5q-48 36 -127 92.5t-133 94.5l-55 38q-88 -56 -136 -121 t-55.5 -125z" />
<glyph unicode="&#xa8;" horiz-adv-x="389" d="M-8 1321q0 31 19 51.5t48 20.5q28 0 49 -21t21 -51q0 -28 -21 -48t-49 -20q-29 0 -48 20t-19 48zM260 1321q0 31 19.5 51.5t48.5 20.5q28 0 48.5 -21t20.5 -51q0 -28 -20.5 -48t-48.5 -20q-29 0 -48.5 20t-19.5 48z" />
<glyph unicode="&#xa9;" horiz-adv-x="1593" d="M61 756q0 200 98 368t267 265.5t371 97.5q200 0 369 -97.5t267.5 -265.5t98.5 -368t-98.5 -368t-267.5 -265.5t-369 -97.5q-202 0 -371 97.5t-267 265.5t-98 368zM113 756q0 -139 54.5 -265.5t146 -217.5t218 -145t265.5 -54q137 0 263.5 54t218 145t146 217.5 t54.5 265.5t-54.5 265.5t-146 218t-218 146t-263.5 54.5q-139 0 -265.5 -54.5t-218 -146t-146 -218t-54.5 -265.5zM414 737q0 207 109 310.5t292 103.5q95 0 149.5 -14t106.5 -56l-10 -176h-10q0 64 -20.5 110t-46.5 68t-64 34.5t-59 14t-46 1.5q-30 0 -53 -2t-57.5 -10.5 t-60 -24t-53.5 -45t-45.5 -70t-29.5 -103.5t-12 -141q0 -81 13 -145t31.5 -105t48 -71t55 -44.5t60.5 -22.5t55 -9.5t48 -1.5q24 0 44 1.5t58.5 14t65 34.5t47.5 68.5t21 110.5h10l10 -176q-66 -43 -115.5 -57.5t-140.5 -14.5q-182 0 -291.5 106t-109.5 312z" />
<glyph unicode="&#xaa;" horiz-adv-x="550" d="M39 1040q0 69 61.5 107t208.5 76v57q0 87 -36.5 125t-106.5 8q-22 -10 -36.5 -21.5t-18.5 -17.5t0 -6q12 0 26 -14q21 -29 -4 -54q-9 -10 -27 -9t-28 14q-15 19 -6 41q4 13 24 35t56 42q17 9 41.5 14t40.5 6l16 1q65 0 91 -55t26 -160v-205q0 -7 1 -16.5t12.5 -26 t31.5 -16.5q3 0 8 1t14 10t12 25l17 -6q-2 -27 -24.5 -46t-55.5 -19q-3 0 -8 0.5t-18 4.5t-22.5 11.5t-17.5 23.5t-8 38q-29 -78 -149 -78q-5 0 -13 0.5t-29 6t-37 15.5t-29 33t-13 55zM92 1059q0 -47 27.5 -72.5t73.5 -25.5q77 0 116 81v162q-115 -33 -166 -63.5t-51 -81.5 z" />
<glyph unicode="&#xab;" horiz-adv-x="1249" d="M178 545l473 489v-26l-358 -463l358 -451v-26zM596 545l473 489v-26l-356 -463l356 -451v-26z" />
<glyph unicode="&#xac;" horiz-adv-x="1288" d="M84 690v78h1114v-606h-84v528h-1030z" />
<glyph unicode="&#xad;" horiz-adv-x="909" d="M131 477v88h645v-88h-645z" />
<glyph unicode="&#xae;" horiz-adv-x="1603" d="M61 756q0 200 98 368t267 265.5t371 97.5q200 0 369 -97.5t267.5 -265.5t98.5 -368t-98.5 -368t-267.5 -265.5t-369 -97.5q-202 0 -371 97.5t-267 265.5t-98 368zM113 756q0 -139 54.5 -265.5t146 -217.5t218 -145t265.5 -54q137 0 263.5 54t218 145t146 217.5 t54.5 265.5t-54.5 265.5t-146 218t-218 146t-263.5 54.5q-139 0 -265.5 -54.5t-218 -146t-146 -218t-54.5 -265.5zM555 338v18q28 0 38 6t15.5 30.5t5.5 82.5v580q0 52 -10 62.5t-49 10.5v19h152q93 0 148 -7.5t97 -30.5t59 -66.5t17 -114.5q0 -62 -16 -106t-43.5 -67.5 t-57.5 -33.5t-65 -10q3 0 9 -1q22 -2 35.5 -5.5t38.5 -19t42 -41.5t34 -78.5t25 -125.5q10 -84 113 -84v-18h-80q-56 0 -69 18t-34 127q-13 65 -22 107q-7 32 -31.5 56t-54.5 34.5t-59 17t-49 6.5l-19 1h-53v-259q0 -59 12 -74.5t51 -15.5v-18h-180zM672 723h35h8h47.5 t42.5 2t40 5.5t33 10.5t30 17t22.5 25.5t18.5 36t10 47.5t4 61q0 30 -3 54.5t-11 43.5t-15.5 34t-22 25.5t-25 18t-31 12t-33 7t-37.5 4t-37.5 1.5h-40.5h-35v-405z" />
<glyph unicode="&#xaf;" horiz-adv-x="737" d="M-33 1235v68h805v-68h-805z" />
<glyph unicode="&#xb0;" horiz-adv-x="782" d="M119 1243q0 110 78 188t188 78q108 0 186 -78t78 -188q0 -108 -78 -186t-186 -78q-110 0 -188 77.5t-78 186.5zM166 1243q0 -89 64 -152t155 -63q89 0 152 63t63 152t-63 153t-152 64q-91 0 -155 -64t-64 -153z" />
<glyph unicode="&#xb1;" horiz-adv-x="1245" d="M84 0v86h1063v-86h-1063zM84 645v86h487v365h88v-365h488v-86h-488v-358h-88v358h-487z" />
<glyph unicode="&#xb2;" horiz-adv-x="507" d="M63 776l201 311q106 150 64 244q-26 57 -91 67q-66 10 -111 -34q-37 -36 -38 -96h-22q-1 52 16 88.5t41.5 52.5t49 24.5t41.5 8.5h17q70 0 116 -45.5t46 -110.5q0 -28 -14.5 -61.5t-32.5 -60.5t-63 -89l-166 -254h207q48 0 77 51h19l-27 -96h-330z" />
<glyph unicode="&#xb3;" horiz-adv-x="524" d="M74 1290q0 43 18 74t40 45.5t53 22.5t44.5 9t26.5 1q49 0 87.5 -29t53 -72.5t12 -89t-35 -83t-88.5 -50.5q78 -10 118.5 -57.5t40.5 -110.5q0 -57 -20.5 -95.5t-55.5 -56t-66.5 -24t-68.5 -6.5q-55 0 -94 18t-53 37q-4 9 -2.5 20.5t6.5 16.5q23 23 47 6q10 -9 12 -23 t-6 -24t-14 -10q-4 0 5 -5q33 -20 99 -20q82 0 121.5 33.5t32.5 130.5q-3 66 -46.5 111t-133.5 45v14q63 0 106 45t42.5 107.5t-52.5 107.5q-42 31 -88.5 29t-83.5 -36t-37 -81h-20z" />
<glyph unicode="&#xb4;" horiz-adv-x="694" d="M168 1143l356 327l121 -28l-463 -299h-14z" />
<glyph unicode="&#xb5;" horiz-adv-x="989" d="M33 911v17l213 37v-701q4 -62 27.5 -108t60 -71.5t77 -37.5t85.5 -12q100 0 160 52t85 130v567v53.5t-4 34.5t-7.5 23t-17.5 10t-26.5 6h-40.5v17l199 37v-811q0 -73 19.5 -96t84.5 -31v-17l-164 -26q-20 -4 -31 1.5t-11 12.5l-1 8v168q-15 -75 -91.5 -130t-182 -61 t-221.5 62v-416q0 -73 19.5 -96t84.5 -31v-16l-162 -27q-20 -4 -30 1.5t-10 13.5l-1 8v1288v38.5t-1 30t-1.5 24.5t-5 17t-6.5 14t-10.5 8t-13.5 6t-20 1.5t-24.5 1.5h-31.5z" />
<glyph unicode="&#xb6;" horiz-adv-x="1196" d="M76 1024q0 98 30 173t78.5 120t117.5 74t137.5 39.5t148.5 11.5h2h92v-1985h-289v19q82 0 138.5 34t56.5 105v999q-90 0 -161 9.5t-139 37t-113 72t-72 118.5t-27 173zM786 -543v1985h267v-21q-82 0 -125 -43t-43 -145v-1542q0 -116 38 -165.5t115 -49.5v-19h-252z" />
<glyph unicode="&#xb7;" horiz-adv-x="438" d="M160 612q0 29 20 49.5t49 20.5q28 0 49 -20.5t21 -49.5q0 -27 -21 -47t-49 -20q-29 0 -49 19.5t-20 47.5z" />
<glyph unicode="&#xb8;" horiz-adv-x="528" d="M117 -416q-11 19 2 39q8 12 22.5 14.5t26.5 -6.5q13 -7 16.5 -22t-4.5 -27q-11 -14 -24 -14q-4 0 4.5 -6.5t30.5 -13t49 -5.5q61 0 101 33.5t40 99.5q0 24 -6 46.5t-21 48t-41 39t-66 19t-97 -10.5l59 174h20l-49 -135q135 30 204.5 -21.5t59.5 -138.5 q-22 -160 -204 -160q-40 -1 -69.5 9.5t-39 19.5t-14.5 18z" />
<glyph unicode="&#xb9;" horiz-adv-x="385" d="M72 1346l106 98h31v-576q0 -26 5 -41.5t16 -21.5t19 -7t25 -1v-19h-178v19q18 0 27.5 1.5t19.5 8t14.5 21.5t4.5 40v459q0 38 -17 38t-63 -34z" />
<glyph unicode="&#xba;" horiz-adv-x="659" d="M70 1098q0 49 5.5 92.5t22.5 92.5t44 84t74.5 58t109.5 23t109 -23t74 -58t44.5 -83.5t23 -93t5.5 -92.5q0 -46 -5.5 -88.5t-23 -89t-44.5 -79.5t-74 -55t-109 -22t-109.5 22t-74.5 55t-44 79.5t-22.5 88.5t-5.5 89zM129 1098q0 -95 18 -161.5t49 -98t62 -44t68 -12.5 q196 0 196 316q0 98 -18 167t-48.5 103t-62 48t-67.5 14q-37 0 -68.5 -14t-62 -48t-48.5 -103t-18 -167z" />
<glyph unicode="&#xbb;" horiz-adv-x="1241" d="M172 68v26l356 451l-356 463v26l473 -489zM590 68v26l358 451l-358 463v26l473 -489z" />
<glyph unicode="&#xbc;" horiz-adv-x="1280" d="M37 76l1141 1378h71l-1143 -1378h-69zM225 1415l121 113h35v-660q0 -29 6 -47t19 -25t22.5 -8.5t28.5 -1.5v-18h-203v18q19 0 30 2t22.5 9.5t16.5 25t5 45.5v533q0 22 -4.5 32.5t-16 9.5t-27.5 -11t-44 -31zM612 225v13l349 512h30v-488h94v-37h-94v-114q0 -33 4 -52.5 t14.5 -28t21 -10.5t30.5 -2v-18h-195v18q37 0 52.5 15t15.5 73v119h-322zM664.5 266q1.5 -4 29.5 -4h240v414l-256 -383q-15 -23 -13.5 -27z" />
<glyph unicode="&#xbd;" horiz-adv-x="1280" d="M37 76l1141 1378h71l-1143 -1378h-69zM225 1415l121 113h35v-660q0 -29 6 -47t19 -25t22.5 -8.5t28.5 -1.5v-18h-203v18q19 0 30 2t22.5 9.5t16.5 25t5 45.5v533q0 22 -4.5 32.5t-16 9.5t-27.5 -11t-44 -31zM803 0l229 356q118 167 73 275q-27 66 -100 82t-129 -28 q-56 -43 -57 -124l-14 2q0 43 10 78t27 55.5t37 35t40.5 20.5t37.5 9t27 3h11q81 0 133 -51.5t52 -126.5q0 -45 -25 -90t-86 -130l-18 -24l-191 -291h240q65 0 102 60h8l-30 -111h-377z" />
<glyph unicode="&#xbe;" horiz-adv-x="1275" d="M37 76l1141 1378h71l-1143 -1378h-69zM115 1358q0 40 13 71.5t36 48.5t45 28.5t49 15.5t38.5 5t22.5 1q56 0 99.5 -33t60 -82t13.5 -100.5t-40 -94t-100 -57.5q88 -11 135.5 -64.5t47.5 -123.5q0 -52 -16.5 -90.5t-41 -60t-58.5 -35t-63 -17.5t-61 -4q-63 0 -108 20.5 t-58 42.5q-6 9 -4 22t8 19q27 27 53 7q12 -10 14 -26t-7 -28q-8 -10 -17 -10q-4 0 5 -5q40 -24 114 -24q93 0 137.5 38.5t36.5 148.5q-3 74 -53 125t-152 51v14q71 0 120 51t48.5 122t-59.5 122q-32 27 -74 31.5t-77.5 -10.5t-60 -47.5t-24.5 -71.5h-22zM612 225v13l349 512 h30v-488h94v-37h-94v-114q0 -33 4 -52.5t14.5 -28t21 -10.5t30.5 -2v-18h-195v18q37 0 52.5 15t15.5 73v119h-322zM664.5 266q1.5 -4 29.5 -4h240v414l-256 -383q-15 -23 -13.5 -27z" />
<glyph unicode="&#xbf;" horiz-adv-x="1179" d="M207 -158q-2 61 10 117.5t30 97.5t51 81.5t57.5 64.5t65.5 52.5t60 39.5t54 31q131 74 114 286l29 4q6 -40 7 -70t-5.5 -75.5t-33.5 -89.5t-73 -82q-11 -9 -36 -29q-37 -29 -57.5 -47t-53.5 -57.5t-49 -79t-26 -101.5t-3 -135q7 -94 35 -164t70 -108.5t91.5 -60.5 t105 -24t105.5 6.5t97 27.5q79 30 90 72q6 25 -13 31q-3 1 -5 1q-26 0 -47 31q-19 26 -13.5 58t31.5 51q26 18 58 12t51 -33q23 -32 8 -80q-6 -30 -47 -79t-103 -76q-122 -54 -239 -56.5t-206 41t-146 133t-64 209.5zM565 879q0 37 25.5 61.5t62.5 24.5q36 0 61 -25t25 -61 q0 -35 -25.5 -60.5t-60.5 -25.5q-37 0 -62.5 25.5t-25.5 60.5z" />
<glyph unicode="&#xc0;" d="M35 0v18q35 0 57 7.5t50 34t55.5 80.5t63 144t81.5 228l332 930h8l489 -1239q46 -115 79.5 -148.5t84.5 -36.5v-18h-348v18q22 0 36.5 3t28 17t15 39t-9.5 72t-39 113l-80 209h-576q-75 -217 -87 -279q-21 -107 28 -144q41 -30 141 -30v-18h-409zM369 489h563l-291 760z M449 1804l120 29l357 -328h-15z" />
<glyph unicode="&#xc1;" d="M35 0v18q35 0 57 7.5t50 34t55.5 80.5t63 144t81.5 228l332 930h8l489 -1239q46 -115 79.5 -148.5t84.5 -36.5v-18h-348v18q22 0 36.5 3t28 17t15 39t-9.5 72t-39 113l-80 209h-576q-75 -217 -87 -279q-21 -107 28 -144q41 -30 141 -30v-18h-409zM369 489h563l-291 760z M446 1505l357 328l121 -29l-463 -299h-15z" />
<glyph unicode="&#xc2;" d="M35 0v18q35 0 57 7.5t50 34t55.5 80.5t63 144t81.5 228l332 930h8l489 -1239q46 -115 79.5 -148.5t84.5 -36.5v-18h-348v18q22 0 36.5 3t28 17t15 39t-9.5 72t-39 113l-80 209h-576q-75 -217 -87 -279q-21 -107 28 -144q41 -30 141 -30v-18h-409zM369 489h563l-291 760z M414 1505l266 385l266 -385h-22l-244 260l-244 -260h-22z" />
<glyph unicode="&#xc3;" d="M35 0v18q35 0 57 7.5t50 34t55.5 80.5t63 144t81.5 228l332 930h8l489 -1239q46 -115 79.5 -148.5t84.5 -36.5v-18h-348v18q22 0 36.5 3t28 17t15 39t-9.5 72t-39 113l-80 209h-576q-75 -217 -87 -279q-21 -107 28 -144q41 -30 141 -30v-18h-409zM236 1608 q28 74 75 119.5t94.5 57t91 12.5t70.5 -7l27 -8l225 -88q25 -11 67.5 -13.5t88.5 4.5t87 32t58 65l8 -2q-21 -55 -52 -94.5t-64 -58.5t-68.5 -29t-66.5 -9t-55.5 4.5t-39.5 8.5l-14 4l-223 88q-28 10 -68 14t-86 -1.5t-87.5 -31t-61.5 -69.5zM369 489h563l-291 760z" />
<glyph unicode="&#xc4;" d="M35 0v18q35 0 57 7.5t50 34t55.5 80.5t63 144t81.5 228l332 930h8l489 -1239q46 -115 79.5 -148.5t84.5 -36.5v-18h-348v18q22 0 36.5 3t28 17t15 39t-9.5 72t-39 113l-80 209h-576q-75 -217 -87 -279q-21 -107 28 -144q41 -30 141 -30v-18h-409zM369 489h563l-291 760z M475 1681q0 31 19.5 51.5t48.5 20.5q28 0 48.5 -21t20.5 -51q0 -28 -20.5 -47.5t-48.5 -19.5q-29 0 -48.5 19.5t-19.5 47.5zM743 1681q0 31 19.5 51.5t48.5 20.5q28 0 49 -21t21 -51q0 -27 -21 -47t-49 -20q-29 0 -48.5 19.5t-19.5 47.5z" />
<glyph unicode="&#xc5;" d="M35 0v18q35 0 57 7.5t50 34t55.5 80.5t63 144t81.5 228l332 930h8l489 -1239q46 -115 79.5 -148.5t84.5 -36.5v-18h-348v18q22 0 36.5 3t28 17t15 39t-9.5 72t-39 113l-80 209h-576q-75 -217 -87 -279q-21 -107 28 -144q41 -30 141 -30v-18h-409zM369 489h563l-291 760z M489 1802q0 78 55.5 134.5t133.5 56.5t133 -56.5t55 -134.5q0 -77 -55 -132.5t-133 -55.5t-133.5 55.5t-55.5 132.5zM537 1802q0 -59 40.5 -100t100.5 -41q58 0 99.5 41.5t41.5 99.5q0 60 -41 102t-100 42q-60 0 -100.5 -42t-40.5 -102z" />
<glyph unicode="&#xc6;" horiz-adv-x="1824" d="M25 0v18q35 0 60 7.5t61.5 34.5t76.5 80t97 144.5t131 227.5l481 868q-7 29 -26 36t-68 7v19h837v-348h-18q0 69 -11 120t-26 86.5t-51 59t-66 36t-92 19t-107 7.5t-133 1h-108v-686h151h9q31 0 47.5 0.5t44.5 4t43.5 11t35.5 22t30.5 35.5t18 53.5t7.5 74.5h18v-420h-18 q0 33 -5 60t-11.5 46.5t-19.5 35t-23.5 25.5t-30 17t-31.5 10t-35 5t-34 2h-35h-11h-151v-701h74q218 0 281 7q139 16 197 90q68 85 68 291h19v-406h-864v18q63 0 81.5 36.5t18.5 144.5v272h-485q-120 -217 -144 -271q-48 -110 -12 -148q32 -34 137 -34v-18h-409zM463 489 h475v799v60z" />
<glyph unicode="&#xc7;" horiz-adv-x="1380" d="M82 721q0 188 52.5 331.5t149 231.5t224.5 132t285 44q166 0 263.5 -25t190.5 -100l-18 -311h-19q0 82 -18.5 148.5t-47 109t-69 74t-77.5 47.5t-81 25.5t-70 11.5t-54 2q-52 0 -95 -4t-102.5 -21t-106 -45.5t-95.5 -83t-81.5 -128.5t-53.5 -186.5t-21 -252.5 q0 -113 13 -207.5t34 -163.5t54 -124t66 -91t77 -62.5t80 -40t82.5 -21.5t77.5 -9.5t71 -1.5q25 0 50 2t68.5 11.5t81 25.5t79 47.5t71 74.5t48.5 110t19 149h19l18 -311q-116 -76 -203.5 -101.5t-246.5 -25.5h-2l-43 -117q135 30 204.5 -21.5t59.5 -138.5 q-22 -160 -205 -160q-40 -1 -69.5 9.5t-39 19.5t-14.5 18q-11 19 2 39q8 12 22.5 15t26.5 -6q13 -7 17 -22.5t-4 -27.5q-11 -14 -25 -14q-4 0 4.5 -6.5t30.5 -13t49 -5.5q61 0 101 34t40 100q0 24 -6 46.5t-21 47.5t-41 38.5t-66 19t-97 -10.5l53 156h-12q-150 5 -273 52 t-214.5 136.5t-142 230t-50.5 320.5z" />
<glyph unicode="&#xc8;" horiz-adv-x="1085" d="M57 0v18q63 0 82 36.5t19 144.5v1089q0 51 -2.5 75.5t-15 39.5t-29 17.5t-54.5 2.5v19h879v-348h-18q0 69 -11 120t-26 86.5t-51 59t-66 36t-92 19t-107 7.5t-133 1h-149v-686h192q31 0 48.5 0.5t46 4.5t45.5 11.5t37.5 22t31.5 35.5t19 53.5t8 73.5h18v-420h-18 q0 41 -8 73.5t-20 53.5t-33 35.5t-38 22t-45.5 11.5t-45.5 4.5t-46 0.5h-192v-701h114q218 0 280 7q140 16 199 90q68 85 68 291h19v-406h-906zM313 1804l121 29l357 -328h-15z" />
<glyph unicode="&#xc9;" horiz-adv-x="1085" d="M57 0v18q63 0 82 36.5t19 144.5v1089q0 51 -2.5 75.5t-15 39.5t-29 17.5t-54.5 2.5v19h879v-348h-18q0 69 -11 120t-26 86.5t-51 59t-66 36t-92 19t-107 7.5t-133 1h-149v-686h192q31 0 48.5 0.5t46 4.5t45.5 11.5t37.5 22t31.5 35.5t19 53.5t8 73.5h18v-420h-18 q0 41 -8 73.5t-20 53.5t-33 35.5t-38 22t-45.5 11.5t-45.5 4.5t-46 0.5h-192v-701h114q218 0 280 7q140 16 199 90q68 85 68 291h19v-406h-906zM281 1505l356 328l121 -29l-463 -299h-14z" />
<glyph unicode="&#xca;" horiz-adv-x="1085" d="M57 0v18q63 0 82 36.5t19 144.5v1089q0 51 -2.5 75.5t-15 39.5t-29 17.5t-54.5 2.5v19h879v-348h-18q0 69 -11 120t-26 86.5t-51 59t-66 36t-92 19t-107 7.5t-133 1h-149v-686h192q31 0 48.5 0.5t46 4.5t45.5 11.5t37.5 22t31.5 35.5t19 53.5t8 73.5h18v-420h-18 q0 41 -8 73.5t-20 53.5t-33 35.5t-38 22t-45.5 11.5t-45.5 4.5t-46 0.5h-192v-701h114q218 0 280 7q140 16 199 90q68 85 68 291h19v-406h-906zM264 1505l266 385l267 -385h-23l-244 260l-243 -260h-23z" />
<glyph unicode="&#xcb;" horiz-adv-x="1085" d="M57 0v18q63 0 82 36.5t19 144.5v1089q0 51 -2.5 75.5t-15 39.5t-29 17.5t-54.5 2.5v19h879v-348h-18q0 69 -11 120t-26 86.5t-51 59t-66 36t-92 19t-107 7.5t-133 1h-149v-686h192q31 0 48.5 0.5t46 4.5t45.5 11.5t37.5 22t31.5 35.5t19 53.5t8 73.5h18v-420h-18 q0 41 -8 73.5t-20 53.5t-33 35.5t-38 22t-45.5 11.5t-45.5 4.5t-46 0.5h-192v-701h114q218 0 280 7q140 16 199 90q68 85 68 291h19v-406h-906zM322 1681q0 31 19 51.5t48 20.5q28 0 49 -21t21 -51q0 -27 -21 -47t-49 -20q-29 0 -48 19.5t-19 47.5zM590 1681q0 31 19 51.5 t48 20.5q28 0 49 -21t21 -51q0 -27 -21 -47t-49 -20q-29 0 -48 19.5t-19 47.5z" />
<glyph unicode="&#xcc;" horiz-adv-x="499" d="M14 1804l121 29l357 -328h-15zM80 0v18q67 0 90 34.5t23 137.5v1094q0 64 -10.5 93.5t-32 38.5t-70.5 9v17h348v-17q-69 0 -91 -24.5t-22 -116.5v-1094q0 -103 23.5 -137.5t89.5 -34.5v-18h-348z" />
<glyph unicode="&#xcd;" horiz-adv-x="499" d="M0 1505l356 328l121 -29l-463 -299h-14zM80 0v18q67 0 90 34.5t23 137.5v1094q0 64 -10.5 93.5t-32 38.5t-70.5 9v17h348v-17q-69 0 -91 -24.5t-22 -116.5v-1094q0 -103 23.5 -137.5t89.5 -34.5v-18h-348z" />
<glyph unicode="&#xce;" horiz-adv-x="499" d="M-18 1505l266 385l266 -385h-22l-244 260l-244 -260h-22zM80 0v18q67 0 90 34.5t23 137.5v1094q0 64 -10.5 93.5t-32 38.5t-70.5 9v17h348v-17q-69 0 -91 -24.5t-22 -116.5v-1094q0 -103 23.5 -137.5t89.5 -34.5v-18h-348z" />
<glyph unicode="&#xcf;" horiz-adv-x="499" d="M51 1681q0 31 19.5 51.5t48.5 20.5q28 0 48.5 -21t20.5 -51q0 -28 -20.5 -47.5t-48.5 -19.5q-29 0 -48.5 19.5t-19.5 47.5zM80 0v18q67 0 90 34.5t23 137.5v1094q0 64 -10.5 93.5t-32 38.5t-70.5 9v17h348v-17q-69 0 -91 -24.5t-22 -116.5v-1094q0 -103 23.5 -137.5 t89.5 -34.5v-18h-348zM319 1681q0 31 19.5 51.5t48.5 20.5q28 0 49 -21t21 -51q0 -27 -21 -47t-49 -20q-29 0 -48.5 19.5t-19.5 47.5z" />
<glyph unicode="&#xd0;" horiz-adv-x="1294" d="M-10 698v43h223v500q0 97 -28 140.5t-95 43.5v17h340q93 0 171.5 -8.5t158.5 -30t143.5 -56.5t120 -90.5t94 -129.5t59 -177t21.5 -229q0 -134 -22 -241.5t-58.5 -182t-94 -129t-119 -86.5t-144.5 -51t-158.5 -25t-171.5 -6h-340v18q66 0 94.5 42.5t28.5 146.5v491h-223z M340 18h90q159 0 231 13q233 42 328 255q74 164 74 435q0 142 -23 254t-57.5 185t-91 125t-106 78.5t-121.5 41t-119 17.5t-115 3h-90v-684h287v-43h-287v-680z" />
<glyph unicode="&#xd1;" horiz-adv-x="1529" d="M10 1425v17h256l946 -1268v768q0 91 -0.5 131.5t-3.5 103t-9.5 87t-19 61.5t-30 49t-45.5 28t-63.5 19.5t-84.5 3.5v17h549v-17q-60 0 -101.5 -8t-72.5 -17.5t-49.5 -42t-29.5 -55t-15 -85t-5 -103.5t-1 -138v-34v-942h-23l-848 1120v-618q0 -85 0.5 -126t4 -101 t10 -86.5t18.5 -63t30.5 -51t46 -30.5t64 -21t84.5 -5v-18h-561v18q43 0 77 3t61.5 13t48 18t36 30.5t26 38t17.5 52.5t11 61t5.5 76.5t2 87.5t0.5 104v643l-88 117q-44 55 -80 89.5t-67 49t-45.5 18t-42.5 5.5q-6 1 -9 1zM313 1608q28 74 75.5 119.5t94.5 57t90.5 12.5 t70.5 -7l28 -8l225 -88q25 -11 67.5 -13.5t88.5 4.5t87 32t58 65l8 -2q-21 -55 -52 -94.5t-64 -58.5t-68.5 -29t-66.5 -9t-55.5 4.5t-39.5 8.5l-14 4l-223 88q-28 10 -68 14t-86.5 -1.5t-88 -31t-61.5 -69.5z" />
<glyph unicode="&#xd2;" horiz-adv-x="1429" d="M86 711q0 125 21.5 234t69 204.5t119 164t177.5 107.5t238 39t238 -39t177 -107.5t119 -164t69 -204.5t21 -234t-21.5 -232.5t-69 -200t-119 -157.5t-177 -102t-237.5 -37t-238 37t-177.5 102t-119 157.5t-69 200t-21.5 232.5zM205 711q0 -163 29.5 -289.5t77.5 -204.5 t115.5 -128t136.5 -69.5t147 -19.5q64 0 121.5 14t115.5 45t104.5 86t83 131t56.5 187t20 248q0 162 -29 290.5t-77 209.5t-114.5 134.5t-135.5 75t-145 21.5q-77 0 -146.5 -21.5t-136.5 -75t-115.5 -134.5t-78 -209.5t-29.5 -290.5zM485 1804l121 29l357 -328h-15z" />
<glyph unicode="&#xd3;" horiz-adv-x="1429" d="M86 711q0 125 21.5 234t69 204.5t119 164t177.5 107.5t238 39t238 -39t177 -107.5t119 -164t69 -204.5t21 -234t-21.5 -232.5t-69 -200t-119 -157.5t-177 -102t-237.5 -37t-238 37t-177.5 102t-119 157.5t-69 200t-21.5 232.5zM205 711q0 -163 29.5 -289.5t77.5 -204.5 t115.5 -128t136.5 -69.5t147 -19.5q64 0 121.5 14t115.5 45t104.5 86t83 131t56.5 187t20 248q0 162 -29 290.5t-77 209.5t-114.5 134.5t-135.5 75t-145 21.5q-77 0 -146.5 -21.5t-136.5 -75t-115.5 -134.5t-78 -209.5t-29.5 -290.5zM489 1505l357 328l121 -29l-463 -299 h-15z" />
<glyph unicode="&#xd4;" horiz-adv-x="1429" d="M86 711q0 125 21.5 234t69 204.5t119 164t177.5 107.5t238 39t238 -39t177 -107.5t119 -164t69 -204.5t21 -234t-21.5 -232.5t-69 -200t-119 -157.5t-177 -102t-237.5 -37t-238 37t-177.5 102t-119 157.5t-69 200t-21.5 232.5zM205 711q0 -163 29.5 -289.5t77.5 -204.5 t115.5 -128t136.5 -69.5t147 -19.5q64 0 121.5 14t115.5 45t104.5 86t83 131t56.5 187t20 248q0 162 -29 290.5t-77 209.5t-114.5 134.5t-135.5 75t-145 21.5q-77 0 -146.5 -21.5t-136.5 -75t-115.5 -134.5t-78 -209.5t-29.5 -290.5zM442 1505l267 385l266 -385h-23 l-243 260l-244 -260h-23z" />
<glyph unicode="&#xd5;" horiz-adv-x="1429" d="M86 711q0 125 21.5 234t69 204.5t119 164t177.5 107.5t238 39t238 -39t177 -107.5t119 -164t69 -204.5t21 -234t-21.5 -232.5t-69 -200t-119 -157.5t-177 -102t-237.5 -37t-238 37t-177.5 102t-119 157.5t-69 200t-21.5 232.5zM205 711q0 -163 29.5 -289.5t77.5 -204.5 t115.5 -128t136.5 -69.5t147 -19.5q64 0 121.5 14t115.5 45t104.5 86t83 131t56.5 187t20 248q0 162 -29 290.5t-77 209.5t-114.5 134.5t-135.5 75t-145 21.5q-77 0 -146.5 -21.5t-136.5 -75t-115.5 -134.5t-78 -209.5t-29.5 -290.5zM272 1608q28 74 75.5 119.5t95 57 t90.5 12.5t71 -7l27 -8l225 -88q25 -11 67.5 -13.5t88.5 4.5t87 32t58 65l8 -2q-21 -55 -52 -94.5t-64 -58.5t-68.5 -29t-66.5 -9t-55.5 4.5t-38.5 8.5l-15 4l-223 88q-28 10 -68 14t-86 -1.5t-87.5 -31t-61.5 -69.5z" />
<glyph unicode="&#xd6;" horiz-adv-x="1429" d="M86 711q0 125 21.5 234t69 204.5t119 164t177.5 107.5t238 39t238 -39t177 -107.5t119 -164t69 -204.5t21 -234t-21.5 -232.5t-69 -200t-119 -157.5t-177 -102t-237.5 -37t-238 37t-177.5 102t-119 157.5t-69 200t-21.5 232.5zM205 711q0 -163 29.5 -289.5t77.5 -204.5 t115.5 -128t136.5 -69.5t147 -19.5q64 0 121.5 14t115.5 45t104.5 86t83 131t56.5 187t20 248q0 162 -29 290.5t-77 209.5t-114.5 134.5t-135.5 75t-145 21.5q-77 0 -146.5 -21.5t-136.5 -75t-115.5 -134.5t-78 -209.5t-29.5 -290.5zM510 1681q0 31 19.5 51.5t48.5 20.5 q28 0 48.5 -21t20.5 -51q0 -28 -20.5 -47.5t-48.5 -19.5q-29 0 -48.5 19.5t-19.5 47.5zM778 1681q0 31 19.5 51.5t48.5 20.5q28 0 48.5 -21t20.5 -51q0 -28 -20.5 -47.5t-48.5 -19.5q-29 0 -48.5 19.5t-19.5 47.5z" />
<glyph unicode="&#xd7;" horiz-adv-x="1228" d="M121 102l420 418l-420 420l76 78l417 -420l420 418l74 -76l-420 -420l420 -418l-74 -75l-420 419l-417 -419z" />
<glyph unicode="&#xd8;" horiz-adv-x="1429" d="M86 713q0 126 21.5 235t69 204t119 162.5t177.5 106.5t238 39q233 0 374 -108l103 174h45l-119 -199q113 -99 167 -258.5t54 -355.5q0 -126 -21.5 -233.5t-69 -200.5t-119 -158t-177 -102t-237.5 -37q-195 0 -338 84l-80 -138h-43l94 158q-132 90 -195 252.5t-63 374.5z M205 713q0 -394 168 -576l678 1155q-125 150 -340 150q-77 0 -146.5 -21t-136.5 -74t-115.5 -133.5t-78 -209t-29.5 -291.5zM399 111q125 -111 312 -111q77 0 145.5 19.5t135 69.5t114 128.5t77 205t29.5 290.5q0 355 -137 547z" />
<glyph unicode="&#xd9;" horiz-adv-x="1329" d="M25 1423v19h368v-19q-32 0 -48.5 -2t-36.5 -11t-28.5 -27.5t-15 -53t-6.5 -86.5v-784q0 -199 107.5 -307.5t296.5 -108.5q194 0 297.5 114t103.5 318v506q0 81 -0.5 130.5t-4.5 101t-9 79t-16.5 55t-25 39t-37 22t-49.5 13t-65 2.5v19h444v-19q-158 0 -188.5 -63.5 t-30.5 -340.5v-38v-506q2 -227 -124 -360t-365 -133q-197 0 -319.5 127.5t-122.5 369.5v770q0 109 -26.5 141.5t-98.5 32.5zM395 1804l121 29l356 -328h-14z" />
<glyph unicode="&#xda;" horiz-adv-x="1329" d="M25 1423v19h368v-19q-32 0 -48.5 -2t-36.5 -11t-28.5 -27.5t-15 -53t-6.5 -86.5v-784q0 -199 107.5 -307.5t296.5 -108.5q194 0 297.5 114t103.5 318v506q0 81 -0.5 130.5t-4.5 101t-9 79t-16.5 55t-25 39t-37 22t-49.5 13t-65 2.5v19h444v-19q-158 0 -188.5 -63.5 t-30.5 -340.5v-38v-506q2 -227 -124 -360t-365 -133q-197 0 -319.5 127.5t-122.5 369.5v770q0 109 -26.5 141.5t-98.5 32.5zM399 1505l357 328l121 -29l-463 -299h-15z" />
<glyph unicode="&#xdb;" horiz-adv-x="1329" d="M25 1423v19h368v-19q-32 0 -48.5 -2t-36.5 -11t-28.5 -27.5t-15 -53t-6.5 -86.5v-784q0 -199 107.5 -307.5t296.5 -108.5q194 0 297.5 114t103.5 318v506q0 81 -0.5 130.5t-4.5 101t-9 79t-16.5 55t-25 39t-37 22t-49.5 13t-65 2.5v19h444v-19q-158 0 -188.5 -63.5 t-30.5 -340.5v-38v-506q2 -227 -124 -360t-365 -133q-197 0 -319.5 127.5t-122.5 369.5v770q0 109 -26.5 141.5t-98.5 32.5zM377 1505l266 385l266 -385h-22l-244 260l-244 -260h-22z" />
<glyph unicode="&#xdc;" horiz-adv-x="1329" d="M25 1423v19h368v-19q-32 0 -48.5 -2t-36.5 -11t-28.5 -27.5t-15 -53t-6.5 -86.5v-784q0 -199 107.5 -307.5t296.5 -108.5q194 0 297.5 114t103.5 318v506q0 81 -0.5 130.5t-4.5 101t-9 79t-16.5 55t-25 39t-37 22t-49.5 13t-65 2.5v19h444v-19q-158 0 -188.5 -63.5 t-30.5 -340.5v-38v-506q2 -227 -124 -360t-365 -133q-197 0 -319.5 127.5t-122.5 369.5v770q0 109 -26.5 141.5t-98.5 32.5zM453 1681q0 31 19 51.5t48 20.5q28 0 49 -21t21 -51q0 -27 -21 -47t-49 -20q-29 0 -48 19.5t-19 47.5zM721 1681q0 31 19 51.5t48 20.5q28 0 49 -21 t21 -51q0 -27 -21 -47t-49 -20q-29 0 -48 19.5t-19 47.5z" />
<glyph unicode="&#xdd;" horiz-adv-x="1255" d="M18 1425v17h398v-17h-6q-21 0 -32.5 -0.5t-30.5 -5t-26.5 -12.5t-14 -24.5t-1.5 -40.5t20.5 -61t43.5 -85l313 -549l176 357q29 59 47.5 99.5t36 85t23 73t6 57.5t-12 46.5t-34 31.5t-56.5 20t-84 6v19h441v-19q-67 0 -92 -11q-45 -20 -102 -114q-51 -84 -167 -321 l-178 -361v-403q0 -32 2 -58t4.5 -45t9.5 -33.5t11.5 -24t16 -16t18 -10t22 -5t23.5 -1.5h28v-20h-354v20h28t23.5 1.5t21.5 5t17.5 10t16 16t11 24t9 33.5t4.5 45t2 58v401l-373 654q-41 70 -74.5 104t-53 40.5t-64.5 10.5q-11 1 -17 2zM414 1505l356 328l121 -29 l-463 -299h-14z" />
<glyph unicode="&#xde;" horiz-adv-x="958" d="M55 0v18q61 0 81 50t20 163v1012q0 103 -18.5 142.5t-82.5 39.5v17h303v-17q-63 0 -83.5 -40.5t-20.5 -141.5v-55q76 0 130.5 -1.5t117 -6t105.5 -13.5t90 -24t77.5 -37t59.5 -53t45 -71t26 -92t10 -116q0 -63 -10 -114.5t-26 -91t-45 -70t-59.5 -52t-77.5 -36t-89.5 -23 t-106 -13t-117 -6t-130.5 -1.5v-136q0 -112 21.5 -162.5t82.5 -50.5v-18h-303zM254 385h13q84 0 125 1t109.5 8t103 21.5t80 42.5t67 69t37.5 103t16 144q0 65 -10 118.5t-23.5 92.5t-42.5 69t-51 49.5t-66.5 33t-71 20.5t-82 10t-83 3.5t-89.5 0.5h-32v-786z" />
<glyph unicode="&#xdf;" horiz-adv-x="1114" d="M57 0v16q53 17 67.5 68t14.5 147v830q0 238 79 353.5t251 115.5q92 0 166.5 -19.5t133.5 -61t91.5 -112.5t32.5 -166q0 -70 -28 -127.5t-67 -91t-84 -56.5t-76.5 -31.5t-47.5 -8.5q54 0 111 -10.5t124 -41t118 -77.5t85.5 -128.5t34.5 -186.5q0 -203 -107.5 -316.5 t-318.5 -113.5q-75 0 -125 39t-55 81q-2 20 6 40t22 32q22 17 52 13t45 -23q17 -21 11.5 -54t-24.5 -47q-14 -12 -47 -12q-14 0 0 -14q30 -30 93 -36l22 -1q282 0 272 418q-2 82 -18.5 148.5t-41 110t-61.5 75.5t-72 49.5t-80.5 27.5t-79 12.5t-75.5 2.5v16q40 0 72.5 4.5 t74 23.5t70 51.5t48.5 93t20 143.5q0 69 -14 124.5t-34 90t-51 59t-56 36t-57.5 18t-47 7t-33.5 0.5h-4q-61 0 -106 -33t-65.5 -80.5t-32 -94.5t-12.5 -80l-1 -33v-1190h-195z" />
<glyph unicode="&#xe0;" horiz-adv-x="911" d="M84 195q0 55 22 99t60 77t106 63.5t141.5 53.5t186.5 53v110q0 165 -72 241.5t-206 20.5q-43 -20 -69 -42.5t-32 -35.5t0 -14q33 -7 49 -26q20 -23 17.5 -54t-25.5 -53q-23 -21 -52.5 -18.5t-49.5 26.5q-31 39 -15 78q7 17 21.5 37.5t51.5 54t87 60.5q37 18 82 28t71 10 l27 1q65 0 110 -29t70 -85.5t35.5 -127.5t10.5 -168v-391q0 -5 0.5 -12.5t5 -27.5t12.5 -35t26 -27.5t42 -12.5q2 0 5.5 0.5t13.5 4.5t18.5 10.5t17 21.5t12.5 35l17 -6q-9 -52 -45 -92.5t-95 -40.5h-15.5t-33.5 8.5t-43 25t-34 54t-15 90.5q-20 -79 -99.5 -128.5 t-185.5 -49.5q-5 0 -13 0.5t-32 4.5t-46 11t-48.5 23t-46 37.5t-32.5 57t-13 79.5zM186 227q0 -88 51 -137t140 -49q153 0 223 149v332q-211 -53 -312.5 -122t-101.5 -173zM270 1413l121 29l357 -328h-15z" />
<glyph unicode="&#xe1;" horiz-adv-x="911" d="M84 195q0 55 22 99t60 77t106 63.5t141.5 53.5t186.5 53v110q0 165 -72 241.5t-206 20.5q-43 -20 -69 -42.5t-32 -35.5t0 -14q33 -7 49 -26q20 -23 17.5 -54t-25.5 -53q-23 -21 -52.5 -18.5t-49.5 26.5q-31 39 -15 78q7 17 21.5 37.5t51.5 54t87 60.5q37 18 82 28t71 10 l27 1q65 0 110 -29t70 -85.5t35.5 -127.5t10.5 -168v-391q0 -5 0.5 -12.5t5 -27.5t12.5 -35t26 -27.5t42 -12.5q2 0 5.5 0.5t13.5 4.5t18.5 10.5t17 21.5t12.5 35l17 -6q-9 -52 -45 -92.5t-95 -40.5h-15.5t-33.5 8.5t-43 25t-34 54t-15 90.5q-20 -79 -99.5 -128.5 t-185.5 -49.5q-5 0 -13 0.5t-32 4.5t-46 11t-48.5 23t-46 37.5t-32.5 57t-13 79.5zM186 227q0 -88 51 -137t140 -49q153 0 223 149v332q-211 -53 -312.5 -122t-101.5 -173zM242 1114l356 328l121 -29l-463 -299h-14z" />
<glyph unicode="&#xe2;" horiz-adv-x="911" d="M84 195q0 55 22 99t60 77t106 63.5t141.5 53.5t186.5 53v110q0 165 -72 241.5t-206 20.5q-43 -20 -69 -42.5t-32 -35.5t0 -14q33 -7 49 -26q20 -23 17.5 -54t-25.5 -53q-23 -21 -52.5 -18.5t-49.5 26.5q-31 39 -15 78q7 17 21.5 37.5t51.5 54t87 60.5q37 18 82 28t71 10 l27 1q65 0 110 -29t70 -85.5t35.5 -127.5t10.5 -168v-391q0 -5 0.5 -12.5t5 -27.5t12.5 -35t26 -27.5t42 -12.5q2 0 5.5 0.5t13.5 4.5t18.5 10.5t17 21.5t12.5 35l17 -6q-9 -52 -45 -92.5t-95 -40.5h-15.5t-33.5 8.5t-43 25t-34 54t-15 90.5q-20 -79 -99.5 -128.5 t-185.5 -49.5q-5 0 -13 0.5t-32 4.5t-46 11t-48.5 23t-46 37.5t-32.5 57t-13 79.5zM186 227q0 -88 51 -137t140 -49q153 0 223 149v332q-211 -53 -312.5 -122t-101.5 -173zM213 1057l266 385l266 -385h-22l-244 260l-243 -260h-23z" />
<glyph unicode="&#xe3;" horiz-adv-x="911" d="M45 1184q28 74 75 119.5t94.5 57t91 12.5t70.5 -7l27 -8l226 -88q25 -11 67.5 -13.5t88.5 4.5t87 32t58 65l8 -2q-21 -55 -52 -94.5t-64 -58.5t-68.5 -29t-66.5 -9t-55.5 4.5t-39.5 8.5l-14 4l-224 88q-28 10 -68 14t-86 -1.5t-87.5 -31t-61.5 -69.5zM84 195q0 55 22 99 t60 77t106 63.5t141.5 53.5t186.5 53v110q0 165 -72 241.5t-206 20.5q-43 -20 -69 -42.5t-32 -35.5t0 -14q33 -7 49 -26q20 -23 17.5 -54t-25.5 -53q-23 -21 -52.5 -18.5t-49.5 26.5q-31 39 -15 78q7 17 21.5 37.5t51.5 54t87 60.5q37 18 82 28t71 10l27 1q65 0 110 -29 t70 -85.5t35.5 -127.5t10.5 -168v-391q0 -5 0.5 -12.5t5 -27.5t12.5 -35t26 -27.5t42 -12.5q2 0 5.5 0.5t13.5 4.5t18.5 10.5t17 21.5t12.5 35l17 -6q-9 -52 -45 -92.5t-95 -40.5h-15.5t-33.5 8.5t-43 25t-34 54t-15 90.5q-20 -79 -99.5 -128.5t-185.5 -49.5q-5 0 -13 0.5 t-32 4.5t-46 11t-48.5 23t-46 37.5t-32.5 57t-13 79.5zM186 227q0 -88 51 -137t140 -49q153 0 223 149v332q-211 -53 -312.5 -122t-101.5 -173z" />
<glyph unicode="&#xe4;" horiz-adv-x="911" d="M84 195q0 55 22 99t60 77t106 63.5t141.5 53.5t186.5 53v110q0 165 -72 241.5t-206 20.5q-43 -20 -69 -42.5t-32 -35.5t0 -14q33 -7 49 -26q20 -23 17.5 -54t-25.5 -53q-23 -21 -52.5 -18.5t-49.5 26.5q-31 39 -15 78q7 17 21.5 37.5t51.5 54t87 60.5q37 18 82 28t71 10 l27 1q65 0 110 -29t70 -85.5t35.5 -127.5t10.5 -168v-391q0 -5 0.5 -12.5t5 -27.5t12.5 -35t26 -27.5t42 -12.5q2 0 5.5 0.5t13.5 4.5t18.5 10.5t17 21.5t12.5 35l17 -6q-9 -52 -45 -92.5t-95 -40.5h-15.5t-33.5 8.5t-43 25t-34 54t-15 90.5q-20 -79 -99.5 -128.5 t-185.5 -49.5q-5 0 -13 0.5t-32 4.5t-46 11t-48.5 23t-46 37.5t-32.5 57t-13 79.5zM186 227q0 -88 51 -137t140 -49q153 0 223 149v332q-211 -53 -312.5 -122t-101.5 -173zM240 1262q0 31 19 51t48 20q28 0 49 -20.5t21 -50.5q0 -28 -21 -48t-49 -20q-29 0 -48 20t-19 48z M508 1262q0 31 19 51t48 20q28 0 49 -20.5t21 -50.5q0 -28 -21 -48t-49 -20q-29 0 -48 20t-19 48z" />
<glyph unicode="&#xe5;" horiz-adv-x="911" d="M84 195q0 55 22 99t60 77t106 63.5t141.5 53.5t186.5 53v110q0 165 -72 241.5t-206 20.5q-43 -20 -69 -42.5t-32 -35.5t0 -14q33 -7 49 -26q20 -23 17.5 -54t-25.5 -53q-23 -21 -52.5 -18.5t-49.5 26.5q-31 39 -15 78q7 17 21.5 37.5t51.5 54t87 60.5q37 18 82 28t71 10 l27 1q65 0 110 -29t70 -85.5t35.5 -127.5t10.5 -168v-391q0 -5 0.5 -12.5t5 -27.5t12.5 -35t26 -27.5t42 -12.5q2 0 5.5 0.5t13.5 4.5t18.5 10.5t17 21.5t12.5 35l17 -6q-9 -52 -45 -92.5t-95 -40.5h-15.5t-33.5 8.5t-43 25t-34 54t-15 90.5q-20 -79 -99.5 -128.5 t-185.5 -49.5q-5 0 -13 0.5t-32 4.5t-46 11t-48.5 23t-46 37.5t-32.5 57t-13 79.5zM186 227q0 -88 51 -137t140 -49q153 0 223 149v332q-211 -53 -312.5 -122t-101.5 -173zM254 1307q0 78 55 134t133 56t133.5 -56t55.5 -134q0 -77 -55.5 -133t-133.5 -56t-133 56t-55 133z M301 1307q0 -59 40.5 -100.5t100.5 -41.5q58 0 100 41.5t42 100.5q0 60 -41.5 101.5t-100.5 41.5q-60 0 -100.5 -41.5t-40.5 -101.5z" />
<glyph unicode="&#xe6;" horiz-adv-x="1376" d="M82 195q0 50 20.5 91t56.5 72t99.5 60.5t132.5 52.5t174 53v127q0 169 -61 243t-193 19q-43 -20 -69 -42.5t-31.5 -35.5t0.5 -14q29 -4 49 -26q20 -23 17.5 -54t-25.5 -53q-23 -21 -52.5 -18.5t-49.5 26.5q-31 39 -15 78q7 17 20 37t49.5 53t86.5 60q37 18 77 28.5 t62 11.5l21 1q146 0 198 -162q61 83 128 122.5t163 39.5q73 0 134.5 -26.5t111.5 -81.5t78 -150.5t28 -223.5h-614q0 -240 68.5 -348t226.5 -108q98 0 170 67.5t94 147.5l12 -9q-5 -26 -17.5 -55.5t-38.5 -65.5t-61 -64t-88.5 -47t-115.5 -19q-251 0 -330 217 q-24 -108 -100 -162.5t-185 -54.5q-9 0 -25 1.5t-55.5 13t-70 31.5t-55.5 63.5t-25 103.5zM184 229q0 -91 51 -139.5t140 -48.5q82 0 136.5 50.5t78.5 125.5q-10 38 -17.5 113.5t-7.5 124.5v51q-5 -2 -36 -11t-54 -16.5t-61 -22.5t-66.5 -29.5t-61 -36.5t-53.5 -45 t-35 -53.5t-14 -62.5zM680 502h506q0 104 -17.5 185.5t-44 129t-61 78t-64.5 41t-59 10.5q-48 0 -91.5 -22t-82.5 -70t-62.5 -138.5t-23.5 -213.5z" />
<glyph unicode="&#xe7;" horiz-adv-x="944" d="M92 467q0 133 58 246.5t165.5 182.5t241.5 69q72 0 128 -13.5t85.5 -32t48.5 -42t24 -40.5t5 -30q0 -43 -37 -64q-24 -12 -54 -4.5t-40 31.5q-14 28 -6 55t34 39q31 12 52 4q4 -1 3 1q-1 11 -35 31q-80 46 -208 46q-33 0 -70.5 -8.5t-88 -39t-89.5 -79t-66.5 -138 t-27.5 -206.5q0 -94 21 -171.5t55 -127.5t78.5 -84.5t90.5 -49.5t93 -15q70 0 127.5 22t94.5 58.5t59.5 74.5t33.5 78l15 -2q-5 -33 -18.5 -67.5t-41 -73t-65 -67.5t-96.5 -48.5t-130 -19.5h-14l-41 -117q135 30 204.5 -21.5t59.5 -138.5q-22 -160 -204 -160 q-40 -1 -69.5 9.5t-39 19.5t-14.5 18q-11 19 2 39q8 12 22.5 15t26.5 -6q13 -7 16.5 -22.5t-4.5 -27.5q-11 -14 -24 -14q-4 0 4.5 -6.5t30.5 -13t49 -5.5q61 0 101 34t40 100q0 24 -6 46.5t-21 47.5t-41 38.5t-66.5 19t-97.5 -10.5l54 156q-58 4 -113.5 22t-109.5 56 t-94.5 91.5t-65.5 135t-25 180.5z" />
<glyph unicode="&#xe8;" horiz-adv-x="935" d="M76 461q0 230 118.5 367t292.5 137q70 0 134 -29t117 -84.5t84.5 -148.5t31.5 -211h-657q0 -127 24.5 -220t70 -146.5t103 -78t129.5 -24.5q99 0 183 66t104 149l12 -2q-3 -27 -17 -59.5t-41.5 -67t-64 -63t-89.5 -46.5t-113 -18q-186 0 -304 129t-118 350zM197 512h555 q0 96 -20 174t-49.5 125t-67 79t-69.5 44t-59 12q-36 0 -74.5 -14t-77.5 -47.5t-69.5 -82t-49.5 -124t-19 -166.5zM254 1413l121 29l356 -328h-14z" />
<glyph unicode="&#xe9;" horiz-adv-x="935" d="M76 461q0 230 118.5 367t292.5 137q70 0 134 -29t117 -84.5t84.5 -148.5t31.5 -211h-657q0 -127 24.5 -220t70 -146.5t103 -78t129.5 -24.5q99 0 183 66t104 149l12 -2q-3 -27 -17 -59.5t-41.5 -67t-64 -63t-89.5 -46.5t-113 -18q-186 0 -304 129t-118 350zM197 512h555 q0 96 -20 174t-49.5 125t-67 79t-69.5 44t-59 12q-36 0 -74.5 -14t-77.5 -47.5t-69.5 -82t-49.5 -124t-19 -166.5zM242 1114l356 328l121 -29l-463 -299h-14z" />
<glyph unicode="&#xea;" horiz-adv-x="935" d="M76 461q0 230 118.5 367t292.5 137q70 0 134 -29t117 -84.5t84.5 -148.5t31.5 -211h-657q0 -127 24.5 -220t70 -146.5t103 -78t129.5 -24.5q99 0 183 66t104 149l12 -2q-3 -27 -17 -59.5t-41.5 -67t-64 -63t-89.5 -46.5t-113 -18q-186 0 -304 129t-118 350zM197 512h555 q0 96 -20 174t-49.5 125t-67 79t-69.5 44t-59 12q-36 0 -74.5 -14t-77.5 -47.5t-69.5 -82t-49.5 -124t-19 -166.5zM244 1057l266 385l266 -385h-22l-244 260l-244 -260h-22z" />
<glyph unicode="&#xeb;" horiz-adv-x="935" d="M76 461q0 230 118.5 367t292.5 137q70 0 134 -29t117 -84.5t84.5 -148.5t31.5 -211h-657q0 -127 24.5 -220t70 -146.5t103 -78t129.5 -24.5q99 0 183 66t104 149l12 -2q-3 -27 -17 -59.5t-41.5 -67t-64 -63t-89.5 -46.5t-113 -18q-186 0 -304 129t-118 350zM197 512h555 q0 96 -20 174t-49.5 125t-67 79t-69.5 44t-59 12q-36 0 -74.5 -14t-77.5 -47.5t-69.5 -82t-49.5 -124t-19 -166.5zM301 1262q0 31 19.5 51t48.5 20q28 0 48.5 -20.5t20.5 -50.5q0 -28 -20.5 -48t-48.5 -20q-29 0 -48.5 20t-19.5 48zM569 1262q0 31 19.5 51t48.5 20 q28 0 49 -20.5t21 -50.5q0 -28 -21 -48t-49 -20q-29 0 -48.5 20t-19.5 48z" />
<glyph unicode="&#xec;" horiz-adv-x="425" d="M-86 1413l121 29l356 -328h-14zM59 913v17l205 35v-834q0 -26 0.5 -41t3.5 -27.5t5 -18t11 -10t14.5 -6t22 -4.5t27.5 -6v-18h-268v18q10 3 23.5 6.5t18.5 5t13.5 5t11 5.5t7 8.5t5 12t2 17t1.5 23v30.5v682q0 56 -20.5 78t-82.5 22z" />
<glyph unicode="&#xed;" horiz-adv-x="425" d="M-31 1114l357 328l120 -29l-462 -299h-15zM59 913v17l205 35v-834q0 -26 0.5 -41t3.5 -27.5t5 -18t11 -10t14.5 -6t22 -4.5t27.5 -6v-18h-268v18q10 3 23.5 6.5t18.5 5t13.5 5t11 5.5t7 8.5t5 12t2 17t1.5 23v30.5v682q0 56 -20.5 78t-82.5 22z" />
<glyph unicode="&#xee;" horiz-adv-x="425" d="M-61 1057l266 385l266 -385h-22l-244 260l-244 -260h-22zM59 913v17l205 35v-834q0 -26 0.5 -41t3.5 -27.5t5 -18t11 -10t14.5 -6t22 -4.5t27.5 -6v-18h-268v18q10 3 23.5 6.5t18.5 5t13.5 5t11 5.5t7 8.5t5 12t2 17t1.5 23v30.5v682q0 56 -20.5 78t-82.5 22z" />
<glyph unicode="&#xef;" horiz-adv-x="425" d="M-2 1262q0 31 19.5 51t48.5 20q28 0 48.5 -20.5t20.5 -50.5q0 -28 -20.5 -48t-48.5 -20q-29 0 -48.5 20t-19.5 48zM59 913v17l205 35v-834q0 -26 0.5 -41t3.5 -27.5t5 -18t11 -10t14.5 -6t22 -4.5t27.5 -6v-18h-268v18q10 3 23.5 6.5t18.5 5t13.5 5t11 5.5t7 8.5t5 12 t2 17t1.5 23v30.5v682q0 56 -20.5 78t-82.5 22zM266 1262q0 31 19.5 51t48.5 20q28 0 48.5 -20.5t20.5 -50.5q0 -28 -20.5 -48t-48.5 -20q-29 0 -48.5 20t-19.5 48z" />
<glyph unicode="&#xf0;" horiz-adv-x="1007" d="M80 432q7 94 39 176.5t85.5 147t133.5 102t176 37.5q91 0 176 -44.5t131 -139.5q0 133 -51.5 297t-122.5 260l-301 -156l-29 16l314 166q-132 148 -316 148v18q114 0 195 -35t166 -110l203 110l28 -18l-209 -115q93 -113 162.5 -274.5t69.5 -323.5q0 -125 -16.5 -231 t-53.5 -196t-92.5 -152.5t-138 -97.5t-185.5 -35q-68 0 -134 27t-122 79t-86.5 141.5t-21.5 202.5zM213 426q-6 -113 11.5 -198.5t52.5 -133.5t77 -71t90 -23q197 0 287 160t90 516v4q-46 82 -126.5 126t-157.5 44q-148 0 -230.5 -110.5t-93.5 -313.5z" />
<glyph unicode="&#xf1;" horiz-adv-x="958" d="M23 913v17l204 35v-209q30 87 113 148t178 61q139 0 223 -83.5t84 -258.5v-492q0 -25 0.5 -41t4 -28t5.5 -18t11 -11t14 -6t22 -4.5t27 -6.5v-16h-266v16q9 3 23 7t19 5t14 5t10.5 6t6.5 9t5.5 12t2 17t1.5 23.5v30.5v483q0 138 -65 216.5t-189 78.5q-46 0 -88 -18.5 t-72 -49.5t-49.5 -58.5t-34.5 -57.5v-594q0 -26 0.5 -41t3.5 -27.5t5 -18t11 -10t14.5 -6t22 -4.5t27.5 -6v-18h-268v18q10 3 23.5 6.5t18.5 5t13.5 5t11 5.5t7 8.5t5 12t2 17t1.5 23v30.5v680q0 57 -20 79.5t-82 22.5zM66 1184q28 74 75 119.5t94.5 57t91 12.5t70.5 -7 l27 -8l225 -88q25 -11 67.5 -13.5t88.5 4.5t87 32t58 65l8 -2q-21 -55 -52 -94.5t-64 -58.5t-68.5 -29t-66.5 -9t-55.5 4.5t-39.5 8.5l-14 4l-223 88q-28 10 -68 14t-86 -1.5t-87.5 -31t-61.5 -69.5z" />
<glyph unicode="&#xf2;" horiz-adv-x="1093" d="M84 473q0 103 28 191t83 156t144 106.5t202 38.5q114 0 202.5 -38.5t143 -106.5t82.5 -156t28 -191t-28 -190.5t-82.5 -155.5t-143 -106.5t-202.5 -38.5q-91 0 -166.5 25.5t-129 70t-90 106.5t-54 135t-17.5 154zM201 473q0 -107 19.5 -191t52 -136t77.5 -86t91.5 -47 t99.5 -13t99.5 13t91 47t76.5 86t51.5 135.5t19.5 191.5t-19.5 191.5t-51.5 135.5t-76.5 86t-91 47t-99.5 13t-99.5 -13t-91.5 -47t-77.5 -86t-52 -136t-19.5 -191zM305 1413l121 29l356 -328h-14z" />
<glyph unicode="&#xf3;" horiz-adv-x="1093" d="M84 473q0 103 28 191t83 156t144 106.5t202 38.5q114 0 202.5 -38.5t143 -106.5t82.5 -156t28 -191t-28 -190.5t-82.5 -155.5t-143 -106.5t-202.5 -38.5q-91 0 -166.5 25.5t-129 70t-90 106.5t-54 135t-17.5 154zM201 473q0 -107 19.5 -191t52 -136t77.5 -86t91.5 -47 t99.5 -13t99.5 13t91 47t76.5 86t51.5 135.5t19.5 191.5t-19.5 191.5t-51.5 135.5t-76.5 86t-91 47t-99.5 13t-99.5 -13t-91.5 -47t-77.5 -86t-52 -136t-19.5 -191zM311 1114l357 328l120 -29l-462 -299h-15z" />
<glyph unicode="&#xf4;" horiz-adv-x="1093" d="M84 473q0 103 28 191t83 156t144 106.5t202 38.5q114 0 202.5 -38.5t143 -106.5t82.5 -156t28 -191t-28 -190.5t-82.5 -155.5t-143 -106.5t-202.5 -38.5q-91 0 -166.5 25.5t-129 70t-90 106.5t-54 135t-17.5 154zM201 473q0 -107 19.5 -191t52 -136t77.5 -86t91.5 -47 t99.5 -13t99.5 13t91 47t76.5 86t51.5 135.5t19.5 191.5t-19.5 191.5t-51.5 135.5t-76.5 86t-91 47t-99.5 13t-99.5 -13t-91.5 -47t-77.5 -86t-52 -136t-19.5 -191zM272 1057l267 385l266 -385h-23l-243 260l-244 -260h-23z" />
<glyph unicode="&#xf5;" horiz-adv-x="1093" d="M84 473q0 103 28 191t83 156t144 106.5t202 38.5q114 0 202.5 -38.5t143 -106.5t82.5 -156t28 -191t-28 -190.5t-82.5 -155.5t-143 -106.5t-202.5 -38.5q-91 0 -166.5 25.5t-129 70t-90 106.5t-54 135t-17.5 154zM127 1184q28 74 75 119.5t94.5 57t91 12.5t70.5 -7l27 -8 l226 -88q25 -11 67.5 -13.5t88.5 4.5t87 32t58 65l8 -2q-21 -55 -52 -94.5t-64 -58.5t-68.5 -29t-66.5 -9t-56 4.5t-39 8.5l-15 4l-223 88q-28 10 -68 14t-86 -1.5t-87.5 -31t-61.5 -69.5zM201 473q0 -107 19.5 -191t52 -136t77.5 -86t91.5 -47t99.5 -13t99.5 13t91 47 t76.5 86t51.5 135.5t19.5 191.5t-19.5 191.5t-51.5 135.5t-76.5 86t-91 47t-99.5 13t-99.5 -13t-91.5 -47t-77.5 -86t-52 -136t-19.5 -191z" />
<glyph unicode="&#xf6;" horiz-adv-x="1093" d="M84 473q0 103 28 191t83 156t144 106.5t202 38.5q114 0 202.5 -38.5t143 -106.5t82.5 -156t28 -191t-28 -190.5t-82.5 -155.5t-143 -106.5t-202.5 -38.5q-91 0 -166.5 25.5t-129 70t-90 106.5t-54 135t-17.5 154zM201 473q0 -107 19.5 -191t52 -136t77.5 -86t91.5 -47 t99.5 -13t99.5 13t91 47t76.5 86t51.5 135.5t19.5 191.5t-19.5 191.5t-51.5 135.5t-76.5 86t-91 47t-99.5 13t-99.5 -13t-91.5 -47t-77.5 -86t-52 -136t-19.5 -191zM344 1262q0 31 19.5 51t48.5 20q28 0 48.5 -20.5t20.5 -50.5q0 -28 -20.5 -48t-48.5 -20q-29 0 -48.5 20 t-19.5 48zM612 1262q0 31 19.5 51t48.5 20q28 0 49 -20.5t21 -50.5q0 -28 -21 -48t-49 -20q-29 0 -48.5 20t-19.5 48z" />
<glyph unicode="&#xf7;" horiz-adv-x="1280" d="M92 526v78h1098v-78h-1098zM553 123q0 37 25.5 62.5t62.5 25.5q35 0 60.5 -25.5t25.5 -62.5q0 -35 -25.5 -60.5t-60.5 -25.5q-37 0 -62.5 25.5t-25.5 60.5zM553 1010q0 37 25.5 62.5t62.5 25.5q35 0 60.5 -25.5t25.5 -62.5q0 -35 -25.5 -60.5t-60.5 -25.5 q-37 0 -62.5 25.5t-25.5 60.5z" />
<glyph unicode="&#xf8;" horiz-adv-x="1095" d="M84 469q0 103 28 191.5t83 157.5t144 108t202 39q131 0 227 -52l90 162h31l-96 -174q102 -59 153 -173.5t51 -258.5q0 -102 -28 -189t-82.5 -154.5t-143 -105.5t-202.5 -38q-128 0 -228 51l-94 -170h-33l103 184q-102 61 -153.5 172t-51.5 250zM201 469q0 -260 112 -379 l430 784q-83 72 -202 72q-53 0 -99.5 -13.5t-91.5 -48t-77.5 -87t-52 -137t-19.5 -191.5zM334 72q80 -72 207 -72q44 0 83 9t78 29.5t70.5 57t55.5 87t37.5 123.5t13.5 163q0 265 -113 385z" />
<glyph unicode="&#xf9;" horiz-adv-x="987" d="M35 911v17l213 37v-672q0 -70 22 -122t59 -80.5t79.5 -42t89.5 -13.5q100 0 160 52t85 130v567v53.5t-4 34.5t-7.5 23t-17.5 10t-26.5 6h-40.5v17l199 37v-811q0 -73 19.5 -96t84.5 -31v-17l-164 -26q-20 -4 -31 1.5t-11 12.5l-1 8v168q-18 -80 -90.5 -136t-177.5 -56 q-45 0 -85 6t-86 25.5t-78.5 51.5t-54 89t-21.5 133v483v47t-2.5 34t-3.5 26t-9 16t-13 11t-21 4t-27.5 3h-38.5zM283 1413l120 29l357 -328h-15z" />
<glyph unicode="&#xfa;" horiz-adv-x="987" d="M35 911v17l213 37v-672q0 -70 22 -122t59 -80.5t79.5 -42t89.5 -13.5q100 0 160 52t85 130v567v53.5t-4 34.5t-7.5 23t-17.5 10t-26.5 6h-40.5v17l199 37v-811q0 -73 19.5 -96t84.5 -31v-17l-164 -26q-20 -4 -31 1.5t-11 12.5l-1 8v168q-18 -80 -90.5 -136t-177.5 -56 q-45 0 -85 6t-86 25.5t-78.5 51.5t-54 89t-21.5 133v483v47t-2.5 34t-3.5 26t-9 16t-13 11t-21 4t-27.5 3h-38.5zM250 1114l356 328l121 -29l-463 -299h-14z" />
<glyph unicode="&#xfb;" horiz-adv-x="987" d="M35 911v17l213 37v-672q0 -70 22 -122t59 -80.5t79.5 -42t89.5 -13.5q100 0 160 52t85 130v567v53.5t-4 34.5t-7.5 23t-17.5 10t-26.5 6h-40.5v17l199 37v-811q0 -73 19.5 -96t84.5 -31v-17l-164 -26q-20 -4 -31 1.5t-11 12.5l-1 8v168q-18 -80 -90.5 -136t-177.5 -56 q-45 0 -85 6t-86 25.5t-78.5 51.5t-54 89t-21.5 133v483v47t-2.5 34t-3.5 26t-9 16t-13 11t-21 4t-27.5 3h-38.5zM221 1057l266 385l267 -385h-23l-244 260l-243 -260h-23z" />
<glyph unicode="&#xfc;" horiz-adv-x="987" d="M35 911v17l213 37v-672q0 -70 22 -122t59 -80.5t79.5 -42t89.5 -13.5q100 0 160 52t85 130v567v53.5t-4 34.5t-7.5 23t-17.5 10t-26.5 6h-40.5v17l199 37v-811q0 -73 19.5 -96t84.5 -31v-17l-164 -26q-20 -4 -31 1.5t-11 12.5l-1 8v168q-18 -80 -90.5 -136t-177.5 -56 q-45 0 -85 6t-86 25.5t-78.5 51.5t-54 89t-21.5 133v483v47t-2.5 34t-3.5 26t-9 16t-13 11t-21 4t-27.5 3h-38.5zM281 1262q0 31 19 51t48 20q28 0 49 -20.5t21 -50.5q0 -28 -21 -48t-49 -20q-29 0 -48 20t-19 48zM549 1262q0 31 19 51t48 20q28 0 49 -20.5t21 -50.5 q0 -28 -21 -48t-49 -20q-29 0 -48 20t-19 48z" />
<glyph unicode="&#xfd;" horiz-adv-x="1077" d="M23 930v16h364v-16q-44 0 -67.5 -17.5t-25.5 -43t2.5 -51t12.5 -42.5l8 -18l291 -629l164 469q3 7 6.5 19t11.5 47t11.5 66.5t-0.5 70t-18 66t-46.5 46t-81.5 17.5v16h392v-16q-33 0 -55 -6t-46.5 -24.5t-46.5 -56t-48.5 -97.5t-59.5 -152l-322 -907q-32 -99 -98 -152 q-15 -12 -40 -15.5t-46 5.5q-29 13 -39.5 42t0.5 56q13 29 41.5 40t56.5 -1q14 -6 25 -19t14 -26q6 -28 33 3q22 27 39 73l106 307l-379 803q-53 114 -159 127zM336 1114l356 328l121 -29l-463 -299h-14z" />
<glyph unicode="&#xfe;" horiz-adv-x="1048" d="M33 1444v16l205 35v-682q43 70 126 111t171 41q91 0 164.5 -28.5t121 -76.5t79 -113t45 -135t13.5 -147q0 -225 -127 -354t-327 -129q-152 0 -266 92v-486q0 -30 2 -46.5t3 -28t10 -17t13.5 -8t24.5 -6t31 -6.5v-19h-269v19q10 3 28.5 8t22.5 6t13.5 7t10.5 10.5t4 17 t3 25.5v38v1753q0 57 -20 80t-82 23zM238 266q5 -120 74.5 -193t183.5 -73q41 0 81.5 10.5t86 40t80 75.5t57 123.5t22.5 176.5q0 233 -91 362.5t-236 129.5q-114 0 -183 -68.5t-75 -187.5v-396z" />
<glyph unicode="&#xff;" horiz-adv-x="1077" d="M23 930v16h364v-16q-44 0 -67.5 -17.5t-25.5 -43t2.5 -51t12.5 -42.5l8 -18l291 -629l164 469q3 7 6.5 19t11.5 47t11.5 66.5t-0.5 70t-18 66t-46.5 46t-81.5 17.5v16h392v-16q-33 0 -55 -6t-46.5 -24.5t-46.5 -56t-48.5 -97.5t-59.5 -152l-322 -907q-32 -99 -98 -152 q-15 -12 -40 -15.5t-46 5.5q-29 13 -39.5 42t0.5 56q13 29 41.5 40t56.5 -1q14 -6 25 -19t14 -26q6 -28 33 3q22 27 39 73l106 307l-379 803q-53 114 -159 127zM344 1262q0 31 19.5 51t48.5 20q28 0 48.5 -20.5t20.5 -50.5q0 -28 -20.5 -48t-48.5 -20q-29 0 -48.5 20 t-19.5 48zM612 1262q0 31 19.5 51t48.5 20q28 0 49 -20.5t21 -50.5q0 -28 -21 -48t-49 -20q-29 0 -48.5 20t-19.5 48z" />
<glyph unicode="&#x152;" horiz-adv-x="1701" d="M88 709q0 127 17 234t59 204.5t107.5 164.5t167 106.5t233.5 39.5q17 0 30 -0.5t25.5 -2.5t19.5 -3t23.5 -4.5t26.5 -5.5h788v-348h-18q0 69 -10.5 120t-25 87t-49 59.5t-64 36.5t-90 19t-106.5 7.5t-132 1.5h-109v-686h111h12q99 0 140 18q83 38 83 181h19v-420h-19 q0 42 -7.5 74t-18 53t-30.5 35.5t-35 21.5t-43 10.5t-42.5 4t-44.5 0.5h-14h-111v-699h74q216 0 278 7q136 16 193 88q67 85 67 293h19v-406h-811q-77 -18 -129 -18q-132 0 -233.5 37t-167 101t-107.5 157.5t-59 198.5t-17 233zM207 709q0 -711 465 -711q77 0 130.5 36.5 t53.5 94.5v1159q0 75 -53 113.5t-131 38.5q-77 0 -142.5 -21.5t-126 -74.5t-103 -134.5t-68 -209.5t-25.5 -291z" />
<glyph unicode="&#x153;" horiz-adv-x="1626" d="M88 471q0 106 22 192t69 155.5t129.5 108t195.5 38.5q140 0 220.5 -59.5t139.5 -174.5q60 116 138 175t190 59q73 0 135 -28.5t111.5 -86t77.5 -154.5t28 -225h-614q0 -233 73.5 -337.5t221.5 -104.5q99 0 177.5 71.5t90.5 143.5l12 -4q-5 -27 -16 -56.5t-36 -66.5 t-57.5 -66t-85 -49t-114.5 -20q-121 0 -199 54.5t-137 164.5q-38 -72 -79.5 -116.5t-111 -73.5t-165.5 -29q-113 0 -195.5 38t-129.5 107t-69 154t-22 190zM205 471q0 -135 22.5 -229.5t65 -146t94 -73.5t117.5 -22t117 22t93 73.5t64.5 146t22.5 229.5q0 109 -15 192 t-41.5 136t-64.5 86.5t-81 47t-95 13.5t-95 -13.5t-81.5 -47t-65 -86.5t-42 -136.5t-15.5 -191.5zM930 492h508q0 104 -17.5 186.5t-44 131.5t-61 81t-64.5 43.5t-59 11.5q-48 0 -92 -23.5t-83.5 -73.5t-63 -142t-23.5 -215z" />
<glyph unicode="&#x178;" horiz-adv-x="1255" d="M18 1425v17h398v-17h-6q-21 0 -32.5 -0.5t-30.5 -5t-26.5 -12.5t-14 -24.5t-1.5 -40.5t20.5 -61t43.5 -85l313 -549l176 357q29 59 47.5 99.5t36 85t23 73t6 57.5t-12 46.5t-34 31.5t-56.5 20t-84 6v19h441v-19q-67 0 -92 -11q-45 -20 -102 -114q-51 -84 -167 -321 l-178 -361v-403q0 -32 2 -58t4.5 -45t9.5 -33.5t11.5 -24t16 -16t18 -10t22 -5t23.5 -1.5h28v-20h-354v20h28t23.5 1.5t21.5 5t17.5 10t16 16t11 24t9 33.5t4.5 45t2 58v401l-373 654q-41 70 -74.5 104t-53 40.5t-64.5 10.5q-11 1 -17 2zM440 1681q0 31 19.5 51.5t48.5 20.5 q28 0 49 -21t21 -51q0 -27 -21 -47t-49 -20q-29 0 -48.5 19.5t-19.5 47.5zM709 1681q0 31 19 51.5t48 20.5q28 0 49 -21t21 -51q0 -27 -21 -47t-49 -20q-29 0 -48 19.5t-19 47.5z" />
<glyph unicode="&#x2c6;" horiz-adv-x="532" d="M0 1087l266 386l266 -386h-22l-244 261l-243 -261h-23z" />
<glyph unicode="&#x2dc;" horiz-adv-x="821" d="M-37 1182q28 74 75.5 119.5t94.5 57t90.5 12.5t70.5 -7l28 -8l225 -88q25 -11 67.5 -13.5t88.5 4.5t87 32t58 65l8 -2q-21 -55 -52 -94.5t-64 -58.5t-68.5 -29t-66.5 -9t-55.5 4.5t-39.5 8.5l-14 4l-224 88q-28 10 -68 14t-86 -1.5t-87.5 -31t-61.5 -69.5z" />
<glyph unicode="&#x2000;" horiz-adv-x="996" />
<glyph unicode="&#x2001;" horiz-adv-x="1993" />
<glyph unicode="&#x2002;" horiz-adv-x="996" />
<glyph unicode="&#x2003;" horiz-adv-x="1993" />
<glyph unicode="&#x2004;" horiz-adv-x="664" />
<glyph unicode="&#x2005;" horiz-adv-x="498" />
<glyph unicode="&#x2006;" horiz-adv-x="332" />
<glyph unicode="&#x2007;" horiz-adv-x="332" />
<glyph unicode="&#x2008;" horiz-adv-x="249" />
<glyph unicode="&#x2009;" horiz-adv-x="398" />
<glyph unicode="&#x200a;" horiz-adv-x="110" />
<glyph unicode="&#x2010;" horiz-adv-x="909" d="M131 477v88h645v-88h-645z" />
<glyph unicode="&#x2011;" horiz-adv-x="909" d="M131 477v88h645v-88h-645z" />
<glyph unicode="&#x2012;" horiz-adv-x="909" d="M131 477v88h645v-88h-645z" />
<glyph unicode="&#x2013;" horiz-adv-x="1148" d="M0 479v72h1149v-72h-1149z" />
<glyph unicode="&#x2014;" horiz-adv-x="2160" d="M0 479v72h2163v-72h-2163z" />
<glyph unicode="&#x2018;" horiz-adv-x="356" d="M111 1221.5q-1 68.5 32 132.5q1 2 9.5 15.5t11 17.5t11.5 16t16 18.5t19 16.5t26.5 19t31.5 18l4 -7q-45 -29 -71.5 -62.5t-33 -60.5t-3.5 -50t12.5 -36.5t20.5 -15.5q33 -8 47 -22q22 -20 22 -48.5t-20 -50.5q-22 -22 -51.5 -22t-49.5 22q-33 31 -34 99.5z" />
<glyph unicode="&#x2019;" horiz-adv-x="372" d="M113 1077q45 29 71.5 62.5t33 60.5t3.5 50.5t-12.5 37t-20.5 15.5q-33 8 -47 22q-22 20 -22 48t20 50q22 22 51.5 22t49.5 -22q33 -31 34 -99t-32 -132q-1 -2 -9.5 -15.5t-11 -17.5t-11.5 -16t-16 -18.5t-19 -16.5t-26.5 -19t-31.5 -18z" />
<glyph unicode="&#x201a;" horiz-adv-x="376" d="M113 -238q45 29 71.5 62.5t33.5 61t4.5 51t-12 37.5t-20.5 16q-3 1 -11.5 2.5t-13 2.5t-11.5 4.5t-13 8.5q-23 18 -23 48.5t21 52.5q22 22 51.5 22t49.5 -22q33 -31 34 -99.5t-32 -132.5q-1 -2 -9.5 -15.5t-11 -17.5t-11.5 -16t-16 -18.5t-19 -16.5t-26.5 -19t-31.5 -18z " />
<glyph unicode="&#x201c;" horiz-adv-x="686" d="M111 1221.5q-1 68.5 32 132.5q1 2 9.5 15.5t11 17.5t11.5 16t16 18.5t19 16.5t26.5 19t31.5 18l4 -7q-45 -29 -71.5 -62.5t-33 -60.5t-3.5 -50t12.5 -36.5t20.5 -15.5q33 -8 47 -22q22 -20 22 -48.5t-20 -50.5q-22 -22 -51.5 -22t-49.5 22q-33 31 -34 99.5zM414.5 1221.5 q-1.5 68.5 31.5 132.5q1 2 9.5 15.5t11 17.5t11.5 16t16 18.5t19 16.5t26.5 19t31.5 18l4 -7q-45 -29 -71.5 -62.5t-33 -60.5t-3.5 -50t12.5 -36.5t20.5 -15.5q33 -8 47 -22q22 -20 22 -48.5t-20 -50.5q-22 -22 -51 -22t-49 22q-33 31 -34.5 99.5z" />
<glyph unicode="&#x201d;" horiz-adv-x="684" d="M106 1079q45 29 71.5 62.5t33 60.5t4 50.5t-12 37t-20.5 15.5q-33 8 -47 22q-22 20 -22 48t20 50q22 22 51 22t49 -22q33 -31 34.5 -99t-31.5 -132q-1 -2 -9.5 -15.5t-11 -17.5t-11.5 -16t-16 -18.5t-19 -16.5t-26.5 -19t-31.5 -18zM410 1079q45 29 71.5 62.5t33 60.5 t3.5 50.5t-12.5 37t-20.5 15.5q-33 8 -47 22q-22 20 -22 48t20 50q22 22 51.5 22t49.5 -22q33 -31 34 -99t-32 -132q-1 -2 -9.5 -15.5t-11 -17.5t-11.5 -16t-16 -18.5t-19 -16.5t-26.5 -19t-31.5 -18z" />
<glyph unicode="&#x201e;" horiz-adv-x="684" d="M119 -238q45 29 72 62.5t33.5 61t4.5 51t-11.5 37.5t-20.5 16q-4 1 -12 2.5t-12.5 3t-12 4.5t-13.5 8q-23 18 -23 48.5t21 52.5q22 22 51.5 22t49.5 -22q33 -31 34 -99.5t-32 -132.5q-1 -2 -9.5 -15.5t-11 -17.5t-11.5 -16t-16 -18.5t-19 -16.5t-26.5 -19t-31.5 -18z M420 -238q45 29 72 62.5t33.5 61t4.5 51t-11.5 37.5t-20.5 16q-3 1 -11.5 2.5t-13 2.5t-11.5 4.5t-13 8.5q-23 18 -23.5 49t20.5 52q22 22 51.5 22t49.5 -22q33 -31 34 -99.5t-32 -132.5q-1 -2 -9.5 -15.5t-11 -17.5t-11.5 -16t-16 -18.5t-19 -16.5t-26.5 -19t-31.5 -18z " />
<glyph unicode="&#x2022;" horiz-adv-x="733" d="M207 700q0 66 45 111t110 45t110.5 -45t45.5 -111q0 -63 -46 -108t-110 -45t-109.5 45t-45.5 108z" />
<glyph unicode="&#x2026;" horiz-adv-x="1173" d="M205 57q0 31 19 51.5t48 20.5q28 0 49 -21t21 -51q0 -27 -21 -47t-49 -20q-29 0 -48 19.5t-19 47.5zM502 57q0 31 19 51.5t48 20.5q28 0 49 -21t21 -51q0 -27 -21 -47t-49 -20q-29 0 -48 19.5t-19 47.5zM803 57q0 31 19 51.5t48 20.5q28 0 49 -21t21 -51q0 -27 -21 -47 t-49 -20q-29 0 -48 19.5t-19 47.5z" />
<glyph unicode="&#x202f;" horiz-adv-x="398" />
<glyph unicode="&#x2039;" horiz-adv-x="694" d="M100 545l473 489v-26l-358 -463l358 -451v-26z" />
<glyph unicode="&#x203a;" horiz-adv-x="694" d="M98 68v26l359 451l-359 463v26l473 -489z" />
<glyph unicode="&#x205f;" horiz-adv-x="498" />
<glyph unicode="&#x20ac;" horiz-adv-x="1167" d="M43 614l16 25h205q0 13 -1 40t-1 42q0 16 1 46t1 44h-221l16 27h207q18 316 137.5 469t323.5 153q114 0 179 -23.5t161 -101.5v-270h-18q0 281 -180 355q-56 22 -142 22q-19 0 -39.5 -3.5t-53 -18t-61.5 -38t-61.5 -70t-57 -107.5t-43 -156t-24.5 -211h436l-14 -27h-424 q0 -14 -1 -43.5t-1 -46.5q0 -15 1 -42t1 -40h406l-15 -25h-391q6 -121 24.5 -219.5t43 -161t58 -108.5t62.5 -69.5t62.5 -37t52.5 -16t39 -2.5h4q17 -1 32 -0.5t49.5 7.5t62.5 19.5t62 40.5t57 66.5t39 101.5t16 142h18v-268q-120 -79 -154 -95q-66 -31 -176 -32h-12 q-203 0 -322.5 158t-136.5 474h-223z" />
<glyph unicode="&#x2122;" horiz-adv-x="1277" d="M27 1274v168h473v-168h-19q0 42 -10 72.5t-22.5 45t-31.5 22t-28 8.5t-22 1h-82v-497q0 -37 10.5 -45.5t38.5 -8.5v-18h-144v18q30 0 41 8.5t11 45.5v497h-84q-21 0 -32 -1t-29 -8.5t-27.5 -22t-17 -44.5t-7.5 -73h-18zM569 854v18q28 0 42.5 2.5t30 12.5t22 31.5 t10.5 57.5t4 93v307q-31 47 -92 47v19h123l227 -504l170 504h113v-19q-32 0 -48 -14.5t-16 -58.5v-392q0 -53 17 -69.5t49 -16.5v-18h-177v18q31 0 46.5 16.5t15.5 69.5v424l-180 -536h-6l-222 493v-270q0 -97 8.5 -138t24 -50t55.5 -9v-18h-217z" />
<glyph unicode="&#x25fc;" horiz-adv-x="942" d="M0 0v942h942v-942h-942z" />
<glyph unicode="&#xfb01;" horiz-adv-x="937" d="M37 946h133q0 138 18 241t49 167t79 103t101.5 54t123.5 15q32 0 63.5 -5t65 -19.5t58 -37t39 -60t11.5 -85.5q0 -22 -12 -44t-31 -32q-29 -15 -60 -6t-46 35q-15 29 -7 59t37 47q26 15 56 6q20 -5 19 16q-2 31 -44 64q-58 45 -149 45q-30 0 -52.5 -3.5t-52 -16 t-51 -35.5t-44 -65t-37 -100t-23.5 -145.5t-9 -197.5h299h205v-815q0 -26 0.5 -41t3.5 -27.5t5 -18t11 -10t14.5 -6t22 -4.5t27.5 -6v-18h-268v18q10 3 23.5 6.5t18.5 5t13.5 5t11 5.5t7 8.5t5 12t2 17t1.5 23v30.5v698q0 56 -20.5 77.5t-82.5 21.5h-299v-809q0 -24 2 -41 t8.5 -28t11 -17t17.5 -9.5t20.5 -4.5t26.5 -1.5t29 -1.5v-16h-297v16q7 1 23 3t19 2t13 3t11 4.5t6 8t5 11.5t1.5 17.5t1.5 23v30.5v809h-131z" />
<glyph unicode="&#xfb02;" horiz-adv-x="917" d="M16 928v18h134q0 312 81.5 446t251.5 134q129 0 185 -37l129 39v-1397q0 -26 0.5 -41t3.5 -27.5t5 -18t11 -10t14.5 -6t22 -4.5t27.5 -6v-18h-269v18q10 3 23.5 6.5t18.5 5t13.5 5t11 5.5t7 8.5t5 12t2 17t1.5 23v30.5v1223q0 60 -30 95.5t-74 47.5t-107 12 q-38 0 -69 -12.5t-62.5 -49.5t-52.5 -97.5t-34 -163t-13 -240.5h219l-4 -18h-215v-809q0 -24 2 -41t8.5 -28t11.5 -17t18 -9.5t20.5 -4.5t26 -1.5t28.5 -1.5v-16h-297v16q7 1 23 3t19 2t13 3t11 4.5t6 8t5 11.5t1.5 17.5t1.5 23v30.5v809h-134z" />
</font>
</defs>
</svg>
