<?xml version="1.0" standalone="no"?>
<!DOCTYPE svg PUBLIC "-//W3C//DTD SVG 1.1//EN" "http://www.w3.org/Graphics/SVG/1.1/DTD/svg11.dtd" >
<svg xmlns="http://www.w3.org/2000/svg" xmlns:xlink="http://www.w3.org/1999/xlink" version="1.1">
<metadata></metadata>
<defs>
<font id="butlermedium" horiz-adv-x="1429" >
<font-face units-per-em="2048" ascent="1505" descent="-543" />
<missing-glyph horiz-adv-x="526" />
<glyph horiz-adv-x="0" />
<glyph horiz-adv-x="682" />
<glyph unicode=" "  horiz-adv-x="526" />
<glyph unicode="&#x09;" horiz-adv-x="526" />
<glyph unicode="&#xa0;" horiz-adv-x="526" />
<glyph unicode="!" horiz-adv-x="651" d="M184 121q0 -58 40.5 -98.5t97.5 -40.5t97 40.5t40 98.5q0 57 -40 97t-97 40t-97.5 -40t-40.5 -97zM209 1526h231l-59 -1104h-117z" />
<glyph unicode="&#x22;" horiz-adv-x="1062" d="M207 1442h231l-57 -668h-113zM608 1442h236l-62 -668h-110z" />
<glyph unicode="#" horiz-adv-x="1452" d="M90 477v152h289l78 336h-236v149h268l97 414h157l-94 -414h301l97 414h157l-96 -414h248v-149h-281l-78 -336h230v-152h-264l-111 -477h-158l111 477h-303l-111 -477h-158l111 477h-254zM537 629h303l78 336h-304z" />
<glyph unicode="$" horiz-adv-x="1163" d="M94 102v394h17q10 -59 28 -114.5t52.5 -119t80 -112.5t116 -87.5t155.5 -50.5v592l-176 115q-441 282 -228 584q4 6 12.5 16.5t42.5 37.5t75.5 47.5t115 37.5t158.5 18v250h47v-250q131 -4 243.5 -28.5t159.5 -47.5l47 -22v-344h-16q-10 49 -27.5 97t-52.5 104t-81 98.5 t-117 73.5t-156 36v-532l223 -147q203 -133 261.5 -292.5t-40.5 -305.5q-23 -28 -43 -47t-57.5 -43.5t-81.5 -40t-111.5 -26t-150.5 -11.5v-250h-47v250q-87 4 -165.5 18t-128 30.5t-86.5 33t-53 27.5zM319 1209q-1 -59 41.5 -125t124.5 -119l58 -39v504q-64 -1 -117.5 -31 t-79.5 -80.5t-27 -109.5zM590 12q69 1 122 21t82 53.5t44 75.5t9.5 89.5t-23.5 93.5t-52.5 89.5t-79.5 75.5l-102 65v-563z" />
<glyph unicode="%" horiz-adv-x="2031" d="M289 1018q0 60 7.5 111t26.5 100.5t50 84t81 56t115 21.5t114.5 -21.5t80 -56t50 -84t27 -100.5t7.5 -111q0 -361 -279 -361q-280 0 -280 361zM444 1018q0 -140 13.5 -212t38.5 -95t73 -23q49 0 73.5 23.5t37 94.5t12.5 212q0 140 -13 214.5t-38 101t-72 26.5 q-48 0 -74 -26.5t-38.5 -100.5t-12.5 -215zM500 0l934 1442h120l-933 -1442h-121zM1206 412q0 374 279 374q278 0 278 -374q0 -361 -278 -361q-279 0 -279 361zM1360 412q0 -140 13.5 -212t38.5 -95t73 -23q49 0 73.5 23.5t37 94.5t12.5 212t-13 215.5t-38.5 101.5t-71.5 27 q-48 0 -74 -27t-38.5 -101.5t-12.5 -215.5z" />
<glyph unicode="&#x26;" horiz-adv-x="1658" d="M145 290q-11 81 13 144.5t74.5 123.5t101 99.5t106.5 71.5l103 62l-109 163q-70 96 -87.5 194t11.5 173t92.5 127.5t149.5 67.5q193 35 297 -84q27 -32 46.5 -73t27 -100.5t-7 -119.5t-66.5 -131t-141 -134l258 -382q86 189 235 223q31 9 71 3t66 -28q38 -30 42.5 -78.5 t-29.5 -87.5q-31 -37 -80 -41.5t-88 27.5q-36 33 -39 80q0 23 -31 17q-46 -9 -91 -67q-24 -32 -40 -73l162 -234q28 -42 70.5 -65.5t71.5 -25.5l28 -3q139 0 160 99h30q0 -115 -69.5 -180.5t-165.5 -75.5q-8 -1 -22.5 -1.5t-53.5 3t-73.5 12t-73.5 31.5t-62 57l-114 168 q-19 -57 -65 -109.5t-106 -90t-133 -56t-143 -14.5t-138.5 41t-117.5 106q-59 80 -70 161zM338 501q-13 -63 8 -139t78 -147q41 -51 106.5 -76.5t133 -22t131.5 46.5t100 120l-334 481l-102 -66q-45 -32 -76.5 -83t-44.5 -114zM538.5 1265q4.5 -76 51.5 -145l147 -217 q95 63 145.5 136.5t54.5 141.5t-14 125t-55 103q-45 45 -104 61.5t-115 -2.5q-53 -19 -84 -73t-26.5 -130z" />
<glyph unicode="'" horiz-adv-x="528" d="M154 1442h233l-59 -672h-113z" />
<glyph unicode="(" horiz-adv-x="665" d="M162 520q0 98 14 199t49 215t88 216.5t137.5 202t190.5 173.5l27 -25q-61 -71 -109 -157t-77.5 -160t-51 -167.5t-31 -153.5t-14.5 -145t-5.5 -115t-0.5 -89q0 -57 0.5 -89.5t5.5 -115t15 -141.5t31 -146t50 -153.5t76.5 -138.5t106.5 -125l-27 -27q-105 59 -189 147 t-136.5 183.5t-87 205t-48.5 208.5t-14 198z" />
<glyph unicode=")" horiz-adv-x="673" d="M-4 1501l27 25q106 -74 190.5 -173.5t137.5 -202t88 -216.5t49 -215t14 -199q0 -99 -14 -198t-48.5 -208.5t-87 -205t-136.5 -183.5t-189 -147l-27 27q59 53 106.5 125t76.5 138.5t50 153.5t31 146t15 141.5t5.5 115t0.5 89.5q0 59 -0.5 89t-5.5 115t-14.5 145t-31 153.5 t-51 167.5t-77.5 160t-109 157z" />
<glyph unicode="*" horiz-adv-x="1128" d="M131 1063l59 178l336 -172l-59 373h188l-59 -373l336 172l57 -178l-373 -59l269 -265l-154 -112l-170 338l-172 -338l-151 112l268 265z" />
<glyph unicode="+" horiz-adv-x="1464" d="M115 553v164h532v551h166v-551h533v-164h-533v-553h-166v553h-532z" />
<glyph unicode="," horiz-adv-x="520" d="M126 129q-1 59 40 102q43 43 103.5 43t101.5 -43q41 -40 44 -106.5t-18 -126t-55 -111.5q-62 -99 -160 -151l-18 22q58 43 90 100t28.5 88t-16.5 40q-62 7 -98 43q-41 41 -42 100z" />
<glyph unicode="-" horiz-adv-x="909" d="M131 440v164h645v-164h-645z" />
<glyph unicode="." horiz-adv-x="516" d="M113 137q0 62 43 105t104 43q60 0 104 -43.5t44 -104.5t-44 -104t-104 -43q-62 0 -104.5 43t-42.5 104z" />
<glyph unicode="/" horiz-adv-x="860" d="M29 -43l630 1528h166l-630 -1528h-166z" />
<glyph unicode="0" horiz-adv-x="1267" d="M70 709q0 751 563 751q561 0 561 -751q0 -727 -561 -727q-132 0 -232 40t-162 106t-101 162t-53.5 197t-14.5 222zM342 709q0 -140 9 -248.5t27 -184.5t42 -128t58 -81.5t71 -42t84 -12.5q59 0 102 18t80 64t59.5 124.5t35 200.5t12.5 290t-13.5 293.5t-37.5 206.5 t-60.5 131t-79.5 70t-98 20q-72 0 -123.5 -33.5t-90.5 -113t-58 -222t-19 -352.5z" />
<glyph unicode="1" horiz-adv-x="829" d="M119 1184l356 276h68v-1270q0 -45 11 -77t24.5 -47.5t39 -24t42 -9.5t45.5 -1v-31h-560v31q31 0 51.5 2t47.5 10.5t43 24.5t27.5 47t11.5 75v930q0 47 -16.5 70.5t-39 24t-51 -10.5t-48.5 -24t-34 -25z" />
<glyph unicode="2" horiz-adv-x="997" d="M80 0l459 680q144 230 87 398q-36 107 -140 154t-209 8q-111 -39 -155 -155q-4 -9 -7 -18l-31 8q7 79 32.5 143.5t60 103.5t75 67.5t79.5 41.5t71 20.5t52 8.5h19q151 0 250.5 -100t99.5 -242q0 -94 -55.5 -192.5t-192.5 -274.5q-44 -58 -120 -165.5t-129 -185.5l-54 -79 h435q56 0 106 29t82 88h29l-93 -338h-751z" />
<glyph unicode="3" horiz-adv-x="1052" d="M79 152q-10 39 1 77q15 54 64.5 80.5t103.5 9.5q54 -15 80.5 -64t9.5 -103q-15 -56 -59 -74q-12 -5 7 -22q46 -42 173 -44h12q76 0 131 28t84.5 77.5t40.5 113.5t4 142q-3 34 -13.5 70.5t-38.5 82.5t-69 83t-111 67t-159 39v33q117 28 187.5 93t85.5 138t-6.5 144 t-76.5 118q-56 47 -139 50.5t-157.5 -41.5t-100.5 -128l-31 6q7 68 30.5 123t53.5 88.5t70.5 58.5t72.5 36.5t68.5 18t50.5 7t25 0.5q76 0 144.5 -29.5t117.5 -78.5t73 -116t18 -138t-54 -149t-137 -144q144 -54 226 -150t87 -202q5 -104 -24 -187.5t-78 -135t-115 -86.5 t-130.5 -48.5t-129.5 -13.5q-225 0 -356 108q-26 23 -36 62z" />
<glyph unicode="4" horiz-adv-x="1101" d="M57 410v30l674 1016l88 -14v-907h205v-125h-205v-138q0 -69 9.5 -116.5t22.5 -71.5t38 -36.5t43 -14.5t51 -2v-31h-577v31q32 0 51 2.5t43 15t37 36t22.5 68t9.5 109.5v148h-512zM191.5 576.5q-7.5 -20.5 2.5 -29t21.5 -10.5t34.5 -2h319v608l-346 -512 q-24 -34 -31.5 -54.5z" />
<glyph unicode="5" horiz-adv-x="1095" d="M102 229q15 54 65.5 82t106.5 13q54 -15 81 -64.5t12 -105.5q-12 -54 -62 -76q-18 -8 0 -26q36 -38 152 -40h12q78 0 143 22t107 60t68.5 88.5t28.5 107t-13 116.5q-11 34 -32 68.5t-59 73.5t-91 66.5t-128 49t-170 21t-217 -18.5l138 776h708l-71 -230h-641l-60 -329 q144 24 259 23t204 -28.5t153 -69.5t106 -98t63 -114.5t24 -120.5q5 -99 -21.5 -181.5t-76 -139.5t-117.5 -96t-145 -57.5t-160 -18.5q-201 0 -328 106q-25 25 -36.5 65t-2.5 76z" />
<glyph unicode="6" horiz-adv-x="1153" d="M86 651q0 233 79.5 419.5t213.5 288t295 101.5q53 0 98 -11t73.5 -25.5t52 -35t34 -34t18.5 -27.5q18 -29 15.5 -69t-23.5 -72q-33 -45 -87.5 -55t-100.5 22q-44 31 -53.5 86.5t22.5 99.5q34 49 80 52q11 1 -2 12q-31 23 -113 27q-56 1 -103 -20.5t-90 -75t-73 -136.5 t-47.5 -212t-18.5 -294q21 55 58.5 95.5t84 62t93.5 31.5t98 10q84 0 151 -25.5t110 -68t71 -101t39.5 -120.5t11.5 -130q0 -230 -131 -347t-354 -117q-252 0 -377 176.5t-125 492.5zM356 610q0 -318 53.5 -458t178.5 -140q61 0 102 17.5t71.5 61.5t45 122t14.5 195 q0 205 -60 305t-155 100q-94 0 -172 -55t-78 -148z" />
<glyph unicode="7" horiz-adv-x="1132" d="M92 1102l45 340h924l-131 -221q-90 -162 -152.5 -344t-91 -349t-39 -290.5t-10.5 -237.5h-252q5 145 28.5 271t79 274t156 315t250.5 361h-582q-135 0 -194 -119h-31z" />
<glyph unicode="8" horiz-adv-x="1130" d="M74 319q0 125 103 232.5t229 142.5q-271 167 -271 391q0 92 33.5 164.5t91.5 118t133 69t162 23.5q187 0 298.5 -82t111.5 -227q0 -98 -72 -192.5t-188 -122.5q157 -75 257.5 -190t100.5 -245q0 -111 -36.5 -193.5t-102.5 -131t-151.5 -71.5t-190.5 -23q-508 0 -508 337z M266 328q0 -148 86.5 -232t229.5 -84q105 0 182 67.5t76 203.5q-1 58 -25.5 109t-73 94t-99 75.5t-122.5 69.5q-30 15 -74 41q-27 -13 -54.5 -36.5t-57.5 -63t-49 -103.5t-19 -141zM340 1200q0 -114 78 -195t250 -149q62 26 101 99.5t38 177.5q-1 85 -23 146t-60 92.5 t-79 45t-90 13.5q-91 0 -153 -61t-62 -169z" />
<glyph unicode="9" horiz-adv-x="1136" d="M76 999q0 226 131.5 343.5t353.5 117.5q253 0 375.5 -171t122.5 -486q0 -259 -63 -441t-193 -281t-322 -99q-216 0 -295 139q-17 29 -15 69t24 72q32 46 87 55.5t101 -22.5q44 -31 53.5 -86.5t-22.5 -99.5q-34 -49 -82 -52q-10 -1 8 -14q42 -29 125 -31q67 -2 114.5 11.5 t85 48t60.5 88t38 140t21 194.5t7 260q-85 -201 -332 -201q-84 0 -151 26t-110 68.5t-71 101t-39.5 120.5t-11.5 130zM328 1038q0 -205 60 -306t155 -101q59 0 114.5 23.5t94.5 73t39 112.5q0 311 -53 450.5t-177 139.5q-81 0 -130 -33.5t-76 -120.5t-27 -238z" />
<glyph unicode=":" horiz-adv-x="516" d="M111 180q0 63 43 107.5t106 44.5q60 0 105 -45t45 -107q0 -61 -44.5 -104t-105.5 -43q-63 0 -106 42.5t-43 104.5zM111 772q0 62 43 106t106 44q60 0 105 -44.5t45 -105.5t-45 -105t-105 -44q-63 0 -106 43.5t-43 105.5z" />
<glyph unicode=";" horiz-adv-x="514" d="M111 772q0 62 43 106t104 44q63 0 106.5 -44t43.5 -106q0 -63 -43.5 -107t-106.5 -44q-61 0 -104 44t-43 107zM116 180.5q1 -59.5 42 -100.5q36 -36 98 -43q13 -9 16.5 -40t-28.5 -87.5t-90 -99.5l18 -23q43 23 77 53t49.5 50.5t33.5 48.5q34 52 55 111.5t17.5 126 t-44.5 106.5q-41 43 -101 43t-103 -43q-41 -43 -40 -102.5z" />
<glyph unicode="&#x3c;" horiz-adv-x="1228" d="M94 500v88l1039 532v-168l-785 -407l785 -412v-166z" />
<glyph unicode="=" horiz-adv-x="1255" d="M115 244v145h1046v-145h-1046zM115 705v145h1046v-145h-1046z" />
<glyph unicode="&#x3e;" horiz-adv-x="1228" d="M96 -33v166l785 412l-785 407v168l1039 -532v-88z" />
<glyph unicode="?" horiz-adv-x="1196" d="M168 1272q11 44 53.5 96.5t108.5 81.5q119 52 242.5 56t220 -34.5t160 -119t67.5 -187.5q4 -85 -15.5 -157.5t-51 -121t-75.5 -87t-82.5 -59t-78.5 -33.5q-80 -26 -120.5 -93t-33.5 -159l-47 -9q-6 38 -6.5 70.5t6.5 78.5t34 91.5t73 83.5q52 45 83 89t48 119.5t8 178.5 q-7 79 -35.5 139t-70 93.5t-93.5 49t-106.5 11.5t-106.5 -25q-54 -23 -61 -60q-5 -25 14 -31q2 -1 4 -1q46 -6 76 -49q29 -42 20 -92t-49 -80q-41 -29 -92 -18.5t-82 53.5q-32 46 -12 125zM410 141q0 63 43 107.5t106 44.5q64 0 109 -44.5t45 -107.5t-45 -107t-109 -44 q-63 0 -106 44t-43 107z" />
<glyph unicode="@" horiz-adv-x="1802" d="M78 373q7 166 66 312t155.5 252t221.5 181.5t267 111t287 30.5q107 -4 204.5 -37.5t179.5 -98t139.5 -152.5t83.5 -210t12 -262q-9 -94 -35.5 -172t-61 -130.5t-80 -92.5t-89.5 -62t-93.5 -36t-86.5 -18.5t-74 -4.5q-67 0 -101 37.5t-26 89.5q-10 -15 -29.5 -33 t-52.5 -41t-83 -38t-106 -15q-64 0 -111.5 32.5t-72 85.5t-33.5 113.5t-2 122.5q6 55 23 114t53 124t84 115t122 82.5t162 31.5q21 0 40 -2.5t34 -7.5t28 -11t22.5 -12.5t17.5 -13.5t14 -13t9.5 -10.5t5.5 -8.5l2 -3l10 53l172 -2q-107 -538 -121 -612q-4 -22 -5 -45 t14.5 -40.5t47.5 -17.5q28 0 63.5 14t76.5 49t76 84t60.5 128t30.5 174q3 54 0 107t-15.5 114.5t-35 115.5t-61.5 106.5t-91.5 91.5t-129 66t-170.5 34q-139 10 -261 -26t-212.5 -105t-160 -165t-110 -204.5t-55.5 -224.5q-2 -9 -4 -25t-4 -65.5t1.5 -98t17 -115t38 -124.5 t70.5 -119t108 -106t156 -77.5t209 -41.5q67 -5 134 4t114.5 24.5t88 35t60 32t25.5 18.5l18 -26q-6 -6 -17.5 -16.5t-54.5 -37t-93.5 -47t-135.5 -37t-180 -16.5q-68 0 -138 10t-149 35.5t-149.5 64.5t-135 102t-110 143t-70 192.5t-18.5 245.5zM756.5 273 q5.5 -61 30.5 -100.5t56 -58.5t68 -22q26 -2 50.5 4.5t41 18t29 23t18.5 20.5l5 8q4 19 34 157t41 195q3 16 5.5 39t1 62t-9.5 70t-31.5 54t-59.5 23q-94 0 -168.5 -99t-101.5 -245q-15 -88 -9.5 -149z" />
<glyph unicode="A" d="M33 0v31q19 1 28 2t28 10t33 26.5t37.5 51.5t47.5 84t58 126.5t73 176.5l350 934h27q168 -401 296.5 -714.5t172.5 -426.5l45 -113q10 -24 20 -44t18 -35t18.5 -26.5t16.5 -19.5t17 -13.5t16 -8.5t16.5 -5t15 -2.5t16.5 -1.5t16 -1v-31h-527v31q38 0 58.5 18.5t24 44 t-2.5 59.5t-14 57t-18 46l-66 164h-508q-9 -26 -16 -48.5t-16 -65.5q-8 -44 -10 -78q0 -5 -1 -10q0 -30 8 -64q9 -40 31 -66t66 -42q39 -15 93 -15h13v-31h-481zM352 451h490l-254 639z" />
<glyph unicode="B" horiz-adv-x="1259" d="M76 0v18q119 0 119 244v918q0 68 -10.5 120.5t-38 88.5t-70.5 36v17h452q79 0 121 -1t109 -7.5t103 -19.5t82 -38.5t68.5 -62t39 -92.5t16.5 -129q0 -74 -23 -134t-60 -96.5t-78 -62.5t-83.5 -38t-68.5 -17t-41 -5q35 0 67 -2t79.5 -11t87 -23.5t81 -43t70 -66.5t47 -96 t18.5 -130q0 -75 -18 -132.5t-44.5 -96t-77 -65t-95.5 -41t-120.5 -22t-131.5 -9t-148 -1.5h-452zM449 31h86h6q53 0 79 1t71.5 7.5t69 19t54.5 37.5t46.5 61t26.5 92t11 128q0 68 -12.5 122t-30.5 89t-49 60t-57.5 37.5t-66.5 19.5t-66.5 8.5t-65.5 1.5h-102v-684zM449 745 h102q40 0 73.5 6.5t70.5 29t62 59t41.5 102.5t16.5 154q0 63 -10 113t-25.5 82.5t-40 56t-47 35.5t-54 18.5t-52.5 8t-51 1.5h-86v-666z" />
<glyph unicode="C" horiz-adv-x="1394" d="M84 721q0 216 87 383.5t249 261.5t375 94q177 0 299.5 -26t212.5 -99l-27 -319h-31q-116 414 -454 414q-71 0 -126.5 -16.5t-108 -63.5t-86.5 -124.5t-54.5 -205t-20.5 -299.5q0 -174 21 -302.5t55.5 -205t87.5 -123t107.5 -62.5t124.5 -16q105 0 200 47t165 143.5 t89 225.5h31l27 -319q-110 -73 -225.5 -100t-286.5 -27q-213 0 -375 94.5t-249 262t-87 382.5z" />
<glyph unicode="D" horiz-adv-x="1505" d="M84 0v31q66 0 105.5 63.5t39.5 167.5v918q0 98 -39.5 164.5t-105.5 66.5v31h491q836 0 836 -725q0 -127 -25.5 -231.5t-68.5 -178t-107 -129t-134 -89t-157.5 -54t-168.5 -28t-175 -7.5h-491zM485 31h90q42 0 73.5 1.5t77.5 9t80.5 20.5t76.5 38t72 59.5t60.5 87 t49.5 118t31 155.5t12 197q0 135 -19 242.5t-48.5 179t-75.5 124t-90 80t-102 44t-101 20.5t-97 4h-90v-1380z" />
<glyph unicode="E" horiz-adv-x="1280" d="M59 0v31q115 0 115 229v932q0 104 -26 161.5t-89 57.5v31h1065v-379h-30q-6 56 -27 103t-49.5 80.5t-69.5 60.5t-79.5 43.5t-86.5 29t-83 18.5t-77 9t-61 3.5t-41 0.5h-92v-668h102q13 0 26 0.5t45 4.5t58.5 11.5t60 23t57.5 36.5t42 55.5t21 77.5h30v-450h-30 q-3 43 -21 78t-42 56.5t-57.5 37t-60.5 23t-59 11.5t-44.5 4.5t-25.5 0.5h-102v-682h84q27 0 43 0.5t61.5 3.5t79 9.5t84.5 20.5t89.5 33.5t83 50.5t75.5 70.5t56 95t36 121.5h31v-436h-1092z" />
<glyph unicode="F" horiz-adv-x="1173" d="M55 0v31q63 0 89 58.5t26 170.5v932q0 104 -26 161.5t-89 57.5v31h1082v-379h-31q-11 72 -44.5 129.5t-75 93t-101.5 61.5t-106 38t-107 18.5t-87 7t-62 0.5h-9h-90v-666h100h26.5t45 4t60.5 10.5t61.5 22t60.5 36.5t44 55.5t26 78.5h31v-450h-31q-6 44 -26 79t-44 56.5 t-60.5 37t-61.5 22t-60.5 10.5t-45 4h-26.5h-100v-447q0 -63 9 -107.5t23 -68.5t37.5 -37.5t44 -16.5t52.5 -3v-31h-535z" />
<glyph unicode="G" horiz-adv-x="1495" d="M80 721q0 206 81 372t241.5 266.5t375.5 100.5q178 0 302 -25.5t216 -86.5l-14 -340h-57q-17 121 -54 204.5t-96 130.5t-130.5 67t-166.5 20q-73 0 -129 -19.5t-104.5 -68t-79.5 -128.5t-48.5 -203.5t-17.5 -289.5t18 -290t49.5 -203.5t80 -128t104 -68t127.5 -19.5 q181 0 243 46t62 184q0 55 -2 97t-7.5 73.5t-10.5 53.5t-17.5 36.5t-22.5 22.5t-30 12t-36 5t-44 1v30h531v-30q-33 0 -52 -3.5t-37 -21t-25.5 -45t-14.5 -84.5t-8.5 -130.5t-1.5 -190.5q-223 -86 -527 -86q-215 0 -375.5 100.5t-241.5 266.5t-81 372z" />
<glyph unicode="H" horiz-adv-x="1298" d="M47 0v31q26 7 42 14.5t27.5 18t17 25t8.5 35t3 47v62.5v46v874q0 54 -0.5 78.5t-3 59.5t-8.5 49.5t-17 32.5t-27.5 25.5t-41.5 12.5v31h395v-31q-37 -12 -45 -54t-8 -171v-33v-442h529v442v25q0 134 -8 177.5t-46 55.5v31h393v-31q-18 -3 -31.5 -8t-24 -15.5t-17 -18.5 t-11.5 -27.5t-7 -32.5t-3.5 -43.5t-1.5 -50v-62.5v-874q0 -133 4 -159q9 -53 53 -75q16 -8 39 -14v-31h-393v31q39 14 46.5 58t7.5 190v393h-529v-393q0 -163 6 -193q8 -39 40 -52q3 -2 7 -3v-31h-395z" />
<glyph unicode="I" horiz-adv-x="743" d="M96 0v31q70 0 115 51.5t45 150.5v1006q0 90 -43.5 131t-116.5 41v31h572v-31q-72 0 -116 -41t-44 -131v-1006q0 -99 45.5 -150.5t114.5 -51.5v-31h-572z" />
<glyph unicode="J" horiz-adv-x="856" d="M2 -311q342 122 342 671v613q0 300 -22.5 369t-137.5 69v31h588v-31q-74 0 -122 -47.5t-48 -140.5v-850q0 -141 -30 -254.5t-82 -192t-128 -134.5t-162 -87.5t-190 -46.5z" />
<glyph unicode="K" horiz-adv-x="1576" d="M78 0v31q137 0 137 202v1006q0 92 -34 132t-103 40v31h559v-31q-38 0 -65 -6t-52 -23t-38 -53t-13 -90v-1006q0 -101 38.5 -151.5t106.5 -50.5v-31h-536zM582 670l270 327q14 16 24 28t32.5 40t37 50.5t35 54.5t29 57.5t16 54.5t0 50.5t-23 39.5t-49.5 28t-83 11v31h621 v-31q-36 0 -61.5 -3t-65 -15.5t-76 -36.5t-90 -67.5t-113 -106t-138 -154.5t-171.5 -211l496 -663q93 -123 278 -123v-31h-270q-42 0 -73.5 2.5t-63 13t-53 19.5t-51.5 35.5t-49.5 46.5t-55 66.5t-61 82t-74.5 105.5q-52 75 -106 149.5t-83 111.5z" />
<glyph unicode="L" horiz-adv-x="1310" d="M76 1411v31h567v-31q-170 0 -170 -182v-1198h74q39 0 67 1t91.5 9t111.5 22t110 45t105 73t77.5 110t45.5 153h29v-444h-1092v31q65 0 97 58t32 165v979q0 178 -145 178z" />
<glyph unicode="M" horiz-adv-x="1943" d="M29 0v31q57 0 104 21t77 53.5t52.5 79t34.5 89.5t19 93.5t8.5 82.5t1.5 64v758q-72 128 -221 138q-6 1 -9 1v31h463l512 -1100l408 1100h409v-31q-71 0 -114 -43.5t-43 -136.5v-987q0 -108 49.5 -160.5t122.5 -52.5v-31h-572v31q69 0 108.5 51.5t39.5 161.5v1110 l-518 -1372h-31l-574 1241v-709q0 -32 1.5 -64.5t8 -83t17 -93.5t31.5 -89t49 -78.5t70.5 -53.5t95.5 -21v-31h-600z" />
<glyph unicode="N" horiz-adv-x="1683" d="M18 1411v31h441l856 -1080v566q0 24 -0.5 42t-3 56.5t-7 69t-14 72.5t-23 74t-34.5 65.5t-47.5 55t-64 35t-81.5 13.5v31h602v-31h-2q-294 0 -294 -483v-928h-89l-882 1124v-606q0 -34 0.5 -57t5.5 -78.5t14.5 -96t30 -92t48.5 -84.5t73 -56t102 -23v-31h-606v31 q62 0 111.5 23t80 56.5t53 84.5t33 92t16.5 95.5t6.5 79t0.5 56.5v639l-82 105q-27 34 -51.5 59.5t-45.5 41t-36.5 25.5t-34 14.5t-27.5 6t-26.5 2t-22.5 0.5z" />
<glyph unicode="O" horiz-adv-x="1546" d="M84 711q0 123 27.5 234t84.5 205t137.5 163t192.5 108t244 39t244 -39t192.5 -108t137.5 -163t84.5 -205t27.5 -234q0 -154 -44.5 -286t-128.5 -231t-216 -155.5t-297 -56.5t-297 56.5t-216 155.5t-128.5 231t-44.5 286zM377 711q0 -166 18 -288.5t49.5 -201t82 -125.5 t108.5 -65.5t135 -18.5q76 0 133.5 18.5t107.5 65.5t81.5 125.5t49 201t17.5 288.5t-17.5 290t-49.5 205.5t-81 132t-107 71t-134 20.5t-135 -20.5t-108.5 -71t-81.5 -132t-50 -205.5t-18 -290z" />
<glyph unicode="P" horiz-adv-x="1267" d="M57 1411v31h445q132 0 229 -9t188 -35.5t147.5 -71.5t90 -120t33.5 -178q0 -86 -22 -152.5t-66.5 -111t-101.5 -74.5t-139 -46t-165.5 -22t-193.5 -6h-56v-335q0 -50 7 -89.5t18 -65.5t29.5 -44.5t35.5 -28t42.5 -15t44.5 -6.5t47 -1v-31h-609v31q70 0 103 60.5t33 187.5 v919q0 213 -140 213zM446 647h56q45 0 73.5 1t68 4.5t64.5 10.5t56 20.5t50 33t39 48t31 65.5t18 87t7 111q0 79 -12 140t-29 101t-50.5 68t-61.5 42t-77.5 21.5t-83 9t-93.5 1.5h-56v-764z" />
<glyph unicode="Q" horiz-adv-x="1538" d="M84 711q0 123 27.5 234t84.5 205t137.5 163t192.5 108t244 39t244 -39t192.5 -108t137.5 -163t84.5 -205t27.5 -234q0 -154 -44.5 -286t-128.5 -231t-216 -155.5t-297 -56.5t-297 56.5t-216 155.5t-128.5 231t-44.5 286zM190 -266q68 57 142.5 95.5t139 53.5t126.5 20 q29 2 54 2q31 0 58 -3q48 -6 85 -14t57 -16l20 -7l330 -115q55 -19 103 -20h5q45 0 84 16q40 16 56 26t45 31l23 -22l-187 -158q-47 -38 -98.5 -56t-104.5 -19q-5 -1 -9 -1q-51 0 -119 17q-73 19 -146 46t-182 73l-168 71q-51 21 -98 24h-15q-39 0 -71 -12 q-39 -15 -59 -26.5t-46 -30.5zM377 711q0 -166 18 -288.5t49.5 -201t82 -125.5t108.5 -65.5t135 -18.5q76 0 133.5 18.5t107.5 65.5t81.5 125.5t49 201t17.5 288.5t-17.5 290t-49.5 205.5t-81 132t-107 71t-134 20.5t-135 -20.5t-108.5 -71t-81.5 -132t-50 -205.5t-18 -290z " />
<glyph unicode="R" horiz-adv-x="1406" d="M49 0v31q68 0 102.5 50t34.5 163v997q0 92 -33.5 131t-103.5 39v31h449q94 0 165.5 -3.5t144 -14t124 -28.5t97.5 -47.5t74 -70.5t44 -98t16 -129q0 -96 -28 -166t-82 -112.5t-122 -64.5t-159 -30h11q40 0 72 -6q37 -8 82.5 -35.5t82 -76t74 -134.5t67.5 -205 q14 -55 45 -94.5t68 -58.5t65 -27t54 -10v-31h-172q-57 1 -90 1q-17 -1 -29 -1h-2q-32 0 -76 14q-46 14 -57.5 23.5t-37.5 57t-35.5 82t-36.5 130.5q-25 87 -40 139q-14 50 -39.5 89t-56.5 61t-59 36t-59.5 19t-45 6.5t-27.5 1.5h-96v-428q0 -102 38.5 -151t105.5 -49v-31 h-529zM434 690h64q60 0 90.5 1t79.5 7.5t74 20t57 39.5t47 64t26 95.5t11 133.5q0 75 -11 133t-26.5 96t-47.5 64t-56 39t-72 19.5t-77 7.5t-87 1h-4h-4h-64v-721z" />
<glyph unicode="S" horiz-adv-x="1200" d="M94 102v394h31q11 -65 29 -123t56.5 -127t89.5 -118t133.5 -82.5t184.5 -33.5q64 0 114 25t78 65t36 93q3 21 3 42q0 31 -8 65q-13 54 -51 109.5t-98 98.5l-325 209q-297 190 -297 389q0 96 69 195q4 6 12.5 17t42.5 38t76 47.5t116 37.5t159 17q91 0 175 -10t140 -24.5 t98.5 -29t61.5 -24.5l20 -10v-344h-30q-10 54 -27 103.5t-53 108t-85 101t-126.5 71t-173.5 28.5q-54 0 -100.5 -21.5t-77.5 -57.5t-43 -84q-6 -25 -5 -51q1 -24 5 -48q10 -50 51 -104t110 -99l328 -215q203 -135 261 -294q22 -59 22 -116q0 -97 -62 -190q-2 -4 -6 -10 t-20 -23.5t-35.5 -33t-54.5 -35t-75.5 -33.5t-99.5 -23.5t-125 -9.5q-102 0 -193.5 12.5t-149.5 30t-101 35t-62 30.5z" />
<glyph unicode="T" horiz-adv-x="1384" d="M39 1055v387h1300v-387h-30q-2 71 -26.5 129.5t-58.5 94.5t-80 63t-84.5 39.5t-80.5 20t-59 8.5t-27 1h-80v-1188q0 -97 46 -144.5t116 -47.5v-31h-574v31q70 0 116 47.5t46 144.5v1188h-80q-14 0 -32.5 -1t-60.5 -8.5t-79.5 -20t-82 -39.5t-77 -63t-56 -94t-25.5 -130 h-31z" />
<glyph unicode="U" horiz-adv-x="1507" d="M35 1411v31h581v-31q-37 0 -65.5 -7t-56 -25t-42 -55.5t-14.5 -92.5v-750q0 -182 100.5 -287.5t260.5 -105.5q145 0 248.5 106.5t103.5 292.5v582q0 31 -0.5 50.5t-5.5 59.5t-14 67t-28.5 61t-46 55t-69 35t-96.5 14v31h575v-31q-47 0 -86 -9t-66.5 -21.5t-49.5 -36 t-35.5 -42.5t-23 -50t-14 -49.5t-7 -51t-2.5 -44v-38.5v-582v-7q0 -112 -31 -200q-32 -91 -82 -145.5t-118.5 -90t-134.5 -49t-136 -13.5q-137 0 -247 58t-177.5 177t-67.5 281v735q0 178 -153 178z" />
<glyph unicode="V" horiz-adv-x="1558" d="M35 1411v31h602v-31q-40 0 -67 -14.5t-37 -38.5t-14 -48.5t0 -51t6.5 -38.5t4.5 -18l338 -878l236 606q2 6 7 20q57 165 57 268q0 27 -4 50q-24 143 -191 143v31h543v-31q-44 0 -66 -4t-60.5 -27.5t-71 -74t-80 -145t-105.5 -238.5l-361 -922h-33q-168 402 -295.5 715.5 t-171.5 425.5l-43 112q-18 45 -39 76t-38.5 47t-41 24t-37.5 9.5t-38 1.5z" />
<glyph unicode="W" horiz-adv-x="2226" d="M27 1411v31h602v-31q-50 0 -80 -21t-37 -49.5t-5 -60.5t7 -51t8 -25l324 -852l207 592l-113 305q-17 45 -37 76.5t-37.5 48t-40.5 25.5t-38 10.5t-37 1.5v31h602v-31q-41 0 -69 -13t-39 -35t-15.5 -44t0 -48.5t7 -39.5t6.5 -24l1 -3l313 -860l213 586q2 8 11.5 37t16 51 t15.5 58.5t13.5 65.5t5.5 65t-4 63t-18.5 55t-35.5 46t-57.5 29t-81.5 11v31h564v-31q-41 0 -72 -8.5t-69.5 -37t-75.5 -81t-83 -143t-98 -219.5l-346 -922h-31l-354 899l-319 -899h-31l-500 1249q-18 45 -38 76.5t-37.5 48t-40.5 25.5t-38 10.5t-38 1.5z" />
<glyph unicode="X" horiz-adv-x="1609" d="M47 1411v31h643v-31q-46 -1 -70 -25q-18 -18 -18 -54q0 -12 2 -25q8 -55 60 -131l210 -312l109 154q5 9 20 35t25.5 44.5t25.5 49t23 53.5t15 52t5.5 50t-11 42.5t-29 35.5t-52.5 22.5t-79 8.5v31h620v-31q-28 0 -43 -1t-49.5 -8.5t-62 -22t-72.5 -45.5t-88.5 -74.5 t-101.5 -112t-121 -156.5l-113 -157q67 -94 174.5 -251t181.5 -267l74 -111q41 -58 75.5 -94t65.5 -52.5t52.5 -21.5t52.5 -6v-31h-602v31q33 6 50 23.5t16.5 42.5t-5.5 48t-19.5 50.5t-21.5 39.5t-16 25l-225 340l-113 -160q-8 -14 -25.5 -45t-31 -55t-31 -58.5t-26 -61.5 t-14.5 -57.5t1.5 -52.5t24 -41t51 -28.5t84.5 -9.5v-31h-572v31h6q33 0 54 3t68 25t95 65t124 130.5t165 212.5l117 164q-103 150 -209 301t-160 227l-55 76q-43 60 -80.5 98t-70 53.5t-53.5 20t-50 4.5z" />
<glyph unicode="Y" horiz-adv-x="1499" d="M18 1413v29h590v-29q-18 0 -26.5 -0.5t-29 -4.5t-29 -11.5t-17.5 -24.5t-6 -41t17.5 -62t43.5 -87l295 -492l148 303q10 21 20.5 46.5t23.5 67.5t20 81q5 26 5 53q0 14 -1 28q-4 42 -20.5 72.5t-55 50t-97.5 19.5v31h571v-31q-22 0 -36 -1t-45 -9.5t-56 -24.5t-64 -49 t-75.5 -79.5t-82.5 -120t-93 -166.5l-146 -304v-417q0 -108 46 -157.5t118 -49.5v-33h-571v33q72 0 118 49.5t46 157.5v338q-134 236 -232 405t-129 219l-32 51q-26 45 -52.5 76.5t-45.5 47t-44 24t-38.5 10t-37.5 2.5z" />
<glyph unicode="Z" horiz-adv-x="1189" d="M49 0l795 1411h-99q-245 0 -402 -98t-206 -285h-39l37 414h1002l-746 -1411h74q107 0 201 27t161.5 71t120.5 102.5t84.5 120t46.5 125.5h35l-51 -477h-1014z" />
<glyph unicode="[" horiz-adv-x="657" d="M231 -299v1804h396v-30q-43 0 -66.5 -1.5t-56.5 -10.5t-50.5 -27t-30.5 -52t-13 -84v-1413q0 -43 13.5 -73.5t31.5 -46t50.5 -24t57 -10t64.5 -1.5v-31h-396z" />
<glyph unicode="\" horiz-adv-x="866" d="M29 1503h164l636 -1542h-163z" />
<glyph unicode="]" horiz-adv-x="655" d="M23 -268q40 0 64.5 1.5t57 10t50.5 24t31.5 46t13.5 73.5v1413q0 50 -13 84t-30.5 52t-50.5 27t-56.5 10.5t-66.5 1.5v30h395v-1804h-395v31z" />
<glyph unicode="^" horiz-adv-x="1165" d="M182 770l371 672h47l373 -672h-76l-322 371l-315 -371h-78z" />
<glyph unicode="_" horiz-adv-x="1146" d="M0 -150h1147v-108h-1147v108z" />
<glyph unicode="`" horiz-adv-x="690" d="M8 1415l197 60l354 -334h-59z" />
<glyph unicode="a" horiz-adv-x="1040" d="M84 190q0 38 7 69.5t22.5 56.5t36.5 45.5t52.5 38t66.5 31.5t83 28.5t97 27.5t113 29l48 12v123q0 161 -75 233q-43 41 -98 41q-42 0 -91 -24q-63 -32 -73 -64q-4 -11 3 -12q45 -6 70 -41q20 -28 20 -60q0 -9 -1 -18q-7 -43 -43 -69q-27 -19 -59 -19q-10 0 -20 2 q-44 8 -69 42q-22 31 -22 62q0 25 14 50t25.5 42t47.5 49t87 59q40 21 88.5 31t77.5 10h28q90 0 152 -29t96 -86t48.5 -128t14.5 -167v-328q0 -5 0.5 -14.5t6 -32.5t14.5 -41t29 -32.5t47 -14.5q5 0 13 1t23.5 12t20.5 30l31 -12q-12 -52 -72 -96.5t-143 -44.5q-4 0 -10 0.5 t-24 3.5t-35 8.5t-38 18.5t-37 30t-28.5 45.5t-16.5 63.5q-22 -72 -104.5 -121t-188.5 -49q-5 0 -13.5 0.5t-33 4.5t-46.5 11t-49 22.5t-46.5 36.5t-33 55.5t-13.5 77.5zM307 238q0 -15 5.5 -36t19.5 -48t46 -45.5t77 -18.5q60 0 99.5 34t55.5 79v291q-303 -68 -303 -256z " />
<glyph unicode="b" horiz-adv-x="1171" d="M29 1423v31l319 66v-723q46 82 135.5 125t175.5 43q191 0 312 -138.5t121 -363.5q0 -234 -136 -357.5t-356 -123.5q-188 0 -293 102q-61 -55 -129 -78q-44 -15 -45 4v1290q0 54 -21 80t-83 43zM348 340q0 -166 71.5 -247t176.5 -81q242 0 242 428q0 238 -65.5 343.5 t-199.5 105.5q-105 0 -165 -73.5t-60 -190.5v-285z" />
<glyph unicode="c" horiz-adv-x="1005" d="M92 475q0 92 34.5 179t97.5 156.5t162.5 112t219.5 42.5q182 0 275 -107q20 -25 26 -56.5t-6 -62.5q-17 -43 -61 -63q-24 -11 -48 -12l-40 8q-44 16 -62 60q-10 23 -10 46q0 21 8 41q15 47 60 64q12 4 -8 19q-44 32 -134 32q-19 0 -41 -4.5t-50.5 -17t-55 -32t-53 -53.5 t-46 -77t-31.5 -106.5t-12 -139.5q0 -89 23 -159t63.5 -113.5t88.5 -68.5t104 -34q21 -3 42 -3q71 0 143 34q94 44 128 102l25 -14q-11 -43 -38 -85.5t-72.5 -85t-119 -69t-163.5 -26.5q-122 0 -225.5 66.5t-163.5 180t-60 246.5z" />
<glyph unicode="d" horiz-adv-x="1159" d="M70 485q0 119 37 212t104 151t155.5 87.5t194.5 29.5q141 0 250 -68v408q0 54 -20.5 77.5t-83.5 40.5v31l319 66v-1340q0 -74 20 -97t84 -28v-30l-262 -41q-25 -4 -39.5 5t-16.5 20l-1 11v119q-46 -78 -134 -117.5t-173 -39.5q-192 0 -313 138.5t-121 364.5zM322 510 q0 -242 63.5 -352.5t194.5 -110.5q102 0 166.5 68t64.5 176v323q0 82 -21 145.5t-57 100.5t-78.5 55.5t-89.5 18.5q-243 0 -243 -424z" />
<glyph unicode="e" horiz-adv-x="1038" d="M74 467q0 220 130.5 359t332.5 139q204 0 310.5 -117.5t106.5 -355.5h-651q9 -170 81.5 -260.5t190.5 -108.5q24 -4 48 -4q69 -1 141 29q96 40 129 112l29 -14q-11 -42 -39 -84.5t-75 -84.5t-123 -68.5t-167 -26.5q-126 0 -229 68t-159 178.5t-56 238.5zM303 522h438 q0 196 -63.5 304t-149.5 108q-90 0 -157.5 -121.5t-67.5 -290.5z" />
<glyph unicode="f" horiz-adv-x="645" d="M25 946h133q0 171 21 284t67 177.5t109.5 90.5t158.5 26q69 0 125.5 -30t75.5 -60q17 -25 21 -60q2 -10 2 -19q0 -24 -9 -46q-20 -42 -63 -58q-20 -8 -40 -8q-22 0 -44 10q-43 20 -59 63q-7 19 -7 38q0 24 10 47q21 43 64 53q16 3 4 16q-22 25 -78 25q-35 0 -59.5 -24.5 t-43.5 -85t-28.5 -169.5t-9.5 -270h225l-6 -31h-219v-712q0 -86 19 -123t73 -49v-31h-389v31q23 5 38 15.5t23.5 22.5t12.5 35.5t5 42.5t1 56v712h-131z" />
<glyph unicode="g" horiz-adv-x="1140" d="M30 -264q17 72 66 130.5t115 92.5q-45 21 -71.5 63t-26.5 101q0 7 0.5 19.5t10 47.5t27 64.5t56.5 63t94 51.5q-76 33 -120 106.5t-44 157.5q0 129 105.5 219t281.5 90q186 0 293 -92q37 55 90 83t99 34q11 2 22 2q48 0 82 -37q24 -30 24 -66v-11q-4 -43 -36 -71 q-30 -26 -68 -26h-9q-43 4 -71 37q-22 27 -22 57q0 9 2 18q2 12 -25 5q-38 -10 -65 -46q75 -78 75 -196q0 -130 -106.5 -220.5t-284.5 -90.5q-121 0 -192 32q-22 -6 -46.5 -29.5t-37 -53.5t-10.5 -59t36 -49t99 -20h266q40 0 66 -1t70 -7t72 -16.5t61 -32t50 -52t26 -77.5 q5 -25 5 -53q0 -26 -4 -54q0 -7 -2 -18.5t-15 -46.5t-34 -68.5t-66.5 -76t-105.5 -76.5q-137 -77 -290 -99q-59 -9 -113 -9q-84 0 -155 22q-115 34 -155 114q-24 49 -24 98q0 23 5 46zM160 -275q12 -33 41 -71q82 -98 241 -121q36 -5 71 -5q121 0 232 62q41 25 70 56.5 t40.5 59t17 51t5.5 37.5l-1 13q-1 4 -2.5 11.5t-12.5 26t-28 32.5t-52 25.5t-80 11.5h-282q-110 0 -176 27q-98 -60 -98 -146q0 -33 14 -70zM346 633q0 -281 178 -281q183 0 183 281q0 278 -183 278q-41 0 -71 -11.5t-55.5 -41t-38.5 -86t-13 -139.5z" />
<glyph unicode="h" horiz-adv-x="1071" d="M33 1415v31l319 74v-783q28 85 130 156.5t200 71.5q132 0 201 -74t69 -250v-420q0 -92 16.5 -134.5t67.5 -55.5v-31h-383v31q28 8 45.5 23.5t25 42.5t9.5 52.5t2 71.5v412q0 203 -192 203q-56 0 -108 -41.5t-83 -102.5v-471q0 -92 16 -133.5t68 -54.5v-33h-383v33 q23 7 38.5 19t24 26.5t13 39t5.5 45.5t1 58v1077q0 54 -19.5 77t-82.5 40z" />
<glyph unicode="i" horiz-adv-x="538" d="M57 864v31l320 70v-746q0 -92 16 -133t68 -55v-31h-381v31q23 7 38.5 19.5t24 26.5t13 38.5t5.5 45.5t1 58v512q0 53 -21 80t-84 53zM127 1253q0 51 35 87t86 36t88 -36t37 -87t-37 -85.5t-88 -34.5t-86 34.5t-35 85.5z" />
<glyph unicode="j" horiz-adv-x="534" d="M16 -436q34 10 61 47t41.5 91.5t24.5 107t13.5 112t4.5 85.5t1 48v668q0 55 -20.5 85.5t-82.5 55.5v31l318 70v-863q0 -140 -27 -244t-78.5 -168t-112.5 -100t-143 -57v31zM129 1253q0 52 35.5 87.5t85.5 35.5q52 0 88.5 -35.5t36.5 -87.5q0 -51 -37 -85.5t-88 -34.5 q-50 0 -85.5 34.5t-35.5 85.5z" />
<glyph unicode="k" horiz-adv-x="1097" d="M20 1423v31l320 66v-1301q0 -92 16 -133.5t68 -54.5v-31h-383v31q23 7 38.5 19t24 26.5t13 39t5.5 45.5t1 58v1079q0 55 -20.5 81.5t-82.5 43.5zM389 426l193 205q8 8 21 22t45.5 52t49 71t24.5 67q8 33 -20 53q-27 19 -86 19h-6v31h480v-31q-28 -1 -52 -5t-76 -24.5 t-105.5 -56.5t-132.5 -108.5t-165 -171.5q101 -142 183.5 -248.5t114.5 -142.5l32 -35q65 -86 182 -92v-31h-235q-37 0 -61.5 2.5t-50.5 15.5t-42.5 25t-45 46t-49 62.5t-63.5 90.5z" />
<glyph unicode="l" horiz-adv-x="503" d="M47 1423v31l320 66v-1301q0 -92 16 -133.5t68 -54.5v-31h-383v31q23 7 38.5 19t24 26.5t13 39t5.5 45.5t1 58v1079q0 55 -20.5 81.5t-82.5 43.5z" />
<glyph unicode="m" horiz-adv-x="1593" d="M20 864v31l320 70v-211q39 91 122.5 151t178.5 60q109 0 173.5 -53t84.5 -167q31 94 117.5 157t183.5 63q131 0 197.5 -71.5t66.5 -248.5v-426q0 -92 16 -133.5t68 -54.5v-31h-383v31q23 7 38.5 19t24 26.5t13 39t5.5 45.5t1 58v420q0 99 -42.5 150t-125.5 51 q-66 0 -122 -58t-56 -118v-27l2 -418q0 -92 16 -133.5t68 -54.5v-31h-383v31q23 7 38.5 19t24 26.5t13 39t5.5 45.5t1 58v420q0 201 -166 201q-64 0 -119 -57t-61 -115v-451q0 -91 16.5 -131.5t67.5 -54.5v-31h-381v31q23 7 38.5 19t23.5 25.5t12 38.5t5 45t1 58v506 q0 56 -21 85.5t-82 55.5z" />
<glyph unicode="n" horiz-adv-x="1062" d="M20 864v31l320 70v-217q33 90 131 153.5t197 63.5q131 0 200.5 -72t69.5 -248v-426q0 -92 16 -133.5t68 -54.5v-31h-383v31q23 7 38.5 19t24 26.5t13 39t5.5 45.5t1 58v420q0 91 -50.5 146t-138.5 55q-67 0 -126.5 -55.5t-65.5 -116.5v-451q0 -91 16.5 -131.5t67.5 -54.5 v-31h-381v31q23 7 38.5 19t23.5 25.5t12 38.5t5 45t1 58v516q0 54 -20 79.5t-83 51.5z" />
<glyph unicode="o" horiz-adv-x="1122" d="M84 473q0 102 31.5 191t91 156t151 106t205.5 39q152 0 262.5 -67.5t164.5 -177.5t54 -247q0 -136 -54 -246t-165 -177.5t-262 -67.5q-114 0 -206 39t-151 106t-90.5 156t-31.5 190zM340 473q0 -183 25 -284.5t71.5 -139t126.5 -37.5q81 0 127.5 37.5t71 139t24.5 284.5 t-24.5 284.5t-71 139t-127.5 37.5q-80 0 -126.5 -37.5t-71.5 -139t-25 -284.5z" />
<glyph unicode="p" horiz-adv-x="1185" d="M33 864v31l319 70v-162q44 80 132.5 121t174.5 41q191 0 312 -137.5t121 -362.5q0 -119 -37 -212t-103.5 -151.5t-155.5 -89t-196 -30.5q-147 0 -248 69v-387q0 -90 15.5 -126.5t68.5 -49.5v-31h-383v31q54 16 68 52t14 124v1088q0 53 -19 74t-83 38zM352 287 q10 -139 79 -207t165 -68q244 0 244 428q0 240 -67 347.5t-200 107.5q-94 0 -153 -64t-68 -165v-379z" />
<glyph unicode="q" horiz-adv-x="1169" d="M102 487q0 119 37 211t104 150t155.5 87.5t195.5 29.5q160 0 264 -80q54 50 122 67q46 12 46 -8v-1280q0 -90 15.5 -126.5t68.5 -49.5v-31h-381v31q53 16 66.5 52t13.5 124v430q-50 -56 -126 -84t-146 -28q-192 0 -313.5 139.5t-121.5 365.5zM338 512q0 -245 63.5 -363 t192.5 -118q99 0 155.5 66t59.5 173v351q-3 159 -67.5 236t-161.5 77q-56 0 -98.5 -21.5t-75.5 -69.5t-50.5 -131t-17.5 -200z" />
<glyph unicode="r" horiz-adv-x="813" d="M29 864v31l321 70v-222q105 176 258 213q15 5 35 5q17 0 37 -4q44 -8 70 -33q38 -38 38 -93.5t-38 -93.5t-93 -39h-3q-53 0 -93 37q-35 38 -35 83v7q2 15 -25 8q-52 -14 -106 -78q-26 -29 -45 -65v-469q0 -93 16 -134.5t68 -55.5v-31h-385v31q23 7 38.5 19.5t24 27t13 39 t5.5 46t1 58.5v512q0 54 -20.5 81t-81.5 50z" />
<glyph unicode="s" horiz-adv-x="890" d="M93 641q-13 36 -13 72q0 70 49 141q3 5 9 12t29 26.5t52 34t79 26.5t108 12q105 0 188.5 -16t115.5 -32l31 -16v-239h-30q-7 35 -17.5 66t-34.5 70.5t-55 68t-82.5 48t-115.5 19.5q-48 0 -82 -18q-35 -18 -48 -50q-10 -24 -10 -52q0 -8 1 -17q4 -37 34.5 -77t81.5 -73 l207 -129q138 -86 178 -204q14 -41 14 -81q0 -74 -49 -145q-3 -4 -9 -11.5t-29.5 -25.5t-52 -32t-77 -25.5t-104.5 -11.5q-69 0 -132.5 9t-104 22t-71 26t-43.5 22l-14 9v268h31q6 -30 12.5 -53t19.5 -58.5t29 -63t42 -57t57.5 -49t76.5 -32.5t97 -13q65 0 101 33t38 80v6 q0 44 -28 94q-30 53 -87 90l-206 125q-148 95 -186 201z" />
<glyph unicode="t" horiz-adv-x="686" d="M35 946h108v283l217 35v-318h244l-8 -31h-236v-614q0 -102 38.5 -149.5t115.5 -47.5q41 0 75.5 24.5t47.5 55.5l27 -16q-28 -74 -104.5 -130t-168.5 -56q-61 0 -104.5 14.5t-77 49t-50 96.5t-16.5 153v620h-102z" />
<glyph unicode="u" horiz-adv-x="1112" d="M33 895v31l329 39v-666q0 -193 193 -193q58 0 111.5 41t83.5 105v489q0 94 -7 114q-10 28 -56 36q-13 2 -34 4v31l314 39v-785q0 -72 19 -92.5t85 -28.5v-28l-268 -47q-24 -4 -37 4.5t-14 19.5l-2 10v177q-32 -85 -130.5 -149t-197.5 -64q-62 0 -108.5 14t-86 47.5 t-60 96t-20.5 153.5v448q0 92 -7 111q-11 27 -56 36q-18 4 -51 7z" />
<glyph unicode="v" horiz-adv-x="1060" d="M0 918v28h455v-28q-35 0 -53 -15.5t-19 -37.5t2.5 -44t10.5 -37l7 -16l230 -494l135 351q2 6 6 16.5t11.5 41t11 58t0.5 61.5t-16 58.5t-43 41t-76 16.5v28h397v-28q-24 0 -39 -2.5t-42.5 -17.5t-51 -44t-56.5 -86.5t-67 -140.5l-250 -645h-27l-385 829q-17 37 -36 60 t-40.5 32t-32.5 11.5t-32 3.5z" />
<glyph unicode="w" horiz-adv-x="1609" d="M39 918v28h438v-28q-33 0 -51 -13.5t-19.5 -32.5t2 -38t9.5 -32l6 -14l225 -505l139 381l-71 155q-16 33 -33.5 54t-35.5 30t-29.5 11.5t-28.5 3.5v28h440v-28q-37 0 -56.5 -13.5t-21 -33t2 -39t9.5 -32.5l7 -14l223 -503l129 358q2 6 5.5 16t9.5 38.5t8.5 55t-2 58.5 t-18.5 54.5t-44 38.5t-74 16v28h383v-28q-18 0 -32.5 -2.5t-41 -18.5t-50 -44t-53.5 -85.5t-58 -136.5l-238 -649h-26l-287 641l-232 -641h-28l-375 837q-16 32 -34 53.5t-37 30.5t-31 11.5t-29 3.5z" />
<glyph unicode="x" horiz-adv-x="1083" d="M18 915v31h453v-31q-21 0 -35 -7t-21.5 -21.5t1.5 -42t35 -64.5l129 -194l69 92q55 89 63 135q2 11 2 21q0 72 -103 80q-12 1 -25 1v31h450v-31q-56 -2 -82 -10q-126 -39 -286 -252l-72 -94l289 -434q66 -94 184 -94v-31h-457v31q29 0 39 14.5t4.5 35.5t-15.5 42.5 t-20 36.5l-10 14l-137 207l-78 -113q-13 -20 -22 -35t-22 -41.5t-17.5 -46t-2.5 -42.5t16 -37.5t44.5 -24.5t77.5 -10v-31h-438v31q22 0 34.5 1t48 14.5t68 38.5t84 78.5t107.5 129.5l82 115l-285 421q-14 17 -27 30t-22.5 22t-21.5 15t-17.5 9.5t-17.5 5.5l-15 2.5t-16 1 t-15 0.5z" />
<glyph unicode="y" horiz-adv-x="1097" d="M18 918v28h453v-28q-33 0 -51.5 -14t-20.5 -34.5t1 -41t8 -34.5l6 -14l235 -504l123 324q3 7 7 18.5t13 44.5t14 63q2 19 2 41v26q-3 37 -16.5 63.5t-45 44t-80.5 17.5v28h399v-28q-22 0 -38 -3.5t-43.5 -21.5t-52.5 -50.5t-59.5 -96t-70.5 -152.5l-316 -846 q-54 -142 -141 -209q-25 -21 -66 -27q-11 -1 -22 -1q-27 0 -51 10q-47 22 -65 71q-9 23 -9 46q0 25 10 49q22 47 71 66q22 9 44 9q26 0 51 -12q48 -20 62 -74q6 -21 31 -5q32 21 55 81l86 236q-83 185 -179 394t-151 326l-55 117q-37 86 -138 93z" />
<glyph unicode="z" horiz-adv-x="917" d="M59 0l531 915q-205 0 -314.5 -58t-138.5 -181h-31l11 270h721l-502 -915q89 0 160.5 16.5t118 43.5t80.5 64.5t52 75t27 80.5h31l-19 -311h-727z" />
<glyph unicode="{" horiz-adv-x="673" d="M100 559v27q6 2 22.5 6.5t24 6.5t22 9t21.5 14t19 20t18 29.5t14 41t11.5 54t6.5 69.5t3 88v239q0 86 22.5 149.5t64.5 102t92.5 60t115.5 30.5v-28q-45 -16 -72 -47.5t-43 -97t-16 -169.5v-295q0 -81 -21.5 -140.5t-58 -92t-79 -47.5t-91.5 -15q250 0 250 -272v-295 q0 -152 32 -221t99 -92v-29q-65 9 -115.5 30.5t-92.5 60t-64.5 102t-22.5 149.5v240q0 81 -9 138t-20 87t-34 49.5t-37 24t-44 10.5q-12 3 -18 4z" />
<glyph unicode="|" horiz-adv-x="438" d="M150 -336v1841h137v-1841h-137z" />
<glyph unicode="}" horiz-adv-x="669" d="M109 -307q67 23 99 92t32 221v295q0 272 249 272q-49 0 -91.5 15t-79 47.5t-57.5 92t-21 140.5v295q0 104 -16 169.5t-43 97t-72 47.5v28q65 -9 115 -30.5t92 -60t64.5 -102t22.5 -149.5v-239q0 -48 3 -88t6.5 -69.5t11.5 -54t14 -41t18 -29.5t19 -20t21.5 -14t22 -9 t24 -6.5t22.5 -6.5v-27q-6 -1 -18 -4q-29 -6 -43.5 -11t-37.5 -23.5t-34 -49t-20 -87.5t-9 -138v-240q0 -86 -22.5 -149.5t-64.5 -102t-92 -60t-115 -30.5v29z" />
<glyph unicode="~" horiz-adv-x="1206" d="M125 422q28 68 64 118.5t72.5 76.5t74 42t69.5 18t57 0.5t40 -5.5l14 -4l240 -88q28 -11 70.5 -12t89 7.5t87.5 34.5t60 66l24 -10q-28 -68 -64.5 -118.5t-72 -77t-72.5 -42.5t-68 -18t-55.5 -1t-38.5 5l-14 4l-239 88q-28 10 -71 11.5t-90 -6t-89 -33t-61 -66.5z" />
<glyph horiz-adv-x="0" />
<glyph unicode="&#xa1;" horiz-adv-x="618" d="M176 1030q0 56 40 95.5t97 39.5t96.5 -39.5t39.5 -95.5q0 -58 -39.5 -97.5t-96.5 -39.5t-97 39.5t-40 97.5zM197 -358l57 1087h115l55 -1087h-227z" />
<glyph unicode="&#xa2;" horiz-adv-x="1073" d="M154 473q0 70 19.5 138.5t59.5 130t96 109.5t134 78.5t168 35.5v249h37v-249q185 0 274 -109q20 -23 26.5 -55t-5.5 -64q-18 -43 -62 -63t-88 -2q-44 17 -63 60.5t0 86.5q14 44 59 62q12 4 -8 19q-44 34 -133 34v-809q90 -7 180.5 36t122.5 101l24 -14q-10 -39 -33 -78.5 t-61 -80t-99 -70t-134 -37.5v-224h-37v224q-111 1 -202.5 40t-151 106.5t-91.5 156t-32 188.5zM379 504q0 -163 70.5 -254t181.5 -119v801q-31 -6 -62 -20.5t-66.5 -47t-62 -77.5t-44 -118.5t-17.5 -164.5z" />
<glyph unicode="&#xa3;" horiz-adv-x="1349" d="M68 173.5q0 23.5 6.5 50.5t22.5 52.5t39 48t59 37t80.5 20.5t106 -3t132.5 -33q76 -29 90 -39q5 103 -94 260q-4 7 -48.5 75t-64.5 99h-192v31h178q-51 110 -71 210t-10 176t40.5 140t77.5 107t104 72t118.5 38.5t122 4t112.5 -28.5q84 -36 123.5 -79.5t58.5 -96.5 q11 -30 0.5 -68t-37.5 -65q-38 -37 -92.5 -36t-93.5 40q-38 39 -36.5 93t40.5 91q33 33 92 33q21 -1 3 19q-25 28 -69 42q-66 19 -125.5 20t-107 -19t-80.5 -57.5t-45 -98t-2.5 -137t49 -179.5t107.5 -221h368v-31h-350l61 -84q41 -67 54.5 -140t2.5 -137t-42 -124 q16 -11 58.5 -28.5t77.5 -29.5l34 -12q104 -35 195.5 -6.5t103.5 96.5l30 -6q1 -63 -19.5 -114.5t-49 -81t-62 -50t-54 -28t-30.5 -8.5q-82 -10 -174 25.5t-209 109.5q-66 -81 -155 -111t-213 -30q-15 0 -37 4t-59.5 17t-70 46t-48.5 82q-6 19 -6 42.5zM106 139 q10 -35 30.5 -61t40.5 -38t45.5 -19t38 -8t26.5 -1q203 0 293 160q-120 76 -195 107q-99 40 -164.5 21t-96.5 -66.5t-18 -94.5z" />
<glyph unicode="&#xa4;" horiz-adv-x="1204" d="M37 252l168 168q-94 131 -94 287q0 159 94 286l-168 168l102 103l166 -168q126 94 289 94q164 0 287 -94l168 168l102 -103l-170 -168q94 -123 94 -286q0 -161 -94 -287l170 -168l-102 -102l-168 167q-127 -94 -287 -94q-158 0 -289 94l-166 -167zM260 707 q0 -141 98 -236q98 -98 236 -98t233 98q99 99 99 236q0 135 -97 235q-98 98 -235 98q-138 0 -236 -98q-98 -95 -98 -235z" />
<glyph unicode="&#xa5;" horiz-adv-x="1353" d="M-49 1413v29h588v-29q-17 0 -26 -0.5t-28.5 -4.5t-29 -12t-18.5 -25.5t-6 -41t17.5 -62t43.5 -87.5l294 -488l146 299q10 21 20.5 46t24.5 68t21 82t4 81t-19 72.5t-54.5 50.5t-97.5 20v31h572v-31q-22 0 -36 -1t-45 -10t-56.5 -24.5t-64 -49t-75 -80t-83 -119.5 t-93.5 -166l-145 -299h344v-33h-344v-144h344v-32h-344v-215q0 -107 46.5 -157t117.5 -50v-31h-574v31q71 0 117.5 50t46.5 157v215h-387v32h387v93l-31 51h-356v33h340q-117 206 -203.5 353t-114.5 191l-28 45q-26 46 -52 77.5t-45 47.5t-43.5 24.5t-37.5 10t-37 2.5z" />
<glyph unicode="&#xa6;" horiz-adv-x="434" d="M145 381h144v-772h-144v772zM145 737v768h144v-768h-144z" />
<glyph unicode="&#xa7;" horiz-adv-x="1116" d="M115.5 527q10.5 73 71.5 152.5t171 151.5q-159 144 -139 345q7 63 28 112.5t49 81t66 53.5t73.5 33t78 15.5t72.5 4.5t63 -3q77 -7 138 -43t85 -74q16 -26 18.5 -59t-11.5 -62q-25 -43 -71 -55.5t-89 10.5q-41 25 -54.5 71t9.5 87q23 42 59 47q13 3 -3 17q-24 22 -75 28 q-121 11 -199.5 -38.5t-88.5 -148.5q-9 -79 28.5 -144.5t139.5 -133.5l256 -168q73 -47 126 -107.5t78.5 -134t16 -148t-68.5 -154.5t-167 -150q73 -67 110.5 -153t26.5 -183q-6 -63 -27.5 -112.5t-50.5 -81t-68.5 -53.5t-77 -32.5t-80.5 -15t-74 -4t-64 3.5 q-78 7 -138.5 42t-84.5 73q-16 26 -18 58.5t14 61.5q23 43 69 55.5t90 -10.5q42 -23 54.5 -69.5t-11.5 -87.5q-25 -44 -75 -51q-12 -1 13 -15q37 -20 85 -26q111 -14 186.5 36t85.5 150q11 81 -21 144t-132 132l-258 170q-72 48 -123.5 107t-76.5 130.5t-14.5 144.5z M230 573q7 -37 24 -66t49.5 -61t61 -54t67.5 -48q38 -25 96 -61.5t100.5 -63t49.5 -31.5q41 -24 72 -51q48 34 80.5 68.5t49 64t19.5 60t-2.5 56t-22.5 52.5t-35.5 47.5t-47 44.5t-51 40t-52.5 36q-37 27 -96 64.5t-102.5 65.5t-49.5 32q-33 23 -53 39q-63 -42 -100.5 -84 t-50.5 -77.5t-6 -72.5z" />
<glyph unicode="&#xa8;" horiz-adv-x="538" d="M-16 1321q0 44 32 76.5t76 32.5t75.5 -32.5t31.5 -76.5t-31.5 -75.5t-75.5 -31.5t-76 31.5t-32 75.5zM340 1321q0 44 31.5 76.5t74.5 32.5q46 0 78.5 -32.5t32.5 -76.5t-32.5 -75.5t-78.5 -31.5q-43 0 -74.5 31.5t-31.5 75.5z" />
<glyph unicode="&#xa9;" horiz-adv-x="1654" d="M61 754q0 208 102 383.5t278 278t384 102.5q155 0 296 -60.5t243 -163t162.5 -244t60.5 -296.5t-60.5 -296t-162.5 -243t-243 -162.5t-296 -60.5q-156 0 -297.5 60.5t-244 162.5t-162.5 243t-60 296zM193 754q0 -127 50 -244.5t135 -202.5t202 -135.5t245 -50.5 q169 0 314 85.5t230 231.5t85 316q0 171 -85 317.5t-230 232t-314 85.5q-171 0 -316.5 -85.5t-230.5 -232t-85 -317.5zM424 735q0 185 109 300.5t292 115.5q98 0 165 -15t118 -55l-10 -176h-29q-28 217 -244 217q-34 0 -62.5 -8t-59.5 -33t-52 -66t-35 -112.5t-14 -167.5 q0 -389 223 -389q216 0 244 219h29l10 -176q-63 -42 -125.5 -57t-157.5 -15q-182 0 -291.5 116.5t-109.5 301.5z" />
<glyph unicode="&#xaa;" horiz-adv-x="614" d="M43 1036q0 76 61 113q43 25 186 61h1l1 1h1h1h1l1 1h1h1h1l1 1h1h1h1l1 1h1h1h1l1 1h1h1h1l1 1h1h1l1 1h2v61q0 82 -40 115t-101 6q-33 -13 -35 -28q-1 -3 2 -3q24 0 37 -20q12 -19 7.5 -40.5t-21.5 -35.5q-18 -12 -40.5 -9t-35.5 21q-9 12 -9.5 28.5t5.5 28.5 q19 48 80 80q22 11 48 16.5t41 4.5h15q91 0 127.5 -55t36.5 -158v-172q0 -3 0.5 -8t3 -17.5t7 -22t14.5 -17.5t24 -7q2 0 6 0.5t10.5 7t8.5 17.5l22 -9q-5 -29 -33.5 -51t-76.5 -22q-4 0 -10 0.5t-22.5 5t-29.5 12t-25 24t-14 38.5q-11 -33 -54 -56.5t-99 -23.5 q-5 0 -13.5 0.5t-29.5 6.5t-37 16t-29.5 32t-13.5 53zM158 1061q0 -12 4.5 -26.5t24 -31t51.5 -16.5q31 0 52.5 23t26.5 49v127q-84 -20 -121.5 -50t-37.5 -75z" />
<glyph unicode="&#xab;" horiz-adv-x="1249" d="M178 545l473 489v-67l-278 -422l278 -412v-65zM596 545l473 489v-67l-276 -422l276 -412v-65z" />
<glyph unicode="&#xac;" horiz-adv-x="1327" d="M84 662v145h1147v-643h-148v498h-999z" />
<glyph unicode="&#xad;" horiz-adv-x="909" d="M131 440v164h645v-164h-645z" />
<glyph unicode="&#xae;" horiz-adv-x="1660" d="M61 756q0 155 60.5 296.5t163 244t244 163t296.5 60.5t296 -60.5t243 -163t162.5 -244t60.5 -296.5t-60.5 -296t-162.5 -243t-243 -162.5t-296 -60.5t-296.5 60.5t-244 162.5t-163 243t-60.5 296zM195 756q0 -170 84.5 -315t229.5 -229.5t316 -84.5q170 0 315 84.5 t229.5 229.5t84.5 315q0 171 -84.5 317t-229.5 231t-315 85q-171 0 -316 -85t-229.5 -231t-84.5 -317zM510 373v28q38 0 57 27t19 90v526q0 50 -17.5 65t-58.5 15v29h244q73 0 123 -4t98 -16.5t75.5 -35.5t44.5 -61.5t17 -93.5q0 -101 -54.5 -147t-156.5 -56q30 2 56 -6.5 t55 -33.5t54.5 -78t45.5 -132q21 -88 125 -88v-28h-94q-95 1 -119 12q-31 13 -49 66q-2 6 -47 163q-9 32 -28.5 55.5t-41 33.5t-41 15.5t-32.5 5.5l-13 1h-53v-215q0 -109 76 -109v-28h-285zM719 754h35q29 0 43 0.5t38 2.5t36.5 7t29.5 13.5t25.5 22.5t18 33.5t13 46.5 t3.5 62q0 30 -4 55t-8.5 43t-16.5 32t-19.5 22.5t-26.5 14.5t-27.5 9t-33.5 4.5t-34 1.5h-37h-35v-370z" />
<glyph unicode="&#xaf;" horiz-adv-x="737" d="M-33 1210v123h805v-123h-805z" />
<glyph unicode="&#xb0;" horiz-adv-x="780" d="M117 1243q0 110 78.5 188t187.5 78t187.5 -78t78.5 -188q0 -109 -78.5 -186.5t-187.5 -77.5t-187.5 77.5t-78.5 186.5zM190 1243q0 -80 56.5 -136t138.5 -56q78 0 134 56.5t56 135.5q0 78 -56 134.5t-134 56.5q-81 0 -138 -56.5t-57 -134.5z" />
<glyph unicode="&#xb1;" horiz-adv-x="1245" d="M84 0v145h1063v-145h-1063zM84 618v146h457v332h145v-332h461v-146h-461v-331h-145v331h-457z" />
<glyph unicode="&#xb2;" horiz-adv-x="544" d="M61 1268q4 50 24.5 86t46.5 52.5t51.5 25.5t42.5 10h18q70 0 116 -45t46 -109q0 -44 -24 -90t-81 -123q-21 -27 -54.5 -76t-56.5 -85l-24 -35h170q57 0 86 51h27l-41 -154h-345l211 311q77 122 33 203q-29 52 -90 59q-65 6 -105 -44q-14 -18 -22 -43z" />
<glyph unicode="&#xb3;" horiz-adv-x="555" d="M75.5 845.5q-4.5 18.5 0.5 35.5q6 24 28.5 36.5t47.5 6.5q24 -7 36.5 -30t6.5 -48q-10 -27 -29 -35q-9 -2 6 -8q26 -10 80 -10q63 0 95.5 45.5t23.5 111.5q-3 20 -11 39.5t-26 43t-53.5 40t-85.5 21.5v30q71 16 103.5 58.5t25.5 86.5t-43 72q-39 34 -93.5 18.5 t-74.5 -73.5l-31 4q4 43 23.5 74t41.5 45.5t49.5 22.5t38.5 9t19 1q52 0 94.5 -30t60.5 -73.5t0.5 -98.5t-75.5 -99q65 -19 100.5 -63.5t38.5 -94.5q2 -48 -12.5 -86.5t-38.5 -62.5t-54.5 -40.5t-59.5 -23t-56 -6.5q-96 0 -160 53q-12 10 -16.5 28.5z" />
<glyph unicode="&#xb4;" horiz-adv-x="737" d="M178 1143l354 334l197 -60l-491 -274h-60z" />
<glyph unicode="&#xb5;" horiz-adv-x="1103" d="M23 895v31l329 39v-674q6 -185 193 -185q58 0 111 41t83 105v489q0 94 -6 113q-10 29 -52 36q-15 3 -38 5v31l313 39v-787q0 -71 19 -91t86 -28v-30l-268 -45q-24 -4 -37.5 4.5t-15.5 19.5l-1 10v177q-36 -99 -154 -164.5t-233 -34.5v-330q0 -74 21 -99.5t86 -31.5v-31 l-266 -45q-24 -4 -38 4.5t-16 19.5l-2 11v1247q0 91 -7 110q-11 28 -57 37q-18 4 -50 7z" />
<glyph unicode="&#xb6;" horiz-adv-x="1316" d="M76 1024q0 98 30 173t78.5 120t117.5 74t137.5 39.5t148.5 11.5h2h131v-1985h-387v31q34 0 64.5 5t66.5 22t62 44t43.5 76t17.5 113v866q-90 0 -161 9.5t-139 37t-113 72t-72 118.5t-27 173zM856 -543v1985h299v-31q-75 0 -121.5 -77.5t-46.5 -188.5v-1378 q0 -123 41 -201t113 -78v-31h-285z" />
<glyph unicode="&#xb7;" horiz-adv-x="532" d="M160 612q0 44 32 76.5t78 32.5q44 0 76.5 -32.5t32.5 -76.5t-32.5 -76t-76.5 -32q-46 0 -78 32t-32 76z" />
<glyph unicode="&#xb8;" horiz-adv-x="557" d="M115 -371q6 23 26.5 34t42.5 5q24 -8 35.5 -27t5.5 -42q-5 -19 -18 -25q-3 -3 1 -6.5t20 -7.5t42 -4q51 0 82 31t31 83q0 20 -10.5 46t-32 53t-65.5 40.5t-101 2.5l64 180h30l-43 -123q70 15 121 6t83 -37t45.5 -64.5t8.5 -76.5q-6 -50 -30.5 -85.5t-58 -52t-64 -23.5 t-60.5 -7q-89 0 -139 43q-26 23 -16 57z" />
<glyph unicode="&#xb9;" horiz-adv-x="452" d="M80 1319l174 125h31v-557q0 -26 7 -42.5t19.5 -23.5t24 -9.5t26.5 -2.5v-31h-270v31q39 0 63.5 15.5t24.5 62.5v381q0 24 -10 34t-24 6.5t-25.5 -9t-18.5 -11.5z" />
<glyph unicode="&#xba;" horiz-adv-x="669" d="M68 1100q0 348 264 348q262 0 262 -348q0 -336 -262 -336q-264 0 -264 336zM195 1100q0 -76 7 -132t19 -89t30.5 -52t37 -25.5t43.5 -6.5q32 0 54.5 11.5t42 42.5t29 93.5t9.5 157.5t-10.5 160t-30 98t-42 46t-52.5 13q-31 0 -54 -13t-42.5 -46t-30 -97.5t-10.5 -160.5z " />
<glyph unicode="&#xbb;" horiz-adv-x="1247" d="M172 68v65l277 412l-277 422v67l473 -489zM590 68v65l278 412l-278 422v67l473 -489z" />
<glyph unicode="&#xbc;" horiz-adv-x="1314" d="M29 74l1138 1376h119l-1141 -1376h-116zM160 1384l180 144h35v-649q0 -29 6.5 -47t21 -25t24.5 -8.5t28 -1.5v-29h-281v29q20 0 33 2t27.5 9.5t22 25t7.5 45.5v464q0 26 -10 36t-26 5.5t-28 -11.5t-22 -15zM662 215v16l348 521l49 -7v-466h106v-64h-106v-61q0 -44 6 -71 t20 -38t25 -13.5t33 -2.5v-29h-299v29q20 0 32 3t25.5 13.5t20 36.5t6.5 68v65h-266zM748.5 301q-3.5 -11 1.5 -15.5t10.5 -5.5t17.5 -1h150v294l-164 -243q-12 -18 -15.5 -29z" />
<glyph unicode="&#xbd;" horiz-adv-x="1325" d="M29 74l1138 1376h119l-1141 -1376h-116zM160 1384l180 144h35v-649q0 -29 6.5 -47t21 -25t24.5 -8.5t28 -1.5v-29h-281v29q20 0 33 2t27.5 9.5t22 25t7.5 45.5v464q0 26 -10 36t-26 5.5t-28 -11.5t-22 -15zM803 0l237 356q86 137 40 227q-29 59 -96 69q-70 10 -117 -40 q-22 -24 -33 -59l-29 8q3 42 16 75.5t31 54t39.5 35.5t42 21.5t37 10.5t27.5 4h10q80 0 131 -52t51 -126q0 -50 -28 -102t-95 -140l-154 -225h197q29 0 58.5 15t45.5 44h29l-49 -176h-391z" />
<glyph unicode="&#xbe;" horiz-adv-x="1316" d="M29 74l1138 1376h119l-1141 -1376h-116zM98 891q7 29 33 43.5t53 5.5q29 -8 44 -34t5 -54q-9 -26 -26 -35q-8 -2 4 -10q25 -16 90 -16q77 0 109 50.5t22 131.5q-3 24 -11.5 47t-28.5 51t-61 47.5t-98 24.5v26q79 19 116 67.5t29.5 98t-46.5 80.5q-30 23 -69 23.5 t-73.5 -23.5t-48.5 -67l-30 10q3 35 15 63t27.5 45t36.5 30t37.5 19t35 9t25 3.5t11.5 0.5q60 0 108 -33.5t68 -82t-0.5 -110t-87.5 -110.5q73 -19 116 -72t46 -110q2 -56 -14.5 -100.5t-43 -71.5t-61 -44.5t-66.5 -24.5t-63 -7q-112 0 -182 59q-13 12 -19.5 32.5t-1.5 37.5 zM662 215v16l348 521l49 -7v-466h106v-64h-106v-61q0 -44 6 -71t20 -38t25 -13.5t33 -2.5v-29h-299v29q20 0 32 3t25.5 13.5t20 36.5t6.5 68v65h-266zM748.5 301q-3.5 -11 1.5 -15.5t10.5 -5.5t17.5 -1h150v294l-164 -243q-12 -18 -15.5 -29z" />
<glyph unicode="&#xbf;" horiz-adv-x="1220" d="M207 -205q-4 85 15.5 158.5t51.5 121.5t76 86.5t82.5 59t77.5 33.5q81 26 122.5 93.5t33.5 160.5l47 6q6 -38 6.5 -70.5t-7 -78t-35 -91t-73.5 -84.5q-52 -45 -83 -89t-48 -119.5t-8 -178.5q7 -79 36.5 -138.5t72.5 -92t95.5 -47t107 -10t106.5 25.5q35 14 48 35 t7.5 35.5t-16.5 15.5q-47 6 -76 49q-29 41 -20.5 93t48.5 81t91.5 18.5t81.5 -52.5q34 -46 14 -127q-11 -41 -55.5 -93t-112.5 -81q-96 -43 -195.5 -54t-184 9.5t-153 64t-109 111.5t-44.5 149zM516 817q0 64 44.5 109t107.5 45t107 -45t44 -109q0 -63 -44 -106t-107 -43 t-107.5 43t-44.5 106z" />
<glyph unicode="&#xc0;" d="M33 0h481v31q-63 -2 -106.5 14.5t-65.5 42.5t-31 66t-7.5 74t10.5 77.5t16 66t16 48.5h508l66 -164q10 -23 18 -46t14 -57t2.5 -59.5t-24 -44t-58.5 -18.5v-31h527v31q-3 0 -16 1t-16.5 1.5t-15 2.5t-16.5 5t-16 8.5t-17 13.5t-16.5 19.5t-18.5 26.5t-18 35t-20 44 q-138 353 -514 1254h-27l-350 -934q-39 -100 -73 -176.5t-58 -126.5t-47.5 -84t-37.5 -51.5t-33 -26.5t-28 -10t-28 -2v-31zM352 451l236 639l254 -639h-490zM428 1780l197 59l354 -334h-59z" />
<glyph unicode="&#xc1;" d="M33 0v31q19 1 28 2t28 10t33 26.5t37.5 51.5t47.5 84t58 126.5t73 176.5l350 934h27q168 -401 296.5 -714.5t172.5 -426.5l45 -113q10 -24 20 -44t18 -35t18.5 -26.5t16.5 -19.5t17 -13.5t16 -8.5t16.5 -5t15 -2.5t16.5 -1.5t16 -1v-31h-527v31q38 0 58.5 18.5t24 44 t-2.5 59.5t-14 57t-18 46l-66 164h-508q-9 -26 -16 -48.5t-16 -66t-10.5 -77.5t7.5 -74t31 -66t65.5 -42.5t106.5 -14.5v-31h-481zM352 451h490l-254 639zM448 1505l354 334l197 -60l-491 -274h-60z" />
<glyph unicode="&#xc2;" d="M33 0h481v31q-63 -2 -106.5 14.5t-65.5 42.5t-31 66t-7.5 74t10.5 77.5t16 66t16 48.5h508l66 -164q10 -23 18 -46t14 -57t2.5 -59.5t-24 -44t-58.5 -18.5v-31h527v31q-3 0 -16 1t-16.5 1.5t-15 2.5t-16.5 5t-16 8.5t-17 13.5t-16.5 19.5t-18.5 26.5t-18 35t-20 44 q-138 353 -514 1254h-27l-350 -934q-39 -100 -73 -176.5t-58 -126.5t-47.5 -84t-37.5 -51.5t-33 -26.5t-28 -10t-28 -2v-31zM352 451l236 639l254 -639h-490zM399 1505l306 383l305 -383h-64l-241 183l-244 -183h-62z" />
<glyph unicode="&#xc3;" d="M33 0v31q19 1 28 2t28 10t33 26.5t37.5 51.5t47.5 84t58 126.5t73 176.5l350 934h27q168 -401 296.5 -714.5t172.5 -426.5l45 -113q10 -24 20 -44t18 -35t18.5 -26.5t16.5 -19.5t17 -13.5t16 -8.5t16.5 -5t15 -2.5t16.5 -1.5t16 -1v-31h-527v31q38 0 58.5 18.5t24 44 t-2.5 59.5t-14 57t-18 46l-66 164h-508q-9 -26 -16 -48.5t-16 -66t-10.5 -77.5t7.5 -74t31 -66t65.5 -42.5t106.5 -14.5v-31h-481zM225 1556q28 68 64 118.5t71.5 77t72.5 42.5t68 18t56 1t39 -5l14 -4l240 -88q27 -11 70.5 -11.5t89.5 9t87.5 36.5t59.5 67l25 -15 q-28 -68 -64 -118.5t-71.5 -77t-72.5 -43t-68 -18.5t-56 -1.5t-39 4.5l-14 4l-240 90q-28 9 -70 10.5t-88.5 -6.5t-88 -33.5t-60.5 -66.5zM352 451h490l-254 639z" />
<glyph unicode="&#xc4;" d="M33 0v31q19 1 28 2t28 10t33 26.5t37.5 51.5t47.5 84t58 126.5t73 176.5l350 934h27q168 -401 296.5 -714.5t172.5 -426.5l45 -113q10 -24 20 -44t18 -35t18.5 -26.5t16.5 -19.5t17 -13.5t16 -8.5t16.5 -5t15 -2.5t16.5 -1.5t16 -1v-31h-527v31q38 0 58.5 18.5t24 44 t-2.5 59.5t-14 57t-18 46l-66 164h-508q-9 -26 -16 -48.5t-16 -66t-10.5 -77.5t7.5 -74t31 -66t65.5 -42.5t106.5 -14.5v-31h-481zM352 451h490l-254 639zM418 1700q0 44 31.5 76t74.5 32q46 0 77.5 -32t31.5 -76t-31.5 -75.5t-77.5 -31.5q-43 0 -74.5 31.5t-31.5 75.5z M774 1700q0 44 31.5 76t75.5 32t77 -32t33 -76t-32.5 -75.5t-77.5 -31.5q-44 0 -75.5 31.5t-31.5 75.5z" />
<glyph unicode="&#xc5;" d="M33 0v31q19 1 28 2t28 10t33 26.5t37.5 51.5t47.5 84t58 126.5t73 176.5l350 934h27q168 -401 296.5 -714.5t172.5 -426.5l45 -113q10 -24 20 -44t18 -35t18.5 -26.5t16.5 -19.5t17 -13.5t16 -8.5t16.5 -5t15 -2.5t16.5 -1.5t16 -1v-31h-527v31q38 0 58.5 18.5t24 44 t-2.5 59.5t-14 57t-18 46l-66 164h-508q-9 -26 -16 -48.5t-16 -66t-10.5 -77.5t7.5 -74t31 -66t65.5 -42.5t106.5 -14.5v-31h-481zM352 451h490l-254 639zM496 1802q0 87 60 149t146 62q87 0 149 -62t62 -149q0 -86 -61.5 -147.5t-149.5 -61.5q-86 0 -146 61t-60 148z M575 1802q0 -52 37.5 -89.5t89.5 -37.5q54 0 91.5 37t37.5 90q0 54 -37.5 91.5t-91.5 37.5q-53 0 -90 -37.5t-37 -91.5z" />
<glyph unicode="&#xc6;" horiz-adv-x="1986" d="M20 0v31q24 1 45.5 9.5t60.5 39.5t82.5 84.5t109 152.5t143.5 236l438 780q-10 27 -25.5 43.5t-37 23.5t-39 9t-45.5 2v31h1077v-379h-31q-6 56 -26 103.5t-46.5 81t-65.5 60.5t-74.5 43.5t-81 29t-78 18t-72.5 8.5t-57.5 3.5t-39.5 0.5h-83v-670h94h23.5t39.5 4 t52.5 10.5t52.5 22t51.5 37t37 56.5t19.5 79h31v-448h-31q-3 44 -19.5 79t-37 56.5t-51.5 37t-52.5 22t-52.5 10.5t-39.5 4h-23.5h-94v-680h73q27 0 43 0.5t60 3.5t75.5 9.5t80.5 20.5t85 33t78 50.5t71.5 70t53 94t33.5 121.5h28v-434h-1079v31q36 0 60 8.5t44.5 32.5 t30 70.5t9.5 117.5v229h-451q-49 -91 -78 -163t-38.5 -119.5t-2 -81.5t21.5 -52t41.5 -28t50 -12t54.5 -2v-31h-498zM481 520h439v672q0 54 -7 94z" />
<glyph unicode="&#xc7;" horiz-adv-x="1394" d="M84 721q0 216 87 383.5t249 261.5t375 94q177 0 299.5 -26t212.5 -99l-27 -319h-31q-116 414 -454 414q-71 0 -126.5 -16.5t-108 -63.5t-86.5 -124.5t-54.5 -205t-20.5 -299.5q0 -174 21 -302.5t55.5 -205t87.5 -123t107.5 -62.5t124.5 -16q105 0 200 47t165 143.5 t89 225.5h31l27 -319q-110 -73 -225.5 -100t-286.5 -27l-39 -115q70 15 121 6t83 -37t45.5 -64.5t8.5 -76.5q-6 -50 -30.5 -85.5t-58 -52t-64 -23.5t-60.5 -7q-89 0 -139 43q-11 9 -16 25.5t-1 31.5q6 23 27 34t43 5q23 -7 34.5 -26.5t6.5 -42.5q-5 -18 -19 -25 q-3 -3 1.5 -7t20.5 -8t42 -3q51 0 82 31t30 83q0 20 -10 46t-31.5 53t-65.5 40.5t-101 2.5l59 172q-204 6 -359 102t-238 261.5t-83 375.5z" />
<glyph unicode="&#xc8;" horiz-adv-x="1280" d="M59 0h1092v436h-31q-11 -66 -36 -121.5t-56 -95t-75.5 -70.5t-83 -50.5t-89.5 -33.5t-84.5 -20.5t-79 -9.5t-61.5 -3.5t-43 -0.5h-84v682h102q13 0 25.5 -0.5t44.5 -4.5t59 -11.5t60.5 -23t57.5 -37t42 -56.5t21 -78h30v450h-30q-3 -43 -21 -77.5t-42 -55.5t-57.5 -36.5 t-60 -23t-58.5 -11.5t-45 -4.5t-26 -0.5h-102v668h92q22 0 41 -0.5t61 -3.5t77 -9t83 -18.5t86.5 -29t79.5 -43.5t69.5 -60.5t49.5 -80.5t27 -103h30v379h-1065v-31q63 0 89 -57.5t26 -161.5v-932q0 -229 -115 -229v-31zM334 1780l196 59l355 -334h-60z" />
<glyph unicode="&#xc9;" horiz-adv-x="1280" d="M59 0v31q115 0 115 229v932q0 104 -26 161.5t-89 57.5v31h1065v-379h-30q-6 56 -27 103t-49.5 80.5t-69.5 60.5t-79.5 43.5t-86.5 29t-83 18.5t-77 9t-61 3.5t-41 0.5h-92v-668h102q13 0 26 0.5t45 4.5t58.5 11.5t60 23t57.5 36.5t42 55.5t21 77.5h30v-450h-30 q-3 43 -21 78t-42 56.5t-57.5 37t-60.5 23t-59 11.5t-44.5 4.5t-25.5 0.5h-102v-682h84q27 0 43 0.5t61.5 3.5t79 9.5t84.5 20.5t89.5 33.5t83 50.5t75.5 70.5t56 95t36 121.5h31v-436h-1092zM303 1505l354 334l197 -59l-492 -275h-59z" />
<glyph unicode="&#xca;" horiz-adv-x="1280" d="M59 0h1092v436h-31q-11 -66 -36 -121.5t-56 -95t-75.5 -70.5t-83 -50.5t-89.5 -33.5t-84.5 -20.5t-79 -9.5t-61.5 -3.5t-43 -0.5h-84v682h102q13 0 25.5 -0.5t44.5 -4.5t59 -11.5t60.5 -23t57.5 -37t42 -56.5t21 -78h30v450h-30q-3 -43 -21 -77.5t-42 -55.5t-57.5 -36.5 t-60 -23t-58.5 -11.5t-45 -4.5t-26 -0.5h-102v668h92q22 0 41 -0.5t61 -3.5t77 -9t83 -18.5t86.5 -29t79.5 -43.5t69.5 -60.5t49.5 -80.5t27 -103h30v379h-1065v-31q63 0 89 -57.5t26 -161.5v-932q0 -229 -115 -229v-31zM293 1505l305 383l305 -383h-63l-242 183l-244 -183 h-61z" />
<glyph unicode="&#xcb;" horiz-adv-x="1280" d="M59 0v31q115 0 115 229v932q0 104 -26 161.5t-89 57.5v31h1065v-379h-30q-6 56 -27 103t-49.5 80.5t-69.5 60.5t-79.5 43.5t-86.5 29t-83 18.5t-77 9t-61 3.5t-41 0.5h-92v-668h102q13 0 26 0.5t45 4.5t58.5 11.5t60 23t57.5 36.5t42 55.5t21 77.5h30v-450h-30 q-3 43 -21 78t-42 56.5t-57.5 37t-60.5 23t-59 11.5t-44.5 4.5t-25.5 0.5h-102v-682h84q27 0 43 0.5t61.5 3.5t79 9.5t84.5 20.5t89.5 33.5t83 50.5t75.5 70.5t56 95t36 121.5h31v-436h-1092zM315 1700q0 44 32.5 76t76.5 32t76 -32t32 -76t-32 -75.5t-76 -31.5t-76.5 31.5 t-32.5 75.5zM672 1700q0 44 32 76t76 32t76.5 -32t32.5 -76t-32.5 -75.5t-76.5 -31.5t-76 31.5t-32 75.5z" />
<glyph unicode="&#xcc;" horiz-adv-x="739" d="M90 0v31q69 0 114.5 52.5t45.5 152.5v1003q0 90 -43.5 131t-116.5 41v31h572v-31q-72 0 -116 -41t-44 -131v-1003q0 -100 45.5 -152.5t114.5 -52.5v-31h-572zM92 1780l197 59l354 -334h-59z" />
<glyph unicode="&#xcd;" horiz-adv-x="739" d="M90 0v31q69 0 114.5 52.5t45.5 152.5v1003q0 90 -43.5 131t-116.5 41v31h572v-31q-72 0 -116 -41t-44 -131v-1003q0 -100 45.5 -152.5t114.5 -52.5v-31h-572zM94 1505l355 334l196 -59l-491 -275h-60z" />
<glyph unicode="&#xce;" horiz-adv-x="739" d="M76 1505l305 383l305 -383h-63l-242 183l-244 -183h-61zM90 0v31q69 0 114.5 52.5t45.5 152.5v1003q0 90 -43.5 131t-116.5 41v31h572v-31q-72 0 -116 -41t-44 -131v-1003q0 -100 45.5 -152.5t114.5 -52.5v-31h-572z" />
<glyph unicode="&#xcf;" horiz-adv-x="739" d="M90 0v31q69 0 114.5 52.5t45.5 152.5v1003q0 90 -43.5 131t-116.5 41v31h572v-31q-72 0 -116 -41t-44 -131v-1003q0 -100 45.5 -152.5t114.5 -52.5v-31h-572zM90 1700q0 44 32.5 76t76.5 32t76 -32t32 -76t-32 -75.5t-76 -31.5t-76.5 31.5t-32.5 75.5zM446 1700 q0 44 32.5 76t76.5 32t76.5 -32t32.5 -76t-32.5 -75.5t-76.5 -31.5t-76.5 31.5t-32.5 75.5z" />
<glyph unicode="&#xd0;" horiz-adv-x="1499" d="M53 700v39h170v441q0 98 -39.5 164.5t-105.5 66.5v31h489q836 0 836 -725q0 -127 -25.5 -231.5t-68.5 -178t-107 -129t-134 -89t-157.5 -54t-168.5 -28t-175 -7.5h-489v31q66 0 105.5 63.5t39.5 167.5v438h-170zM477 31h90q43 0 74.5 1.5t77.5 9t80.5 20.5t76 38t72 59.5 t61 87t49 118t30.5 155.5t12 197q0 135 -19 242.5t-48.5 179t-75.5 124t-90 80t-102 44t-101 20.5t-97 4h-90v-672h297v-39h-297v-669z" />
<glyph unicode="&#xd1;" horiz-adv-x="1683" d="M18 1411v31h441l854 -1080v564q0 36 -0.5 58.5t-5.5 78.5t-14.5 96t-29.5 91t-48 83.5t-73 55t-102 22.5v31h602v-31q-295 2 -294 -477v-8v-926h-91l-880 1120v-604v-41t2.5 -56t7 -69.5t14 -72.5t22.5 -74t34 -65.5t47 -56t63.5 -36t81.5 -14.5v-31h-606v31 q49 0 90 14.5t70 35.5t52 56t37.5 65.5t24.5 74t15 72t7.5 70t2.5 56v41.5v643l-80 103q-27 34 -51.5 59.5t-45.5 41t-36.5 25.5t-34 14.5t-27.5 6t-26.5 2t-22.5 0.5zM362 1556q27 68 63 118.5t71.5 77t72 42.5t68 18t56 1t38.5 -5l14 -4l240 -88q27 -11 70.5 -11.5t89.5 9 t87.5 36.5t59.5 67l25 -15q-28 -68 -64 -118.5t-71.5 -77t-72.5 -43t-68 -18.5t-56 -1.5t-39 4.5l-14 4l-240 90q-27 9 -69 10.5t-88.5 -6.5t-87.5 -34t-60 -66z" />
<glyph unicode="&#xd2;" horiz-adv-x="1546" d="M84 711q0 -154 44.5 -286t128.5 -231t216 -155.5t297 -56.5t297 56.5t216 155.5t128.5 231t44.5 286q0 123 -27.5 234t-84.5 205t-137.5 163t-192.5 108t-244 39t-244 -39t-192.5 -108t-137.5 -163t-84.5 -205t-27.5 -234zM377 711q0 166 18 290t50 205.5t81.5 132 t108.5 71t135 20.5t134 -20.5t107 -71t81 -132t49.5 -205.5t17.5 -290t-17.5 -288.5t-49 -201t-81.5 -125.5t-107.5 -65.5t-133.5 -18.5q-77 0 -135 18.5t-108.5 65.5t-82 125.5t-49.5 201t-18 288.5zM455 1780l196 59l355 -334h-60z" />
<glyph unicode="&#xd3;" horiz-adv-x="1546" d="M84 711q0 123 27.5 234t84.5 205t137.5 163t192.5 108t244 39t244 -39t192.5 -108t137.5 -163t84.5 -205t27.5 -234q0 -154 -44.5 -286t-128.5 -231t-216 -155.5t-297 -56.5t-297 56.5t-216 155.5t-128.5 231t-44.5 286zM377 711q0 -166 18 -288.5t49.5 -201t82 -125.5 t108.5 -65.5t135 -18.5q76 0 133.5 18.5t107.5 65.5t81.5 125.5t49 201t17.5 288.5t-17.5 290t-49.5 205.5t-81 132t-107 71t-134 20.5t-135 -20.5t-108.5 -71t-81.5 -132t-50 -205.5t-18 -290zM481 1505l354 334l197 -60l-491 -274h-60z" />
<glyph unicode="&#xd4;" horiz-adv-x="1546" d="M84 711q0 -154 44.5 -286t128.5 -231t216 -155.5t297 -56.5t297 56.5t216 155.5t128.5 231t44.5 286q0 123 -27.5 234t-84.5 205t-137.5 163t-192.5 108t-244 39t-244 -39t-192.5 -108t-137.5 -163t-84.5 -205t-27.5 -234zM377 711q0 166 18 290t50 205.5t81.5 132 t108.5 71t135 20.5t134 -20.5t107 -71t81 -132t49.5 -205.5t17.5 -290t-17.5 -288.5t-49 -201t-81.5 -125.5t-107.5 -65.5t-133.5 -18.5q-77 0 -135 18.5t-108.5 65.5t-82 125.5t-49.5 201t-18 288.5zM463 1505l305 383l305 -383h-63l-242 183l-244 -183h-61z" />
<glyph unicode="&#xd5;" horiz-adv-x="1546" d="M84 711q0 -154 44.5 -286t128.5 -231t216 -155.5t297 -56.5t297 56.5t216 155.5t128.5 231t44.5 286q0 123 -27.5 234t-84.5 205t-137.5 163t-192.5 108t-244 39t-244 -39t-192.5 -108t-137.5 -163t-84.5 -205t-27.5 -234zM301 1554q28 69 64 119.5t71.5 77t72.5 42.5 t68 18.5t56 1.5t39 -5l14 -4l240 -90q27 -10 70 -10t89.5 9.5t87.5 36.5t60 67l24 -15q-28 -68 -64.5 -118.5t-72 -77t-72.5 -43t-68 -18.5t-55.5 -1.5t-38.5 4.5l-14 4l-239 90q-28 9 -70 10.5t-88.5 -6.5t-88 -33.5t-60.5 -66.5zM377 711q0 166 18 290t50 205.5t81.5 132 t108.5 71t135 20.5t134 -20.5t107 -71t81 -132t49.5 -205.5t17.5 -290t-17.5 -288.5t-49 -201t-81.5 -125.5t-107.5 -65.5t-133.5 -18.5q-77 0 -135 18.5t-108.5 65.5t-82 125.5t-49.5 201t-18 288.5z" />
<glyph unicode="&#xd6;" horiz-adv-x="1546" d="M84 711q0 123 27.5 234t84.5 205t137.5 163t192.5 108t244 39t244 -39t192.5 -108t137.5 -163t84.5 -205t27.5 -234q0 -154 -44.5 -286t-128.5 -231t-216 -155.5t-297 -56.5t-297 56.5t-216 155.5t-128.5 231t-44.5 286zM377 711q0 -166 18 -288.5t49.5 -201t82 -125.5 t108.5 -65.5t135 -18.5q76 0 133.5 18.5t107.5 65.5t81.5 125.5t49 201t17.5 288.5t-17.5 290t-49.5 205.5t-81 132t-107 71t-134 20.5t-135 -20.5t-108.5 -71t-81.5 -132t-50 -205.5t-18 -290zM487 1700q0 44 31.5 76t75.5 32t76 -32t32 -76t-32 -76.5t-76 -32.5 t-75.5 32.5t-31.5 76.5zM842 1700q0 44 32 76t76 32t76.5 -32t32.5 -76t-32.5 -76.5t-76.5 -32.5t-76 32.5t-32 76.5z" />
<glyph unicode="&#xd7;" horiz-adv-x="1228" d="M121 143l379 377l-379 379l117 117l376 -379l379 379l115 -117l-379 -379l379 -377l-115 -116l-379 379l-376 -379z" />
<glyph unicode="&#xd8;" horiz-adv-x="1548" d="M86 711q0 123 27.5 234t84.5 205t137.5 163t192.5 108t244 39q212 0 371 -100l98 166h43l-110 -187q138 -100 211 -265t73 -363q0 -154 -44.5 -286t-128.5 -231t-216 -155.5t-297 -56.5q-206 0 -364 90l-86 -144h-43l98 162q-142 94 -216.5 256.5t-74.5 364.5zM379 711 q0 -321 76 -492l618 1026q-48 99 -122.5 142t-178.5 43q-76 0 -135 -20.5t-108.5 -71t-81.5 -132t-50 -205.5t-18 -290zM473 178q47 -91 120 -128.5t179 -37.5q76 0 133.5 18.5t107.5 65.5t81.5 125.5t49 201t17.5 288.5q0 323 -69 493z" />
<glyph unicode="&#xd9;" horiz-adv-x="1507" d="M35 1411q153 0 153 -178v-735q0 -162 67.5 -281t177.5 -177t247 -58q70 0 136 13.5t134.5 49t118.5 90t82 145.5t31 207v582v38.5t2.5 44t7 51t14 49.5t23 50t35.5 42.5t49.5 36t66.5 21.5t86 9v31h-575v-31q54 0 96.5 -14t69 -35t46 -55t28.5 -61t14 -67t5.5 -59.5 t0.5 -50.5v-582q0 -186 -103.5 -292.5t-248.5 -106.5q-160 0 -260.5 105.5t-100.5 287.5v750q0 55 14.5 92.5t42 55.5t56 25t65.5 7v31h-581v-31zM459 1780l196 59l355 -334h-60z" />
<glyph unicode="&#xda;" horiz-adv-x="1507" d="M35 1411v31h581v-31q-37 0 -65.5 -7t-56 -25t-42 -55.5t-14.5 -92.5v-750q0 -182 100.5 -287.5t260.5 -105.5q145 0 248.5 106.5t103.5 292.5v582q0 31 -0.5 50.5t-5.5 59.5t-14 67t-28.5 61t-46 55t-69 35t-96.5 14v31h575v-31q-47 0 -86 -9t-66.5 -21.5t-49.5 -36 t-35.5 -42.5t-23 -50t-14 -49.5t-7 -51t-2.5 -44v-38.5v-582q1 -116 -31 -207t-82 -145.5t-118.5 -90t-134.5 -49t-136 -13.5q-137 0 -247 58t-177.5 177t-67.5 281v735q0 178 -153 178zM481 1505l355 334l196 -59l-491 -275h-60z" />
<glyph unicode="&#xdb;" horiz-adv-x="1507" d="M35 1411q153 0 153 -178v-735q0 -162 67.5 -281t177.5 -177t247 -58q70 0 136 13.5t134.5 49t118.5 90t82 145.5t31 207v582v38.5t2.5 44t7 51t14 49.5t23 50t35.5 42.5t49.5 36t66.5 21.5t86 9v31h-575v-31q54 0 96.5 -14t69 -35t46 -55t28.5 -61t14 -67t5.5 -59.5 t0.5 -50.5v-582q0 -186 -103.5 -292.5t-248.5 -106.5q-160 0 -260.5 105.5t-100.5 287.5v750q0 55 14.5 92.5t42 55.5t56 25t65.5 7v31h-581v-31zM469 1505l305 383l305 -383h-63l-242 183l-244 -183h-61z" />
<glyph unicode="&#xdc;" horiz-adv-x="1507" d="M35 1411v31h581v-31q-37 0 -65.5 -7t-56 -25t-42 -55.5t-14.5 -92.5v-750q0 -182 100.5 -287.5t260.5 -105.5q145 0 248.5 106.5t103.5 292.5v582q0 31 -0.5 50.5t-5.5 59.5t-14 67t-28.5 61t-46 55t-69 35t-96.5 14v31h575v-31q-47 0 -86 -9t-66.5 -21.5t-49.5 -36 t-35.5 -42.5t-23 -50t-14 -49.5t-7 -51t-2.5 -44v-38.5v-582q1 -116 -31 -207t-82 -145.5t-118.5 -90t-134.5 -49t-136 -13.5q-137 0 -247 58t-177.5 177t-67.5 281v735q0 178 -153 178zM467 1700q0 44 31 76t75 32t76.5 -32t32.5 -76t-32.5 -76.5t-76.5 -32.5t-75 32 t-31 77zM821 1700q0 44 32.5 76t76.5 32t76 -32t32 -76t-32 -76.5t-76 -32.5t-76.5 32.5t-32.5 76.5z" />
<glyph unicode="&#xdd;" horiz-adv-x="1499" d="M18 1413v29h590v-29q-17 0 -26.5 -0.5t-29 -4.5t-29 -12t-18 -25t-5.5 -41t17.5 -62.5t43.5 -87.5l293 -488l145 301q10 22 20.5 46.5t24.5 67.5t21 81t4.5 80.5t-18.5 72.5t-54.5 50t-97.5 20v31h571v-31q-31 0 -53.5 -3.5t-70 -27.5t-92 -68t-108 -135t-128.5 -219 l-146 -303v-415q0 -108 46.5 -158.5t117.5 -50.5v-31h-571v31q71 0 117.5 50.5t46.5 158.5v338q-134 236 -232 404.5t-129 218.5l-32 50q-32 55 -62 90t-60 49t-48.5 18t-47.5 5zM526 1505l355 334l196 -59l-491 -275h-60z" />
<glyph unicode="&#xde;" horiz-adv-x="1286" d="M74 0v31q67 0 111 56t44 157v985q0 91 -42 136.5t-113 45.5v31h559v-31q-70 0 -112 -45.5t-42 -136.5v-47h56q109 0 193 -6.5t165.5 -22.5t138.5 -46t101.5 -75t66 -111.5t21.5 -152.5q0 -74 -17 -133t-47 -101.5t-78 -73.5t-102 -50t-128 -30.5t-147 -15.5t-167 -4h-56 v-116q0 -101 43.5 -157t110.5 -56v-31h-559zM479 391h56q85 0 130.5 3.5t107.5 23t92.5 57.5t53.5 111.5t23 181.5q0 62 -7.5 112.5t-18.5 88t-31.5 66.5t-39.5 48t-51 32.5t-56 20t-64 10.5t-66.5 4.5t-72.5 0.5h-56v-760z" />
<glyph unicode="&#xdf;" horiz-adv-x="1239" d="M57 0v31q53 17 67.5 68t14.5 147v768q0 242 103.5 379t310.5 137q58 0 106.5 -5.5t101 -18.5t92.5 -39t72.5 -63.5t50 -95t17.5 -130.5t-25 -132t-60 -92.5t-76 -56.5t-70 -31t-45 -8q38 0 84 -9.5t100.5 -29t104.5 -55.5t92 -82.5t67 -116t25 -151.5q0 -92 -25.5 -167.5 t-80 -136.5t-148.5 -94.5t-221 -33.5q-80 0 -131.5 25.5t-73.5 58.5q-40 58 -18 116q15 41 56 59t81 1q39 -15 56.5 -56.5t2.5 -81.5q-18 -40 -57 -57q-14 -5 0 -16q24 -19 84 -19q54 0 94 24t64 62.5t38 95.5t19 114t4 126q-1 83 -26.5 152.5t-65.5 115t-90.5 77 t-99.5 45.5t-93 14v30q36 0 66 6.5t61.5 27t52.5 54.5t35 93t14 139q0 245 -147 298q-35 13 -88 13q-56 0 -97 -43t-59 -104t-28 -122t-11 -104v-43v-1083h-301z" />
<glyph unicode="&#xe0;" horiz-adv-x="1040" d="M84 190q0 -43 13 -77.5t33.5 -55.5t46 -36.5t50.5 -22.5t45.5 -11t33.5 -5h13q106 0 188.5 49t104.5 121q5 -48 26.5 -83.5t48 -51t53 -24.5t44.5 -10l17 -1q83 0 143 44.5t72 96.5l-31 12q-5 -19 -19.5 -30t-25.5 -12l-12 -1q-43 0 -67 34t-27 68l-3 33v328 q0 96 -14.5 167t-48.5 128t-96 86t-152 29q-12 1 -31.5 0.5t-71 -10.5t-91.5 -31q-51 -27 -87 -59t-47.5 -49t-25.5 -42q-31 -57 8 -112q25 -35 69 -42.5t79 17.5q36 26 43 69t-19 78q-25 35 -70 41q-11 2 1 22q19 28 69 54q114 55 189 -17.5t75 -232.5v-123 q-251 -64 -319 -89q-135 -49 -178 -123q-29 -51 -29 -126zM250 1382l196 60l355 -334h-60zM307 238q0 188 303 256v-291q-16 -45 -55.5 -79t-99.5 -34q-45 0 -77 18.5t-46 45.5t-19.5 48t-5.5 36z" />
<glyph unicode="&#xe1;" horiz-adv-x="1040" d="M84 190q0 38 7 69.5t22.5 56.5t36.5 45.5t52.5 38t66.5 31.5t83 28.5t97 27.5t113 29l48 12v123q0 160 -75 232.5t-189 17.5q-63 -32 -73 -64q-4 -11 3 -12q45 -6 70 -41q26 -35 19 -78t-43 -69q-35 -25 -79 -17.5t-69 42.5q-39 55 -8 112q14 25 25.5 42t47.5 49t87 59 q40 21 88.5 31t77.5 10h28q90 0 152 -29t96 -86t48.5 -128t14.5 -167v-328q0 -5 0.5 -14.5t6 -32.5t14.5 -41t29 -32.5t47 -14.5q5 0 13 1t23.5 12t20.5 30l31 -12q-12 -52 -72 -96.5t-143 -44.5q-4 0 -10 0.5t-24 3.5t-35 8.5t-38 18.5t-37 30t-28.5 45.5t-16.5 63.5 q-22 -72 -104.5 -121t-188.5 -49q-5 0 -13.5 0.5t-33 4.5t-46.5 11t-49 22.5t-46.5 36.5t-33 55.5t-13.5 77.5zM260 1108l354 334l197 -60l-491 -274h-60zM307 238q0 -15 5.5 -36t19.5 -48t46 -45.5t77 -18.5q60 0 99.5 34t55.5 79v291q-303 -68 -303 -256z" />
<glyph unicode="&#xe2;" horiz-adv-x="1040" d="M84 190q0 -43 13 -77.5t33.5 -55.5t46 -36.5t50.5 -22.5t45.5 -11t33.5 -5h13q106 0 188.5 49t104.5 121q5 -48 26.5 -83.5t48 -51t53 -24.5t44.5 -10l17 -1q83 0 143 44.5t72 96.5l-31 12q-5 -19 -19.5 -30t-25.5 -12l-12 -1q-43 0 -67 34t-27 68l-3 33v328 q0 96 -14.5 167t-48.5 128t-96 86t-152 29q-12 1 -31.5 0.5t-71 -10.5t-91.5 -31q-51 -27 -87 -59t-47.5 -49t-25.5 -42q-31 -57 8 -112q25 -35 69 -42.5t79 17.5q36 26 43 69t-19 78q-25 35 -70 41q-11 2 1 22q19 28 69 54q114 55 189 -17.5t75 -232.5v-123 q-251 -64 -319 -89q-135 -49 -178 -123q-29 -51 -29 -126zM233 1059l306 383l305 -383h-64l-241 182l-244 -182h-62zM307 238q0 188 303 256v-291q-16 -45 -55.5 -79t-99.5 -34q-45 0 -77 18.5t-46 45.5t-19.5 48t-5.5 36z" />
<glyph unicode="&#xe3;" horiz-adv-x="1040" d="M57 1137q28 68 64 118.5t71.5 77t72.5 42.5t68 18.5t56 1.5t39 -5l14 -4l240 -90q27 -10 70 -10t89.5 9.5t87.5 36t60 65.5l25 -13q-28 -68 -64.5 -118.5t-72 -77t-72.5 -42.5t-68 -18.5t-55.5 -1.5t-38.5 5l-14 4l-240 88q-28 10 -70.5 11.5t-88.5 -6t-87.5 -33.5 t-60.5 -67zM84 190q0 38 7 69.5t22.5 56.5t36.5 45.5t52.5 38t66.5 31.5t83 28.5t97 27.5t113 29l48 12v123q0 160 -75 232.5t-189 17.5q-63 -32 -73 -64q-4 -11 3 -12q45 -6 70 -41q26 -35 19 -78t-43 -69q-35 -25 -79 -17.5t-69 42.5q-39 55 -8 112q14 25 25.5 42t47.5 49 t87 59q40 21 88.5 31t77.5 10h28q90 0 152 -29t96 -86t48.5 -128t14.5 -167v-328q0 -5 0.5 -14.5t6 -32.5t14.5 -41t29 -32.5t47 -14.5q5 0 13 1t23.5 12t20.5 30l31 -12q-12 -52 -72 -96.5t-143 -44.5q-4 0 -10 0.5t-24 3.5t-35 8.5t-38 18.5t-37 30t-28.5 45.5t-16.5 63.5 q-22 -72 -104.5 -121t-188.5 -49q-5 0 -13.5 0.5t-33 4.5t-46.5 11t-49 22.5t-46.5 36.5t-33 55.5t-13.5 77.5zM307 238q0 -15 5.5 -36t19.5 -48t46 -45.5t77 -18.5q60 0 99.5 34t55.5 79v291q-303 -68 -303 -256z" />
<glyph unicode="&#xe4;" horiz-adv-x="1040" d="M84 190q0 -43 13 -77.5t33.5 -55.5t46 -36.5t50.5 -22.5t45.5 -11t33.5 -5h13q106 0 188.5 49t104.5 121q5 -48 26.5 -83.5t48 -51t53 -24.5t44.5 -10l17 -1q83 0 143 44.5t72 96.5l-31 12q-5 -19 -19.5 -30t-25.5 -12l-12 -1q-43 0 -67 34t-27 68l-3 33v328 q0 96 -14.5 167t-48.5 128t-96 86t-152 29q-12 1 -31.5 0.5t-71 -10.5t-91.5 -31q-51 -27 -87 -59t-47.5 -49t-25.5 -42q-31 -57 8 -112q25 -35 69 -42.5t79 17.5q36 26 43 69t-19 78q-25 35 -70 41q-11 2 1 22q19 28 69 54q114 55 189 -17.5t75 -232.5v-123 q-251 -64 -319 -89q-135 -49 -178 -123q-29 -51 -29 -126zM242 1262q0 44 31 76t75 32q46 0 77.5 -32t31.5 -76q0 -45 -32 -77t-77 -32q-44 0 -75 32t-31 77zM307 238q0 188 303 256v-291q-16 -45 -55.5 -79t-99.5 -34q-45 0 -77 18.5t-46 45.5t-19.5 48t-5.5 36zM598 1262 q0 44 31.5 76t75.5 32t76 -32t32 -76t-32 -76.5t-76 -32.5t-75.5 32.5t-31.5 76.5z" />
<glyph unicode="&#xe5;" horiz-adv-x="1040" d="M84 190q0 -43 13 -77.5t33.5 -55.5t46 -36.5t50.5 -22.5t45.5 -11t33.5 -5h13q106 0 188.5 49t104.5 121q5 -48 26.5 -83.5t48 -51t53 -24.5t44.5 -10l17 -1q83 0 143 44.5t72 96.5l-31 12q-5 -19 -19.5 -30t-25.5 -12l-12 -1q-43 0 -67 34t-27 68l-3 33v328 q0 96 -14.5 167t-48.5 128t-96 86t-152 29q-12 1 -31.5 0.5t-71 -10.5t-91.5 -31q-51 -27 -87 -59t-47.5 -49t-25.5 -42q-31 -57 8 -112q25 -35 69 -42.5t79 17.5q36 26 43 69t-19 78q-25 35 -70 41q-11 2 1 22q19 28 69 54q114 55 189 -17.5t75 -232.5v-123 q-251 -64 -319 -89q-135 -49 -178 -123q-29 -51 -29 -126zM307 238q0 188 303 256v-291q-16 -45 -55.5 -79t-99.5 -34q-45 0 -77 18.5t-46 45.5t-19.5 48t-5.5 36zM311 1307q0 87 61 148t148 61q86 0 146.5 -61.5t60.5 -147.5t-60.5 -147.5t-146.5 -61.5q-87 0 -148 61 t-61 148zM391 1307q0 -53 37.5 -90t91.5 -37q52 0 89.5 37t37.5 90t-37.5 90t-89.5 37q-54 0 -91.5 -37t-37.5 -90z" />
<glyph unicode="&#xe6;" horiz-adv-x="1478" d="M84 190q0 50 11 88.5t45.5 70t64.5 51.5t102.5 45t122.5 39.5t160 43.5v123q0 161 -71 232.5t-185 15.5q-62 -30 -67 -59q-2 -10 5 -11q40 -5 68 -45q25 -35 17.5 -78t-44.5 -69q-35 -25 -77.5 -17.5t-67.5 42.5q-39 55 -8 112q12 24 23 41t46 48.5t86 58.5 q40 21 84.5 31.5t69.5 10.5l25 1q161 0 233 -144q67 71 134 107.5t153 36.5q200 0 290.5 -114.5t90.5 -361.5h-588q7 -171 67 -259t179 -107q84 -13 162.5 30.5t113.5 108.5l31 -16q-73 -264 -361 -264q-119 0 -213.5 60.5t-136.5 150.5q-21 -90 -112 -150.5t-218 -60.5 q-5 0 -13.5 0.5t-33 4.5t-46.5 11t-49 22.5t-46.5 36.5t-33 55.5t-13.5 77.5zM307 238q0 -17 4.5 -37t17.5 -47.5t44 -45.5t76 -18q68 0 115.5 43.5t64.5 93.5q-30 72 -39 189v80q-28 -8 -52.5 -16t-70.5 -31t-78 -49t-57 -69t-25 -93zM809 520h387q0 208 -48 311t-134 103 q-92 0 -148.5 -118t-56.5 -296z" />
<glyph unicode="&#xe7;" horiz-adv-x="1005" d="M92 475q0 93 34.5 180t97.5 156.5t162.5 111.5t219.5 42q187 0 275 -107q20 -23 26 -55t-6 -64q-17 -43 -61 -63.5t-88 -3.5q-45 19 -64 62t0 87q14 44 60 62q12 3 -7 17q-44 34 -135 34q-28 0 -60.5 -8.5t-74.5 -37t-75 -73t-56 -125t-23 -184.5q0 -173 79.5 -265.5 t199.5 -109.5q91 -13 185 30t128 103l25 -14q-11 -43 -38 -86.5t-72.5 -86t-119 -69t-163.5 -26.5h-27l-39 -111q131 30 200.5 -27.5t57.5 -144.5q-6 -50 -29.5 -85.5t-57.5 -52t-64 -23.5t-60 -7q-91 0 -141 43q-23 23 -16 57q7 23 27.5 34t43.5 5q23 -7 33.5 -26t5.5 -43 q-3 -17 -18 -25q-3 -3 1 -7t20.5 -8t43.5 -3q51 0 81.5 31t29.5 83q0 16 -6 35.5t-20 43t-37.5 40t-59 25t-84.5 -1.5l59 170q-167 22 -280 162.5t-113 328.5z" />
<glyph unicode="&#xe8;" horiz-adv-x="1038" d="M74 467q0 -128 56 -238.5t159 -178.5t229 -68q91 0 167 26.5t123 68.5t75 84.5t39 84.5l-29 14q-33 -72 -129.5 -111.5t-188.5 -25.5q-118 18 -190.5 108.5t-81.5 260.5h651q0 238 -106.5 355.5t-310.5 117.5q-202 0 -332.5 -139t-130.5 -359zM252 1382l197 60l354 -334 h-60zM303 522q0 169 67.5 290.5t157.5 121.5q86 0 149.5 -108t63.5 -304h-438z" />
<glyph unicode="&#xe9;" horiz-adv-x="1038" d="M74 467q0 220 130.5 359t332.5 139q204 0 310.5 -117.5t106.5 -355.5h-651q9 -170 81.5 -260.5t190.5 -108.5q92 -14 188.5 25.5t129.5 111.5l29 -14q-11 -42 -39 -84.5t-75 -84.5t-123 -68.5t-167 -26.5q-126 0 -229 68t-159 178.5t-56 238.5zM246 1108l354 334l197 -60 l-492 -274h-59zM303 522h438q0 196 -63.5 304t-149.5 108q-90 0 -157.5 -121.5t-67.5 -290.5z" />
<glyph unicode="&#xea;" horiz-adv-x="1038" d="M74 467q0 -128 56 -238.5t159 -178.5t229 -68q91 0 167 26.5t123 68.5t75 84.5t39 84.5l-29 14q-33 -72 -129.5 -111.5t-188.5 -25.5q-118 18 -190.5 108.5t-81.5 260.5h651q0 238 -106.5 355.5t-310.5 117.5q-202 0 -332.5 -139t-130.5 -359zM209 1059l305 383l305 -383 h-63l-242 182l-244 -182h-61zM303 522q0 169 67.5 290.5t157.5 121.5q86 0 149.5 -108t63.5 -304h-438z" />
<glyph unicode="&#xeb;" horiz-adv-x="1038" d="M74 467q0 220 130.5 359t332.5 139q204 0 310.5 -117.5t106.5 -355.5h-651q9 -170 81.5 -260.5t190.5 -108.5q92 -14 188.5 25.5t129.5 111.5l29 -14q-11 -42 -39 -84.5t-75 -84.5t-123 -68.5t-167 -26.5q-126 0 -229 68t-159 178.5t-56 238.5zM242 1262q0 44 31 76 t75 32t76.5 -32t32.5 -76t-32.5 -76.5t-76.5 -32.5t-75 32t-31 77zM303 522h438q0 196 -63.5 304t-149.5 108q-90 0 -157.5 -121.5t-67.5 -290.5zM596 1262q0 44 32 76t77 32q44 0 76 -32t32 -76t-32 -76.5t-76 -32.5q-45 0 -77 32t-32 77z" />
<glyph unicode="&#xec;" horiz-adv-x="540" d="M-20 1382l196 60l354 -334h-59zM59 864q62 -26 82.5 -53t20.5 -80v-512q0 -37 -1 -58t-5.5 -45.5t-13 -38.5t-24 -26.5t-38.5 -19.5v-31h383v31q-52 14 -68 55t-16 133v746l-320 -70v-31z" />
<glyph unicode="&#xed;" horiz-adv-x="540" d="M-2 1108l354 334l197 -60l-492 -274h-59zM59 864v31l320 70v-746q0 -92 16 -133t68 -55v-31h-383v31q23 7 38.5 19.5t24 26.5t13 38.5t5.5 45.5t1 58v512q0 53 -20.5 80t-82.5 53z" />
<glyph unicode="&#xee;" horiz-adv-x="540" d="M-45 1059l305 383l305 -383h-63l-242 182l-244 -182h-61zM59 864q62 -26 82.5 -53t20.5 -80v-512q0 -37 -1 -58t-5.5 -45.5t-13 -38.5t-24 -26.5t-38.5 -19.5v-31h383v31q-52 14 -68 55t-16 133v746l-320 -70v-31z" />
<glyph unicode="&#xef;" horiz-adv-x="540" d="M-25 1262q0 44 31.5 76t77.5 32q44 0 75 -32t31 -76q0 -45 -31 -77t-75 -32q-45 0 -77 32t-32 77zM59 864v31l320 70v-746q0 -92 16 -133t68 -55v-31h-383v31q23 7 38.5 19.5t24 26.5t13 38.5t5.5 45.5t1 58v512q0 53 -20.5 80t-82.5 53zM332 1262q0 44 31 76t75 32 q46 0 77.5 -32t31.5 -76q0 -45 -32 -77t-77 -32q-44 0 -75 32t-31 77z" />
<glyph unicode="&#xf0;" horiz-adv-x="1144" d="M78 442q2 89 25.5 168t70 144t125.5 103t182 38q41 0 81 -6.5t84 -22.5t82.5 -48t64.5 -77q-1 151 -30 282.5t-77 219.5l-336 -172l-26 27l346 178q-107 154 -310 154v30q243 0 422 -127l209 111l31 -27l-207 -108q111 -103 179.5 -270.5t68.5 -376.5 q0 -154 -31.5 -278.5t-94 -214.5t-161 -138.5t-225.5 -48.5q-96 0 -180.5 28t-151.5 82.5t-105 144.5t-36 205zM338 410q-2 -116 11.5 -195.5t42.5 -123t67 -61.5t92 -18q134 0 188 152.5t54 513.5v4q-46 81 -108.5 118.5t-121.5 37.5q-103 0 -163.5 -114.5t-61.5 -313.5z " />
<glyph unicode="&#xf1;" horiz-adv-x="1062" d="M20 864v31l320 70v-217q33 90 131 153.5t197 63.5q131 0 200.5 -72t69.5 -248v-426q0 -92 16 -133.5t68 -54.5v-31h-383v31q23 7 38.5 19t24 26.5t13 39t5.5 45.5t1 58v420q0 91 -50.5 146t-138.5 55q-67 0 -126.5 -55.5t-65.5 -116.5v-451q0 -91 16.5 -131.5t67.5 -54.5 v-31h-381v31q23 7 38.5 19t23.5 25.5t12 38.5t5 45t1 58v516q0 54 -20 79.5t-83 51.5zM57 1137q28 68 64 118.5t71.5 77t72.5 42.5t68 18.5t56 1.5t39 -5l14 -4l240 -90q27 -10 70 -10t89.5 9.5t87.5 36t60 65.5l25 -13q-28 -68 -64.5 -118.5t-72 -77t-72.5 -42.5t-68 -18.5 t-55.5 -1.5t-38.5 5l-14 4l-240 88q-28 10 -70.5 11.5t-88.5 -6t-87.5 -33.5t-60.5 -67z" />
<glyph unicode="&#xf2;" horiz-adv-x="1122" d="M84 473q0 -101 31.5 -190t90.5 -156t151 -106t206 -39q151 0 262 67.5t165 177.5t54 246q0 137 -54 247t-164.5 177.5t-262.5 67.5q-114 0 -205.5 -39t-151 -106t-91 -156t-31.5 -191zM291 1382l196 60l355 -334h-60zM340 473q0 183 25 284.5t71.5 139t126.5 37.5 q81 0 127.5 -37.5t71 -139t24.5 -284.5t-24.5 -284.5t-71 -139t-127.5 -37.5q-80 0 -126.5 37.5t-71.5 139t-25 284.5z" />
<glyph unicode="&#xf3;" horiz-adv-x="1122" d="M84 473q0 102 31.5 191t91 156t151 106t205.5 39q152 0 262.5 -67.5t164.5 -177.5t54 -247q0 -136 -54 -246t-165 -177.5t-262 -67.5q-114 0 -206 39t-151 106t-90.5 156t-31.5 190zM279 1108l354 334l196 -60l-491 -274h-59zM340 473q0 -183 25 -284.5t71.5 -139 t126.5 -37.5q81 0 127.5 37.5t71 139t24.5 284.5t-24.5 284.5t-71 139t-127.5 37.5q-80 0 -126.5 -37.5t-71.5 -139t-25 -284.5z" />
<glyph unicode="&#xf4;" horiz-adv-x="1122" d="M84 473q0 -101 31.5 -190t90.5 -156t151 -106t206 -39q151 0 262 67.5t165 177.5t54 246q0 137 -54 247t-164.5 177.5t-262.5 67.5q-114 0 -205.5 -39t-151 -106t-91 -156t-31.5 -191zM264 1059l305 383l305 -383h-63l-242 182l-243 -182h-62zM340 473q0 183 25 284.5 t71.5 139t126.5 37.5q81 0 127.5 -37.5t71 -139t24.5 -284.5t-24.5 -284.5t-71 -139t-127.5 -37.5q-80 0 -126.5 37.5t-71.5 139t-25 284.5z" />
<glyph unicode="&#xf5;" horiz-adv-x="1122" d="M84 473q0 -101 31.5 -190t90.5 -156t151 -106t206 -39q151 0 262 67.5t165 177.5t54 246q0 137 -54 247t-164.5 177.5t-262.5 67.5q-114 0 -205.5 -39t-151 -106t-91 -156t-31.5 -191zM88 1137q27 68 63 118.5t71.5 77t72 42.5t68 18.5t56 1.5t38.5 -5l14 -4l240 -90 q27 -10 70.5 -10t89.5 9.5t87.5 36t59.5 65.5l24 -13q-28 -68 -64 -118.5t-71.5 -77t-72.5 -42.5t-68 -18.5t-56 -1.5t-39 5l-14 4l-239 88q-27 10 -69.5 11.5t-88.5 -6t-87 -33.5t-60 -67zM340 473q0 183 25 284.5t71.5 139t126.5 37.5q81 0 127.5 -37.5t71 -139 t24.5 -284.5t-24.5 -284.5t-71 -139t-127.5 -37.5q-80 0 -126.5 37.5t-71.5 139t-25 284.5z" />
<glyph unicode="&#xf6;" horiz-adv-x="1122" d="M84 473q0 -101 31.5 -190t90.5 -156t151 -106t206 -39q151 0 262 67.5t165 177.5t54 246q0 137 -54 247t-164.5 177.5t-262.5 67.5q-114 0 -205.5 -39t-151 -106t-91 -156t-31.5 -191zM281 1262q0 44 31 76t75 32t76.5 -32t32.5 -76t-32.5 -76.5t-76.5 -32.5t-75 32 t-31 77zM340 473q0 183 25 284.5t71.5 139t126.5 37.5q81 0 127.5 -37.5t71 -139t24.5 -284.5t-24.5 -284.5t-71 -139t-127.5 -37.5q-80 0 -126.5 37.5t-71.5 139t-25 284.5zM635 1262q0 45 31.5 76.5t76.5 31.5q44 0 76.5 -32t32.5 -76t-32.5 -76.5t-76.5 -32.5 q-45 0 -76.5 32t-31.5 77z" />
<glyph unicode="&#xf7;" horiz-adv-x="1280" d="M92 485v162h1098v-162h-1098zM514 123q0 52 37 88.5t88 36.5q54 0 90.5 -36t36.5 -89t-36.5 -89t-90.5 -36q-51 0 -88 36.5t-37 88.5zM514 1010q0 52 37 89.5t88 37.5q54 0 90.5 -37t36.5 -90q0 -52 -37 -88.5t-90 -36.5q-51 0 -88 37t-37 88z" />
<glyph unicode="&#xf8;" horiz-adv-x="1122" d="M84 471q0 102 31.5 191t90.5 157t151 107t206 39q133 0 246 -58l100 168h33l-108 -182q102 -63 156 -174.5t54 -247.5t-54 -245.5t-164.5 -176.5t-262.5 -67q-137 0 -244 55l-104 -174h-35l115 190q-102 63 -156.5 173.5t-54.5 244.5zM340 471q0 -187 35 -287l364 613 q-24 76 -65 106.5t-111 30.5q-80 0 -126.5 -38t-71.5 -140t-25 -285zM387 147q24 -75 65.5 -105t110.5 -30q81 0 127.5 37t71 138t24.5 284q0 184 -36 287z" />
<glyph unicode="&#xf9;" horiz-adv-x="1112" d="M33 895q31 -3 48.5 -5.5t31.5 -10.5t20 -14t10 -25.5t4 -33.5v-50v-15v-448q0 -91 20.5 -153.5t60 -96t86 -47.5t108.5 -14q99 0 197.5 64t130.5 149v-177q0 -5 1.5 -11.5t14.5 -16.5t37 -6l268 47v28q-66 8 -85 28.5t-19 92.5v785l-314 -39v-31q38 -3 56.5 -8 t28.5 -23.5t11 -37.5t1 -68v-17v-489q-30 -64 -83.5 -105t-111.5 -41q-193 0 -193 193v666l-329 -39v-31zM291 1382l196 60l355 -334h-60z" />
<glyph unicode="&#xfa;" horiz-adv-x="1112" d="M33 895v31l329 39v-666q0 -193 193 -193q58 0 111.5 41t83.5 105v489q0 94 -7 114q-10 28 -56 36q-13 2 -34 4v31l314 39v-785q0 -72 19 -92.5t85 -28.5v-28l-268 -47q-24 -4 -37 4.5t-14 19.5l-2 10v177q-32 -85 -130.5 -149t-197.5 -64q-62 0 -108.5 14t-86 47.5 t-60 96t-20.5 153.5v448q0 92 -7 111q-11 27 -56 36q-18 4 -51 7zM305 1108l354 334l197 -60l-491 -274h-60z" />
<glyph unicode="&#xfb;" horiz-adv-x="1112" d="M33 895q31 -3 48.5 -5.5t31.5 -10.5t20 -14t10 -25.5t4 -33.5v-50v-15v-448q0 -91 20.5 -153.5t60 -96t86 -47.5t108.5 -14q99 0 197.5 64t130.5 149v-177q0 -5 1.5 -11.5t14.5 -16.5t37 -6l268 47v28q-66 8 -85 28.5t-19 92.5v785l-314 -39v-31q38 -3 56.5 -8 t28.5 -23.5t11 -37.5t1 -68v-17v-489q-30 -64 -83.5 -105t-111.5 -41q-193 0 -193 193v666l-329 -39v-31zM250 1059l305 383l305 -383h-63l-242 182l-244 -182h-61z" />
<glyph unicode="&#xfc;" horiz-adv-x="1112" d="M33 895v31l329 39v-666q0 -193 193 -193q58 0 111.5 41t83.5 105v489q0 94 -7 114q-10 28 -56 36q-13 2 -34 4v31l314 39v-785q0 -72 19 -92.5t85 -28.5v-28l-268 -47q-24 -4 -37 4.5t-14 19.5l-2 10v177q-32 -85 -130.5 -149t-197.5 -64q-62 0 -108.5 14t-86 47.5 t-60 96t-20.5 153.5v448q0 92 -7 111q-11 27 -56 36q-18 4 -51 7zM258 1262q0 44 32 76t77 32q44 0 76 -32t32 -76t-32 -76.5t-76 -32.5q-45 0 -77 32t-32 77zM614 1262q0 44 32 76t77 32q44 0 75 -32t31 -76q0 -45 -31 -77t-75 -32q-45 0 -77 32t-32 77z" />
<glyph unicode="&#xfd;" horiz-adv-x="1097" d="M18 915v31h455v-31q-34 0 -52.5 -14t-20 -33.5t1 -39.5t8.5 -34l6 -14l233 -504l123 324q3 7 7 18.5t13.5 44.5t14 63t2 66.5t-15.5 62.5t-44.5 43.5t-80.5 16.5v31h397v-31q-22 0 -37.5 -3t-43.5 -20.5t-53 -50t-59.5 -96t-70.5 -153.5l-316 -846q-50 -134 -139 -207 q-27 -21 -66.5 -26.5t-74.5 8.5q-47 22 -65.5 70.5t1.5 95.5q22 47 70.5 66t95.5 -3q45 -19 64 -74q4 -20 27 -6q31 21 55 82l86 234q-83 186 -178.5 395.5t-150.5 326.5l-54 117q-39 90 -138 90zM272 1108l355 334l196 -60l-491 -274h-60z" />
<glyph unicode="&#xfe;" horiz-adv-x="1185" d="M33 1397v30l319 70v-694q44 80 132.5 121t174.5 41q191 0 312 -137.5t121 -362.5q0 -119 -37 -212t-103.5 -151.5t-155.5 -89t-196 -30.5q-147 0 -248 69v-387q0 -90 15.5 -126.5t68.5 -49.5v-31h-383v31q54 16 68 52t14 124v1620q0 54 -19 75t-83 38zM352 287 q10 -139 79 -207t165 -68q244 0 244 428q0 240 -67 347.5t-200 107.5q-94 0 -153 -64t-68 -165v-379z" />
<glyph unicode="&#xff;" horiz-adv-x="1097" d="M18 915v31h455v-31q-34 0 -52.5 -14t-20 -33.5t1 -39.5t8.5 -34l6 -14l233 -504l123 324q3 7 7 18.5t13.5 44.5t14 63t2 66.5t-15.5 62.5t-44.5 43.5t-80.5 16.5v31h397v-31q-22 0 -37.5 -3t-43.5 -20.5t-53 -50t-59.5 -96t-70.5 -153.5l-316 -846q-50 -134 -139 -207 q-27 -21 -66.5 -26.5t-74.5 8.5q-47 22 -65.5 70.5t1.5 95.5q22 47 70.5 66t95.5 -3q45 -19 64 -74q4 -20 27 -6q31 21 55 82l86 234q-83 186 -178.5 395.5t-150.5 326.5l-54 117q-39 90 -138 90zM262 1262q0 44 31.5 76t75.5 32q45 0 76.5 -31.5t31.5 -76.5t-31.5 -77 t-76.5 -32q-44 0 -75.5 32.5t-31.5 76.5zM618 1262q0 44 31.5 76t75.5 32t76.5 -32t32.5 -76t-32.5 -76.5t-76.5 -32.5t-75.5 32.5t-31.5 76.5z" />
<glyph unicode="&#x152;" horiz-adv-x="1978" d="M86 711q0 156 38 289t114.5 237t202.5 163.5t290 59.5q65 0 141 -18h949v-379h-31q-54 348 -510 348h-82v-668h82h23t35.5 4t46.5 10.5t46.5 22t45.5 37t32 56.5t17 79h30v-450h-30q-3 44 -17.5 79.5t-32 57t-45 37.5t-47 22.5t-47 10.5t-35.5 4h-22h-82v-682h74 q487 0 545 405h30v-436h-968q-95 -18 -148 -18q-132 0 -240 37t-182.5 102t-125 157t-74 200.5t-23.5 232.5zM379 711q0 -169 13.5 -289t39.5 -200t70 -126t98.5 -65t130.5 -19q36 0 61 3t56.5 16t50 36t32 67.5t13.5 107.5v950q0 65 -13 111t-31.5 70t-50 37.5t-56.5 16.5 t-62 3q-95 0 -158.5 -33.5t-108.5 -115.5t-65 -221t-20 -349z" />
<glyph unicode="&#x153;" horiz-adv-x="1605" d="M82 469q0 104 25.5 192t76.5 157t137 108t199 39q208 0 324 -164q134 164 297 164q193 0 287 -118.5t94 -363.5h-576q4 -170 62 -255.5t174 -104.5q84 -13 164 31.5t114 107.5l33 -16q-78 -264 -348 -264q-172 0 -305 153q-61 -77 -135 -115t-185 -38q-113 0 -199 38 t-137 105.5t-76.5 154t-25.5 189.5zM338 469q0 -188 17 -285t54.5 -134.5t110.5 -37.5q72 0 110 37.5t55 134.5t17 285q0 186 -18 286.5t-56 139.5t-108 39q-72 0 -110 -39.5t-55 -138.5t-17 -287zM946 514h377q0 205 -50.5 312.5t-131.5 107.5q-91 0 -143 -119.5 t-52 -300.5z" />
<glyph unicode="&#x178;" horiz-adv-x="1499" d="M18 1413v29h590v-29q-17 0 -26.5 -0.5t-29 -4.5t-29 -12t-18 -25t-5.5 -41t17.5 -62.5t43.5 -87.5l293 -488l145 301q10 22 20.5 46.5t24.5 67.5t21 81t4.5 80.5t-18.5 72.5t-54.5 50t-97.5 20v31h571v-31q-31 0 -53.5 -3.5t-70 -27.5t-92 -68t-108 -135t-128.5 -219 l-146 -303v-415q0 -108 46.5 -158.5t117.5 -50.5v-31h-571v31q71 0 117.5 50.5t46.5 158.5v338q-134 236 -232 404.5t-129 218.5l-32 50q-26 45 -52.5 77t-45.5 48t-44 24.5t-38.5 10t-37.5 2.5zM465 1700q0 44 32 76t76 32t75.5 -32t31.5 -76t-31.5 -75.5t-75.5 -31.5 t-76 31.5t-32 75.5zM821 1700q0 44 32 76t75 32q46 0 78 -32t32 -76t-32 -75.5t-78 -31.5q-43 0 -75 31.5t-32 75.5z" />
<glyph unicode="&#x2c6;" horiz-adv-x="610" d="M0 1087l305 386l305 -386h-61l-244 185l-244 -185h-61z" />
<glyph unicode="&#x2dc;" horiz-adv-x="882" d="M-39 1143q28 68 64 118.5t71.5 77t72.5 42.5t68 18t56 1t39 -5l14 -4l240 -88q27 -11 70 -11.5t89.5 8.5t87.5 36t60 67l25 -14q-28 -68 -64.5 -118.5t-72 -77t-72.5 -42.5t-68.5 -18t-56 -1t-38.5 5l-14 4l-239 88q-28 10 -70.5 11.5t-88.5 -6.5t-87.5 -34t-60.5 -67z " />
<glyph unicode="&#x2000;" horiz-adv-x="1006" />
<glyph unicode="&#x2001;" horiz-adv-x="2013" />
<glyph unicode="&#x2002;" horiz-adv-x="1006" />
<glyph unicode="&#x2003;" horiz-adv-x="2013" />
<glyph unicode="&#x2004;" horiz-adv-x="671" />
<glyph unicode="&#x2005;" horiz-adv-x="503" />
<glyph unicode="&#x2006;" horiz-adv-x="335" />
<glyph unicode="&#x2007;" horiz-adv-x="335" />
<glyph unicode="&#x2008;" horiz-adv-x="251" />
<glyph unicode="&#x2009;" horiz-adv-x="402" />
<glyph unicode="&#x200a;" horiz-adv-x="111" />
<glyph unicode="&#x2010;" horiz-adv-x="909" d="M131 440v164h645v-164h-645z" />
<glyph unicode="&#x2011;" horiz-adv-x="909" d="M131 440v164h645v-164h-645z" />
<glyph unicode="&#x2012;" horiz-adv-x="909" d="M131 440v164h645v-164h-645z" />
<glyph unicode="&#x2013;" horiz-adv-x="1148" d="M0 455v123h1149v-123h-1149z" />
<glyph unicode="&#x2014;" horiz-adv-x="2160" d="M0 455v123h2161v-123h-2161z" />
<glyph unicode="&#x2018;" horiz-adv-x="518" d="M126 1105.5q-3 66.5 18 126t55 111.5q18 29 33 49t49 50t77 53l19 -22q-58 -43 -90.5 -100t-29 -88t16.5 -40q63 -7 99 -43q41 -41 42 -100.5t-40 -102.5q-43 -43 -103.5 -43t-101.5 43q-41 40 -44 106.5z" />
<glyph unicode="&#x2019;" horiz-adv-x="522" d="M120 1319q-1 59 40 102q43 43 103.5 43t101.5 -43q41 -40 44 -106.5t-18 -126t-55 -111.5q-62 -99 -160 -151l-18 22q58 43 90 100t28.5 88t-16.5 40q-62 7 -98 43q-41 41 -42 100z" />
<glyph unicode="&#x201a;" horiz-adv-x="524" d="M118 131q-1 59 40 102q43 43 103 43t101 -43q41 -40 44.5 -106.5t-17.5 -126t-55 -111.5q-62 -99 -160 -151l-18 22q58 43 90 100t28.5 88t-16.5 40q-62 7 -98 43q-41 41 -42 100z" />
<glyph unicode="&#x201c;" horiz-adv-x="993" d="M113 1081.5q-3 66.5 17.5 126t53.5 111.5q61 97 160 151l18 -22q-58 -43 -90 -99.5t-28.5 -87.5t16.5 -40q62 -7 98 -43q43 -41 44 -100.5t-42 -102.5q-41 -43 -102 -43t-102 43q-40 40 -43 106.5zM572 1081.5q-3 66.5 18 126t55 111.5q62 99 160 151l18 -22 q-58 -43 -90 -99.5t-28.5 -87.5t16.5 -40q62 -7 98 -43q41 -41 42 -100.5t-40 -102.5q-43 -43 -103.5 -43t-101.5 43q-41 40 -44 106.5z" />
<glyph unicode="&#x201d;" horiz-adv-x="980" d="M120 1327.5q-1 59.5 40 102.5q43 43 103.5 43t101.5 -43q41 -40 44 -106.5t-18 -126.5t-55 -112q-62 -99 -160 -151l-18 22q58 43 90 100t28.5 88t-16.5 40q-62 7 -98 43q-41 41 -42 100.5zM579 1327.5q-1 59.5 42 102.5q41 43 102 43t102 -43q40 -40 43 -106.5 t-17.5 -126.5t-53.5 -112q-61 -97 -160 -151l-19 22q58 43 90.5 100t29 88t-16.5 40q-62 7 -98 43q-43 41 -44 100.5z" />
<glyph unicode="&#x201e;" horiz-adv-x="972" d="M116 131q-1 59 40 102q43 43 103 43t101 -43q41 -40 44.5 -106.5t-17.5 -126t-55 -111.5q-62 -99 -160 -151l-18 22q58 43 90 100t28.5 88t-16.5 40q-62 7 -98 43q-41 41 -42 100zM574 131q-1 59 42 102q41 43 102.5 43t102.5 -43q40 -40 43 -106.5t-17.5 -126 t-53.5 -111.5q-61 -97 -160 -151l-19 22q58 43 90.5 100t29 88t-16.5 40q-63 7 -99 43q-43 41 -44 100z" />
<glyph unicode="&#x2022;" horiz-adv-x="968" d="M248 698q0 95 65.5 160.5t159.5 65.5t160.5 -65.5t66.5 -160.5q0 -92 -66.5 -157.5t-160.5 -65.5t-159.5 65.5t-65.5 157.5z" />
<glyph unicode="&#x2026;" horiz-adv-x="1622" d="M176 129q0 63 43 106.5t105 43.5t104.5 -43.5t42.5 -106.5q0 -60 -43 -102.5t-104 -42.5t-104.5 42.5t-43.5 102.5zM657 129q0 63 43 106.5t105 43.5t104.5 -43.5t42.5 -106.5q0 -60 -43 -102.5t-104 -42.5t-104.5 42.5t-43.5 102.5zM1141 129q0 63 42.5 106.5 t104.5 43.5t105 -43.5t43 -106.5q0 -60 -43.5 -102.5t-104.5 -42.5t-104 42.5t-43 102.5z" />
<glyph unicode="&#x202f;" horiz-adv-x="402" />
<glyph unicode="&#x2039;" horiz-adv-x="694" d="M102 545l473 489v-67l-278 -422l278 -412v-65z" />
<glyph unicode="&#x203a;" horiz-adv-x="694" d="M98 68v65l277 412l-277 422v67l473 -489z" />
<glyph unicode="&#x205f;" horiz-adv-x="503" />
<glyph unicode="&#x20ac;" horiz-adv-x="1247" d="M39 588l22 33h187q-2 33 -2 100q0 65 2 104h-209l22 33h191q14 136 51.5 243t102 189t164.5 126t231 44q124 0 190 -19t137 -73v-272h-30q0 163 -86.5 248.5t-210.5 85.5q-57 0 -99.5 -15t-79.5 -53.5t-61.5 -103t-41 -164t-21.5 -236.5h456l-22 -33h-436v-104v-100h424 l-21 -33h-401q5 -138 21.5 -239t41.5 -165.5t62 -103t79.5 -53.5t98.5 -15t107.5 20t94.5 59t69 105t26 150h30v-272q-76 -53 -144.5 -72.5t-184.5 -19.5q-130 0 -230 44.5t-164.5 127t-101.5 190.5t-51 244h-213z" />
<glyph unicode="&#x2122;" horiz-adv-x="1431" d="M27 1274v168h528v-168h-31q0 38 -16 66.5t-35 41.5t-45 20t-36.5 8t-18.5 1h-31v-448q0 -39 19 -58.5t47 -19.5v-31h-234v31q28 0 47 19.5t19 58.5v448h-33q-7 0 -15.5 -1t-28.5 -4t-36 -12t-33 -23t-27 -39.5t-10 -57.5h-30zM614 854v31q113 0 113 194v297 q-23 35 -86 35v31h188l203 -443l172 443h166v-31q-65 0 -65 -74v-366q0 -44 20 -65t51 -21v-31h-233v31q61 0 61 86v377l-198 -502h-29l-217 489v-256q0 -101 20 -143q24 -51 78 -51v-31h-244z" />
<glyph unicode="&#x25fc;" horiz-adv-x="942" d="M0 0v942h942v-942h-942z" />
<glyph unicode="&#xfb01;" horiz-adv-x="1142" d="M37 946h135v35q0 151 32 257t97.5 169t156 91t216.5 28q102 0 180 -43.5t100 -106.5q29 -92 -4 -145q-26 -46 -78 -58.5t-98 15.5q-45 28 -57.5 79t14.5 95q28 49 80 55q25 4 11 26q-21 31 -87 46q-29 6 -61 6q-21 0 -38.5 -1.5t-48.5 -11.5t-55.5 -27t-53 -52.5 t-47.5 -84t-31.5 -125t-12.5 -171.5v-76h275h319v-739q0 -93 16 -135.5t68 -55.5v-16h-383v16q28 8 45.5 23.5t25 43t9.5 53t2 71.5v557q0 63 -24 107t-78 44h-275v-712q0 -88 20 -131.5t72 -55.5v-16h-389v16q23 6 38.5 18t24 26t13 38.5t5.5 46t1 58.5v712h-131z" />
<glyph unicode="&#xfb02;" horiz-adv-x="1110" d="M16 946h136v123q0 225 97.5 341t254.5 116q120 0 217 -60l276 62v-1321q0 -90 15.5 -126.5t68.5 -49.5v-31h-381v31q54 16 67 51.5t13 124.5v1102q0 110 -106 137q-24 7 -45 10t-53.5 0.5t-59 -15.5t-55 -44.5t-48 -79.5t-32 -127t-12.5 -182v-62h219l-6 -31h-213v-712 q0 -87 19 -123.5t73 -48.5v-31h-391v31q29 7 45.5 19.5t24.5 36t10 47.5t2 69v712h-132z" />
</font>
</defs>
</svg>
