<?xml version="1.0" standalone="no"?>
<!DOCTYPE svg PUBLIC "-//W3C//DTD SVG 1.1//EN" "http://www.w3.org/Graphics/SVG/1.1/DTD/svg11.dtd" >
<svg xmlns="http://www.w3.org/2000/svg" xmlns:xlink="http://www.w3.org/1999/xlink" version="1.1">
<metadata></metadata>
<defs>
<font id="butlerlight" horiz-adv-x="954" >
<font-face units-per-em="2048" ascent="1505" descent="-543" />
<missing-glyph horiz-adv-x="495" />
<glyph horiz-adv-x="0" />
<glyph horiz-adv-x="682" />
<glyph unicode=" "  horiz-adv-x="495" />
<glyph unicode="&#x09;" horiz-adv-x="495" />
<glyph unicode="&#xa0;" horiz-adv-x="495" />
<glyph unicode="!" horiz-adv-x="583" d="M178 86q0 -43 31 -73.5t74 -30.5t73.5 30.5t30.5 73.5t-30.5 72.5t-73.5 29.5t-74 -30t-31 -72zM209 1526h151l-34 -1176h-82z" />
<glyph unicode="&#x22;" horiz-adv-x="909" d="M207 1442h158l-37 -672h-80zM567 1442h162l-41 -672h-78z" />
<glyph unicode="#" horiz-adv-x="1417" d="M70 508v92h301l88 395h-260v90h280l103 443h100l-102 -443h352l102 443h101l-103 -443h283v-90h-303l-90 -395h264v-92h-285l-115 -508h-100l115 508h-352l-115 -508h-101l115 508h-278zM471 600h350l90 395h-352z" />
<glyph unicode="$" horiz-adv-x="1048" d="M68 1103q-5 42 6.5 93.5t42.5 103.5q4 6 12.5 17t40.5 38t70 48t103 38.5t138 18.5v250h70v-250q103 -5 195.5 -28.5t133.5 -44.5l42 -21v-344h-19q-3 74 -12.5 129.5t-33 109t-61.5 88.5t-99.5 58.5t-145.5 28.5v-617l178 -117q99 -65 160 -142t78 -150t8.5 -139 t-41.5 -121l-13 -16q-13 -16 -24.5 -27t-34.5 -30t-51 -33t-65.5 -28.5t-87.5 -23t-107 -10.5v-250h-70v250q-73 4 -140.5 16.5t-111.5 28t-77.5 30.5t-48.5 25l-15 10v393h16q4 -118 22 -198.5t60 -143.5t114.5 -96.5t180.5 -42.5v670l-143 96q-38 27 -67 48.5t-67 56.5 t-63 67t-46.5 75.5t-26.5 85.5zM211.5 1157.5q4.5 -54.5 47 -114.5t120.5 -111l102 -68v574q-54 -1 -106 -24.5t-91 -61t-58 -89t-14.5 -106zM551 4q102 5 171.5 47.5t94.5 105t20.5 132.5t-44.5 137.5t-105 112.5l-137 90v-625z" />
<glyph unicode="%" horiz-adv-x="1964" d="M289 1014q0 54 6 102t24 100t46.5 89.5t77.5 61.5t114 24t114.5 -24t78 -61.5t47 -89.5t24.5 -100t6 -102q0 -53 -6 -100t-24.5 -96.5t-47 -84.5t-78 -57.5t-114.5 -22.5t-114 22.5t-77.5 57.5t-46.5 84.5t-24 96t-6 100.5zM393 1014q0 -84 9 -146t23 -98t36.5 -58 t44.5 -29t51 -7q31 0 54 7t45 28.5t36 58.5t22.5 98.5t8.5 145.5q0 105 -13 177.5t-37.5 109.5t-52 52t-63.5 15q-37 0 -64.5 -15t-51 -52t-36 -109.5t-12.5 -177.5zM471 0l934 1442h96l-934 -1442h-96zM1149 412q0 54 6 101.5t24 99.5t46.5 88.5t77.5 60.5t114 24 t114.5 -24t78.5 -60.5t47 -88t24.5 -100t6.5 -101.5t-6.5 -100t-24.5 -96.5t-47 -84.5t-78.5 -57.5t-114.5 -22.5t-114 22.5t-77.5 57.5t-46.5 84.5t-24 96t-6 100.5zM1253 412q0 -105 12.5 -175t37 -104t51 -46.5t63.5 -12.5q31 0 53.5 7t45 28.5t36.5 58t22.5 98 t8.5 146.5t-9 148.5t-24 101.5t-37 61.5t-45 32t-51 8.5q-37 0 -64 -14.5t-51 -51.5t-36.5 -109t-12.5 -177z" />
<glyph unicode="&#x26;" horiz-adv-x="1564" d="M146.5 267q-17.5 81 3 149.5t65 132.5t96.5 109t105 75l127 78l-97 139q-77 103 -104.5 202.5t-8.5 174t75.5 125.5t142.5 66q95 17 171 -6t122 -76q31 -35 52 -81.5t26 -108.5t-13 -124.5t-74.5 -131.5t-148.5 -128l293 -430q27 75 63 128.5t74 80t61.5 36.5t51.5 17 q74 14 117 -20q26 -21 31.5 -56t-21.5 -69q-25 -28 -61 -31t-66 21t-33 59q0 22 -30 19q-50 -4 -100 -65q-46 -55 -71 -140l162 -232q18 -27 41 -47t42.5 -29t36.5 -14.5t27 -6.5l9 -1q48 0 83 23.5t38 72.5h20q-3 -93 -59 -142.5t-123 -53.5q-2 2 -15.5 -0.5t-41 3 t-55.5 14t-59.5 31t-53.5 54.5l-125 186q-20 -68 -75.5 -130.5t-133.5 -101.5t-162.5 -53t-171.5 17.5t-152 108.5q-63 75 -80.5 156zM262.5 339.5q16.5 -86.5 83.5 -163.5q53 -62 132 -89t159 -15.5t154 69t114 152.5l-348 498l-125 -76q-50 -32 -92.5 -88.5t-68 -128.5 t-9 -158.5zM463.5 1242.5q15.5 -79.5 64.5 -152.5l144 -209q99 60 155.5 135t66.5 147t-8.5 138t-62.5 120q-45 48 -114 66t-136 -6q-70 -26 -97.5 -92.5t-12 -146z" />
<glyph unicode="'" horiz-adv-x="460" d="M154 1442h159l-39 -672h-77z" />
<glyph unicode="(" horiz-adv-x="643" d="M162 520q0 140 36 285t90 259t118.5 213t119.5 160.5t95 88.5l22 -21q-69 -82 -124.5 -177.5t-90 -178t-59 -175.5t-36 -157t-17.5 -136.5t-6.5 -100t-0.5 -59.5v-7v-6q0 -33 0.5 -61.5t6.5 -100.5t17 -135t35.5 -150.5t58 -162t88 -154.5t122.5 -141l-21 -25 q-39 22 -93.5 75.5t-118.5 144t-117.5 196.5t-89 246t-35.5 280z" />
<glyph unicode=")" horiz-adv-x="643" d="M-4 1505l22 21q40 -27 95 -88.5t119.5 -160.5t118.5 -213t90 -259t36 -285t-35.5 -280t-89 -246t-117.5 -196.5t-118.5 -144t-93.5 -75.5l-21 25q68 61 122.5 141t88 154t58 162t35.5 151t17 135.5t6.5 100.5t0.5 61v6q0 465 -212 820q-55 91 -122 171z" />
<glyph unicode="*" horiz-adv-x="1116" d="M131 1087l43 130l352 -162l-43 387h135l-43 -387l355 162l41 -130l-379 -79l260 -285l-109 -82l-192 338l-193 -338l-108 82l260 285z" />
<glyph unicode="+" horiz-adv-x="1464" d="M115 580v112h559v576h112v-576h560v-112h-560v-580h-112v580h-559z" />
<glyph unicode="," horiz-adv-x="425" d="M123 78.5q-1 38.5 27 66.5q29 29 68 29t67 -29q41 -46 36 -123t-45 -145q-17 -28 -27 -43t-39 -41t-69 -47l-10 12q42 28 68.5 61t35 60.5t8.5 51t-8 37.5t-18 16q-42 7 -65 28q-28 28 -29 66.5z" />
<glyph unicode="-" horiz-adv-x="909" d="M131 465v113h645v-113h-645z" />
<glyph unicode="." horiz-adv-x="413" d="M113 84q0 41 27 68.5t67 27.5q39 0 66.5 -27.5t27.5 -68.5q0 -38 -28 -66t-66 -28q-39 0 -66.5 27.5t-27.5 66.5z" />
<glyph unicode="/" horiz-adv-x="835" d="M29 -43l630 1528h125l-630 -1528h-125z" />
<glyph unicode="0" horiz-adv-x="1232" d="M70 709q0 75 6 144.5t22.5 146.5t42 142t68 125t97.5 101.5t133.5 66.5t172.5 25q109 0 196.5 -32.5t145 -90.5t98 -129.5t62 -159.5t30.5 -169.5t9 -169.5q0 -74 -6 -142.5t-22.5 -143t-42.5 -137t-68 -120t-97 -97.5t-133 -63.5t-172 -23.5t-172.5 23.5t-133.5 63.5 t-97.5 97.5t-68 120t-42 137t-22.5 143t-6 142.5zM240 709q0 -705 372 -705q60 0 110.5 17t100 64t84 123.5t55.5 204t21 296.5t-22 299.5t-57.5 210t-85.5 130.5t-99.5 70t-106.5 19q-59 0 -109.5 -19t-100.5 -70t-84.5 -130.5t-56 -210t-21.5 -299.5z" />
<glyph unicode="1" horiz-adv-x="747" d="M106 1223l275 237h65v-1280q0 -45 10 -77t23 -48t36.5 -24t40 -9.5t44.5 -1.5v-20h-448v20q30 0 49 2t42 10.5t35.5 25t21.5 47.5t9 75v1020q0 33 -6 53t-18 27t-27.5 6t-38.5 -13.5t-46 -28.5t-54 -40z" />
<glyph unicode="2" d="M80 0l444 680q181 262 134 450q-29 118 -138 171q-103 50 -213 17q-116 -35 -166 -143q-22 -48 -28 -106l-29 6q1 64 14.5 118.5t35.5 92t50 67.5t59 47.5t61.5 30.5t58 18.5t48.5 8t33 2.5h13q151 0 251.5 -100t100.5 -242q0 -60 -30.5 -130.5t-61.5 -117.5t-124 -174 q-7 -10 -10.5 -15.5t-10 -14t-11.5 -15.5q-43 -59 -129 -187.5t-150 -227.5l-65 -99h451q56 0 108 29.5t84 87.5h21l-70 -254h-731z" />
<glyph unicode="3" horiz-adv-x="1013" d="M88 1128q2 68 23 122.5t49 88.5t68.5 59t73.5 36.5t73.5 18t58 7t37.5 0.5q85 0 155.5 -39.5t113.5 -101t57.5 -139.5t-3.5 -153t-79.5 -142.5t-159.5 -106.5q162 -31 255 -136.5t95 -231.5q2 -101 -29 -179.5t-79.5 -124.5t-114 -75t-125 -39t-121.5 -10q-120 0 -207 37 t-125 85q-14 19 -15 47.5t11 51.5q17 34 55 45t70 -8q34 -19 45 -55t-8 -70q-15 -35 -51 -41q-9 -1 13.5 -18.5t80.5 -34.5t131 -17q342 0 314 375q-3 47 -16 91t-43 89.5t-73 80t-111 57.5t-153 26v27q72 7 132.5 37.5t99.5 76t59 102.5t18 114.5t-29 114.5t-77 101 q-55 47 -130.5 56t-141.5 -15t-115 -80.5t-53 -130.5z" />
<glyph unicode="4" horiz-adv-x="1067" d="M61 426v27l670 995l68 -6v-928h190v-88h-190v-203q0 -58 7.5 -96.5t17.5 -59t31.5 -30.5t38 -12t48.5 -2v-23h-442v23q31 0 48.5 2t38.5 12.5t31.5 30t17.5 56t7 89.5v213h-582zM154 536q-3 -15 8.5 -18.5t46.5 -3.5h434v754l-461 -682q-25 -35 -28 -50z" />
<glyph unicode="5" horiz-adv-x="1095" d="M102.5 160q-4.5 27 6.5 55q15 36 52.5 50t74.5 -3q35 -15 48.5 -53.5t-1.5 -73.5q-15 -34 -58 -45q-13 -3 10 -23q53 -45 161 -59q32 -4 67 -4q92 0 176 35t142 98t80 151.5t-11 196.5q-33 106 -125.5 174.5t-247 88t-364.5 -36.5l108 731h709l-37 -150h-664l-63 -432 q235 63 412 30.5t284 -131.5t125 -237q15 -114 -10 -207.5t-78 -154t-127 -102t-151.5 -59t-157.5 -17.5q-73 0 -137.5 15.5t-105.5 39.5t-64 42t-33 32q-16 22 -20.5 49z" />
<glyph unicode="6" horiz-adv-x="1079" d="M86 651q0 159 35.5 304.5t100 258t163.5 179.5t217 67q64 0 114 -12t76 -25.5t46 -36.5t24 -32.5t10 -24.5q10 -21 5 -50.5t-23 -49.5q-28 -28 -67.5 -29t-67.5 27q-28 26 -29 65.5t27 67.5q32 32 63 29q5 -1 4 3q-2 12 -40 26q-40 14 -97 18q-185 12 -291.5 -191.5 t-107.5 -626.5q83 263 354 263q84 0 151 -26t109.5 -68.5t71 -100t40 -117t11.5 -123.5q0 -464 -438 -464q-102 0 -180.5 31t-131.5 87t-86.5 140t-48 184.5t-14.5 226.5zM248 535q0 -279 74 -405t225 -126q284 0 284 410q0 94 -15.5 167t-40.5 117t-60.5 72t-70 38.5 t-73.5 10.5q-148 0 -235.5 -88t-87.5 -196z" />
<glyph unicode="7" horiz-adv-x="1124" d="M94 1188l35 254h924l-82 -135q-200 -357 -289.5 -689.5t-89.5 -617.5h-174q29 329 145 628t381 679h-655q-54 0 -86.5 -13.5t-49.5 -36t-36 -69.5h-23z" />
<glyph unicode="8" horiz-adv-x="1089" d="M76 334q0 127 102.5 236.5t255.5 162.5q-159 92 -217.5 173.5t-58.5 209.5q0 108 53.5 188t138 118t187.5 38q180 0 277 -90t97 -240q0 -91 -86 -191.5t-194 -129.5q86 -43 148 -82.5t119 -92.5t86.5 -118t29.5 -141q0 -101 -34.5 -177.5t-97 -123t-144 -69.5t-181.5 -23 q-481 0 -481 352zM201 338q0 -74 20.5 -132t54 -95.5t80.5 -62t96.5 -34.5t104.5 -10q37 0 76.5 7.5t85.5 29t80.5 54.5t57 89.5t20.5 128.5q-1 109 -76 187t-273 182q-46 24 -69 37q-31 -13 -59 -29t-66.5 -49t-66 -72t-47 -99.5t-19.5 -131.5zM274 1200q0 -145 77.5 -225 t250.5 -150q27 6 61.5 30.5t68.5 62t56 93.5t21 115q-2 90 -26 154t-64.5 97t-84.5 47t-97 14q-103 0 -183 -65.5t-80 -172.5z" />
<glyph unicode="9" horiz-adv-x="1052" d="M76 1004q0 224 112 340t326 116q128 0 216.5 -41.5t140 -126t74 -198.5t22.5 -273q0 -839 -492 -839q-226 0 -289 140q-1 4 -2 5q-9 23 -3 52.5t24 47.5q27 29 66.5 30t68.5 -26q28 -28 28 -67.5t-26 -65.5q-31 -31 -66 -28q-3 0 -2 -2q1 -11 30 -29q49 -29 124 -33 q137 -9 217 62t119.5 253t40.5 504q-43 -129 -124.5 -193.5t-221.5 -64.5q-104 0 -181.5 39t-120 104.5t-62 139t-19.5 154.5zM231 1036q0 -117 23 -200.5t63 -126.5t82.5 -61.5t92.5 -18.5q76 0 137.5 25t98.5 66t57 90.5t20 100.5q0 279 -70.5 403t-220.5 124 q-125 0 -204 -98t-79 -304z" />
<glyph unicode=":" horiz-adv-x="403" d="M111 207q0 41 27.5 69.5t68.5 28.5q39 0 67.5 -28.5t28.5 -69.5q0 -38 -29 -66t-67 -28q-41 0 -68.5 27.5t-27.5 66.5zM111 737q0 42 27.5 70.5t68.5 28.5q39 0 67.5 -29t28.5 -70q0 -38 -29 -66t-67 -28q-41 0 -68.5 27.5t-27.5 66.5z" />
<glyph unicode=";" horiz-adv-x="411" d="M111 735q0 42 27.5 70.5t68.5 28.5q39 0 67.5 -29t28.5 -70q0 -38 -29 -66t-67 -28q-41 0 -68.5 27.5t-27.5 66.5zM112 207.5q1 -38.5 29 -66.5q23 -20 66 -28q10 -2 18 -16t8 -37.5t-8.5 -51t-35 -60.5t-68.5 -61l10 -12q40 21 69 47t39 41t27 43q40 68 44.5 145 t-36.5 123q-28 29 -67 29t-68 -29q-28 -28 -27 -66.5z" />
<glyph unicode="&#x3c;" horiz-adv-x="1228" d="M94 500v88l1039 532v-119l-889 -456l889 -463v-115z" />
<glyph unicode="=" horiz-adv-x="1255" d="M115 262v109h1046v-109h-1046zM115 723v108h1046v-108h-1046z" />
<glyph unicode="&#x3e;" horiz-adv-x="1228" d="M96 -33v115l889 463l-889 456v119l1039 -532v-88z" />
<glyph unicode="?" horiz-adv-x="1159" d="M166 1286q11 37 50.5 86t102.5 76q121 53 240.5 56t211 -38.5t151 -128t65.5 -202.5q4 -85 -18.5 -158.5t-54.5 -121t-82.5 -90.5t-85 -63.5t-78.5 -42.5q-74 -34 -105.5 -106t-23.5 -168l-35 -6q-6 40 -6.5 70.5t6 76t33.5 90t73 82.5l21 18q35 29 54.5 47t49.5 57.5 t45 77.5t24 98t3 130q-9 101 -44.5 173t-84.5 107.5t-110.5 49t-119.5 6t-114 -29.5q-72 -27 -81 -69q-5 -25 14 -31q1 -1 3 -1q35 0 58 -37q22 -31 15 -69t-38 -60q-31 -21 -68 -13.5t-61 38.5q-25 38 -10 96zM428 98q0 44 32.5 75.5t76.5 31.5t76 -31.5t32 -75.5 q0 -45 -31.5 -76.5t-76.5 -31.5t-77 31.5t-32 76.5z" />
<glyph unicode="@" horiz-adv-x="1755" d="M80 360q11 169 70.5 312.5t154 245.5t217.5 172.5t262 102t285 26.5q133 -5 248 -57.5t197.5 -143t120 -228.5t14.5 -303q-17 -121 -59.5 -214.5t-93 -147t-112 -87.5t-110.5 -45t-94 -11q-68 0 -99 29t-24 87q-20 -37 -82 -76.5t-152 -39.5q-117 0 -185 92.5t-60 230.5 q5 87 37 170t84.5 151t132.5 109.5t172 40.5q42 -1 77 -9t54.5 -19t33 -22t18.5 -18l5 -8l16 54h113q-119 -539 -135 -613q-21 -108 63 -108q30 0 65.5 10.5t81.5 42.5t85.5 80.5t73.5 133t49 192.5q7 48 7 97.5t-6.5 103.5t-24.5 105t-44.5 100t-68.5 90.5t-95 75t-126 55 t-159 28.5q-175 14 -325 -38t-256.5 -155t-174.5 -247.5t-89 -315.5q-1 -9 -3 -25t-3.5 -65.5t2.5 -98t19.5 -115.5t41.5 -125.5t74 -120t111.5 -107t160.5 -79.5t215 -44q81 -7 161 4.5t139 34.5t96.5 42.5t58.5 35.5l12 -17q-6 -6 -17.5 -15.5t-55 -33.5t-94.5 -43 t-136 -34t-180 -15q-67 0 -138.5 11.5t-150 39t-149.5 68.5t-134.5 105t-108.5 143t-68 188t-15 235zM726.5 267.5q5.5 -56.5 20 -95t41 -63.5t54.5 -37.5t61 -16.5q49 -4 89.5 17.5t56.5 45.5l16 23q81 346 90 396q3 12 3.5 35t-4.5 54.5t-17.5 58.5t-40.5 46t-68 19 q-102 0 -184 -94t-109 -257q-14 -75 -8.5 -131.5z" />
<glyph unicode="A" horiz-adv-x="1380" d="M29 0v23q32 0 51.5 6t47 31.5t55 77.5t66 143t87.5 229l338 932h14q56 -134 180.5 -444.5t221.5 -554.5l96 -244q24 -60 44.5 -96t42 -52.5t37 -21t42.5 -6.5v-23h-408v23q79 0 79 78q0 58 -44 159l-74 195h-553q-64 -184 -74 -252q-3 -21 -3 -39q0 -93 72 -124 q42 -17 108 -17h8v-23h-434zM358 477h539l-279 719z" />
<glyph unicode="B" horiz-adv-x="1146" d="M76 0v18q64 0 91.5 51t27.5 158v994q0 100 -27 151t-92 51v19h364q69 0 119 -2.5t107 -11t96.5 -23.5t78 -41.5t62 -63t37.5 -89.5t14 -121q0 -66 -16.5 -121t-41.5 -90.5t-59 -62.5t-65 -41t-64 -23t-51.5 -11t-31.5 -2q34 0 66 -2.5t76.5 -11.5t81.5 -24t76 -43.5 t65.5 -66.5t43.5 -95.5t17 -128.5q0 -52 -7 -96t-23 -78t-34.5 -61t-49 -47t-58.5 -34.5t-71.5 -23.5t-79 -14.5t-89.5 -8t-95.5 -3.5t-103.5 -1h-364zM360 23h97q148 0 209 15q127 32 168 159q24 72 24 178q0 55 -7 100.5t-18.5 78.5t-30.5 59.5t-37.5 43.5t-46 29 t-49.5 18.5t-54.5 10t-54 4t-54.5 0.5h-146v-696zM360 741h146q45 0 78.5 6t70 27.5t59 58.5t37.5 102.5t15 156.5q0 86 -19.5 148.5t-48.5 96t-73 53t-81.5 24.5t-86.5 5h-97v-678z" />
<glyph unicode="C" horiz-adv-x="1351" d="M82 721q0 179 52 320.5t147 232.5t224.5 138.5t287.5 47.5q170 0 275.5 -25.5t197.5 -99.5l-21 -313h-22q-8 105 -44 184.5t-81.5 122t-105.5 68.5t-106 33.5t-93 7.5q-50 0 -93.5 -5.5t-96.5 -24t-95 -49t-84 -85t-70 -128t-45.5 -182.5t-17.5 -243q0 -137 18 -247.5 t46 -184.5t71 -128t84.5 -83.5t95.5 -47t95.5 -22t91.5 -4.5q44 0 92 8.5t109 36.5t109 71.5t82.5 122t37.5 179.5h22l21 -313q-114 -75 -211 -101t-262 -26q-157 0 -287.5 48.5t-225 140.5t-146.5 233t-52 317z" />
<glyph unicode="D" horiz-adv-x="1372" d="M88 0v23q66 0 98.5 49t32.5 153v996q0 198 -131 198v23h391q93 0 173 -8.5t162 -30t148 -56.5t125 -91.5t98 -130.5t62 -177t23 -229q0 -132 -23 -238.5t-62 -180.5t-98.5 -129t-124 -87t-149 -51.5t-161.5 -26t-173 -6.5h-391zM389 23h90q160 0 243 21q228 58 308 312 q47 147 47 363q0 140 -21.5 251t-54.5 183t-85.5 124t-100 79t-114.5 42t-112.5 18t-109.5 3h-90v-1396z" />
<glyph unicode="E" horiz-adv-x="1183" d="M63 0v23q62 0 83.5 43.5t21.5 152.5v1036q0 98 -19.5 131t-85.5 33v23h941v-359h-23q-2 69 -19.5 123t-41.5 89t-68 59.5t-79.5 37t-97 19t-100.5 7.5t-108 1h-131v-680h164q24 0 40.5 0.5t45.5 4.5t49.5 11.5t45 22.5t40 36t27 54t12.5 74h22v-430h-22q-1 49 -15 85.5 t-38.5 58t-48.5 35t-58 18.5t-53 6.5t-47 1.5h-164v-694h104h28q66 0 99.5 0.5t92.5 5t91 15t77.5 28t71 47t52 69.5t39.5 98t17 130h22v-416h-967z" />
<glyph unicode="F" horiz-adv-x="1038" d="M61 0v23q62 0 83.5 43.5t21.5 152.5v1036q0 98 -19.5 131t-85.5 33v23h945v-359h-23q-3 70 -22 124.5t-42.5 89.5t-68 59.5t-78.5 36.5t-96 18t-97 7t-104 1h-12h-129v-680h162q25 0 40.5 0.5t45.5 4.5t50 11t45.5 22t41.5 36t27.5 54t13.5 75h22v-430h-22 q-2 42 -13.5 75.5t-27.5 55t-41.5 36.5t-45.5 22t-50 11t-45.5 4.5t-40.5 0.5h-162v-486q0 -68 9 -110.5t29.5 -63.5t44 -27.5t62.5 -6.5v-23h-418z" />
<glyph unicode="G" horiz-adv-x="1429" d="M78 721q0 124 25.5 233.5t78.5 202.5t129.5 160.5t184 105t237.5 37.5q190 0 302.5 -28t211.5 -93l-18 -321h-33q-4 103 -31 179t-68 121.5t-101.5 73t-122 37t-140.5 9.5q-74 0 -136.5 -20t-121.5 -71t-100 -130t-65.5 -205.5t-24.5 -290.5q0 -137 17 -248t48.5 -188.5 t72.5 -133t92.5 -87t104.5 -46t113 -14.5q185 0 278 52t93 167q0 65 -0.5 107t-4.5 80.5t-7 59t-14 38.5t-19 25t-29 12t-37 5.5t-49 0.5v22h434v-22q-64 0 -84 -16q-34 -26 -42 -139q-7 -85 -7 -328q-223 -86 -512 -86q-130 0 -237.5 37.5t-184 105t-129.5 160.5 t-78.5 202.5t-25.5 233.5z" />
<glyph unicode="H" horiz-adv-x="1216" d="M45 0v23q22 6 36 10t27 13.5t19.5 14.5t12.5 23t8 29t4 42.5t2 53v70.5v884q0 152 -18.5 198.5t-90.5 59.5v21h332v-21q-31 -10 -43.5 -28.5t-17.5 -67.5t-5 -162v-454h596v454q0 116 -4.5 163t-16 66t-42.5 29v21h327v-21q-32 -6 -48.5 -13.5t-29.5 -21t-17.5 -44.5 t-6.5 -69t-2 -110v-884v-9q0 -51 0.5 -73.5t3.5 -55t9 -46t17.5 -30.5t29.5 -26t44 -16v-23h-327v23q28 10 41 35t17.5 72.5t4.5 148.5v397h-596v-397q0 -118 5.5 -166t17 -63.5t43.5 -26.5v-23h-332z" />
<glyph unicode="I" horiz-adv-x="598" d="M100 0v23q68 0 98.5 40.5t30.5 141.5v1065q0 91 -29 121t-100 30v21h422v-21q-70 0 -98.5 -30t-28.5 -121v-1065q0 -101 30 -141.5t97 -40.5v-23h-422z" />
<glyph unicode="J" horiz-adv-x="745" d="M0 -322q57 21 104 50t93.5 80.5t78 120.5t51 172.5t19.5 232.5v649q0 301 -20 369.5t-125 68.5v21h465v-21q-72 0 -114 -46.5t-42 -141.5v-860q0 -229 -57.5 -380t-166.5 -230.5t-280 -104.5z" />
<glyph unicode="K" horiz-adv-x="1390" d="M82 0v23q67 0 95 37.5t28 138.5v1071q0 92 -27 121.5t-96 29.5v21h440v-21q-34 0 -51 -1t-40.5 -9t-34.5 -23t-19 -44.5t-8 -73.5v-1071q0 -100 31 -138t100 -38v-23h-418zM475 698l246 299q150 174 192 253q29 54 29 91q0 62 -83 76q-26 4 -58 4v21h508v-21 q-63 0 -112.5 -19.5t-128.5 -88t-183 -191.5t-273 -340l488 -655q81 -104 260 -104v-23h-168q-56 0 -94.5 4.5t-79 25t-65 38.5t-69 71.5t-75 95t-96.5 136.5q-52 75 -111.5 156.5t-93.5 126.5z" />
<glyph unicode="L" horiz-adv-x="1212" d="M82 1421v21h405v-21q-70 0 -100.5 -38t-30.5 -144v-1216h74q24 0 48 -0.5t48 0.5q47 1 91 2.5t84.5 8t76.5 15.5t68 25.5t59 38.5t48.5 53.5t37 71.5t25 92t12.5 114h21v-444h-951v23q26 0 44 9t28.5 24t16 43.5t7 57.5t1.5 76v1018q0 95 -24 132.5t-89 37.5z" />
<glyph unicode="M" horiz-adv-x="1773" d="M29 0v23q85 0 139 26t85.5 87t43.5 147.5t12 222.5v780q-27 46 -58.5 75t-67.5 40.5t-53 14t-48 3.5v23h354l549 -1221l408 1221h319v-23q-74 0 -116 -39.5t-42 -140.5v-1003q0 -123 45 -168t123 -45v-23h-477v23q35 0 60 8.5t46 30.5t31.5 65.5t10.5 108.5v1136 l-469 -1390h-23l-569 1265v-741q0 -272 53.5 -377.5t202.5 -105.5v-23h-559z" />
<glyph unicode="N" horiz-adv-x="1579" d="M8 1421v21h318l915 -1204v700q0 80 -0.5 118t-5.5 100.5t-14.5 92.5t-28.5 70t-46.5 57.5t-69.5 31t-97 13.5v21h567v-21q-59 0 -104 -13t-75 -29.5t-50.5 -55t-30.5 -67t-15.5 -88.5t-6 -96.5t-0.5 -113.5v-7v-6v-7v-938h-43l-861 1122v-614q0 -88 1.5 -132.5 t8.5 -112.5t23.5 -101.5t45 -71t75.5 -52.5t111 -15v-23h-578v23q53 0 95.5 8.5t72 29.5t51.5 41.5t35 60.5t21 69.5t11.5 84.5t4 90t0.5 101v641l-86 113q-19 24 -37.5 44t-33 35t-30.5 27l-26 19.5t-24.5 14t-21 9.5t-20.5 5t-18 2.5t-17.5 1.5t-15.5 1z" />
<glyph unicode="O" horiz-adv-x="1486" d="M84 711q0 156 38 289t114.5 237t202.5 163.5t290 59.5t290 -59.5t202.5 -163.5t114.5 -237t38 -289q0 -124 -23.5 -232.5t-74 -200.5t-125 -157t-182.5 -102t-240 -37t-240 37t-182.5 102t-125 157t-74 200.5t-23.5 232.5zM260 711q0 -707 469 -707q465 0 465 707 q0 163 -25.5 290.5t-68 208.5t-103.5 133.5t-126.5 73.5t-141.5 21q-77 0 -143 -21t-127 -73.5t-104.5 -133.5t-69 -208.5t-25.5 -290.5z" />
<glyph unicode="P" horiz-adv-x="1126" d="M66 0v23q57 0 83.5 16.5t39 69t12.5 163.5v977q0 113 -21 142.5t-104 29.5v21h297q74 0 130.5 -2t118 -7t107 -14.5t92 -25.5t78.5 -38t61 -53t46.5 -70.5t27.5 -90.5t10 -113q0 -69 -11.5 -124.5t-36.5 -97t-56 -72t-79 -51t-96 -34t-115.5 -20t-130 -9t-146.5 -2.5h-19 v-337q0 -49 1.5 -84t7 -63t10 -46t18 -31t23.5 -19.5t33 -10t40.5 -3.5t51.5 -1v-23h-473zM354 641h19q55 0 82 0.5t75.5 2.5t73.5 7.5t64.5 14.5t60.5 23.5t49.5 35t43 49.5t29 65.5t20.5 84t6 104.5q0 82 -15 145.5t-36 104.5t-63 69.5t-74 43t-94 21.5t-98.5 8t-108.5 1 h-15h-19v-780z" />
<glyph unicode="Q" horiz-adv-x="1488" d="M84 711q0 156 38 289t114.5 237t202.5 163.5t290 59.5t290 -59.5t202.5 -163.5t114.5 -237t38 -289q0 -124 -23.5 -232.5t-74 -200.5t-125 -157t-182.5 -102t-240 -37t-240 37t-182.5 102t-125 157t-74 200.5t-23.5 232.5zM197 -248q54 44 116 72.5t118.5 38t112.5 10.5 h12q48 0 88 -7q45 -7 80 -15t54 -15l19 -8l288 -104q54 -17 101 -19h12q39 0 72 11q37 12 59 24.5t49 32.5l17 -17l-123 -96q-40 -30 -74 -47t-76 -21q-21 -3 -42 -3q-19 0 -36 2q-38 4 -97 23t-114.5 42t-146.5 63l-149 66q-42 17 -92.5 17t-94.5 -12.5t-78 -27t-55 -28.5z M260 711q0 -707 469 -707q465 0 465 707q0 163 -25.5 290.5t-68 208.5t-103.5 133.5t-126.5 73.5t-141.5 21q-77 0 -143 -21t-127 -73.5t-104.5 -133.5t-69 -208.5t-25.5 -290.5z" />
<glyph unicode="R" horiz-adv-x="1198" d="M47 0v23q48 0 70.5 14t34.5 60t12 141v1038q0 92 -23 117.5t-94 25.5v23h332q110 0 187 -5.5t150 -20t119 -41.5t81.5 -70.5t51 -106t15.5 -147.5q0 -106 -28 -180.5t-81 -115.5t-116.5 -60t-147.5 -21q88 -9 106 -13q90 -23 150 -124q66 -111 119 -342q8 -38 23.5 -67 t36 -47t39 -29.5t43 -17.5t37.5 -8t32 -3v-23h-139q-146 0 -180 42.5t-92 296.5q-5 22 -8 34.5t-8 33.5t-9 39q-14 62 -49 106t-71 65t-87 32.5t-77.5 13t-63.5 1.5h-97v-467q0 -103 27.5 -138.5t95.5 -35.5v-23h-391zM315 686h64h4q69 0 103 1t88.5 7.5t81.5 20t62 39.5 t51 65t28 97t12 135t-12.5 136.5t-28.5 98t-51 65t-60.5 40t-78 20t-82 7.5t-92.5 1h-25h-64v-733z" />
<glyph unicode="S" horiz-adv-x="1114" d="M74 1102q-2 13 -2 26q0 32 8 68q12 52 43 104q4 7 12.5 17.5t40 38t69.5 48.5t104 38.5t140 17.5q76 0 149 -10t123 -24t89.5 -28t58.5 -24l19 -10v-344h-25q-3 82 -13 140.5t-36.5 114t-71 89t-118 54t-175.5 20.5q-54 0 -106.5 -23t-92 -60.5t-59.5 -89.5 q-16 -42 -17 -87q0 -10 2 -20q4 -55 47 -115t122 -111l350 -230q99 -65 160 -142t78 -150q11 -49 12 -94q1 -23 -3 -45q-8 -66 -42 -121q-3 -7 -10.5 -18t-39 -40t-72 -51.5t-113.5 -40.5t-160 -18q-84 0 -161.5 11.5t-128 27.5t-88.5 32t-55 27l-18 12v393h21 q4 -125 24 -208.5t67 -148t130 -94.5t209 -30q86 0 150.5 28.5t99 74t46.5 103.5q6 28 6 57q0 31 -7 61q-13 58 -50.5 114.5t-95.5 96.5l-350 231q-39 27 -67.5 48.5t-67 56.5t-63 66.5t-46 75t-26.5 85.5z" />
<glyph unicode="T" horiz-adv-x="1284" d="M39 1106v336h1206v-336h-22q-1 64 -18.5 115.5t-43 84t-62 56t-66.5 34.5t-66.5 17t-52.5 7t-33 1h-162v-1247q0 -93 31.5 -122t103.5 -29v-23h-426v23q72 0 103.5 29t31.5 122v1247h-162q-29 0 -49 -1t-58.5 -7t-66 -17t-61 -34.5t-55 -56t-36.5 -84t-16 -115.5h-20z " />
<glyph unicode="U" horiz-adv-x="1400" d="M37 1419v23h440v-23q-31 0 -50 -2.5t-40 -12.5t-32.5 -29t-19 -53t-7.5 -83v-772q0 -194 104.5 -302t284.5 -108q178 0 281.5 112t103.5 310v531q0 64 -1 102t-4 84t-9 72t-17 55t-27.5 44t-40 28.5t-54.5 18.5t-72 5v23h487v-23q-52 0 -89 -8.5t-63.5 -18.5t-43 -39.5 t-26 -50t-13.5 -72.5t-4.5 -85.5t-0.5 -108.5v-26v-531q1 -242 -133.5 -369.5t-359.5 -127.5q-98 0 -181 32t-145 93.5t-97.5 158.5t-35.5 219v758q0 104 -31.5 140t-103.5 36z" />
<glyph unicode="V" horiz-adv-x="1474" d="M25 1419v23h497v-23q-47 0 -79 -14t-44.5 -33t-16.5 -42t-2 -38.5t5 -23.5l389 -1075l273 741q69 201 82 257q11 49 11 87q0 70 -38 103q-45 38 -146 38v23h474v-23q-83 0 -114 -13q-53 -22 -101 -114q-50 -95 -146 -362l-346 -930h-25q-56 135 -176 454.5t-212 571.5 l-93 252q-15 40 -33.5 67.5t-34 42t-39 22t-39.5 8.5t-46 1z" />
<glyph unicode="W" horiz-adv-x="2086" d="M25 1419v23h501v-23q-51 0 -84 -13.5t-45.5 -31.5t-15.5 -40.5t-0.5 -36.5t6.5 -23l381 -1065l242 747l-103 306q-36 95 -83.5 126t-114.5 31v23h499v-23q-51 0 -84.5 -14t-45.5 -31t-14.5 -41t-0.5 -35.5t6 -23.5l358 -1071l250 731q62 208 73 267q7 40 7 73 q0 78 -42 111q-43 34 -134 34v23h479v-23q-48 0 -77 -3.5t-60 -27t-49 -47t-49 -91.5t-54 -129.5t-69 -190.5l-328 -930h-24l-328 924l-301 -924h-27l-469 1262q-36 95 -83.5 126t-116.5 31z" />
<glyph unicode="X" horiz-adv-x="1396" d="M27 0v20q42 0 62.5 2.5t55.5 16.5t64 42.5t75.5 83t103 136.5t134.5 203l117 180l-350 543q-44 68 -76.5 107.5t-62.5 57.5t-51.5 22.5t-57.5 4.5v23h483v-23q-87 0 -87 -66q0 -59 69 -171l217 -367l100 160q117 212 141 288q11 36 11 63q0 53 -42 75q-38 18 -110 18v23 h518v-23q-39 0 -56.5 -1t-48 -6.5t-48 -16.5t-47.5 -33.5t-56 -55t-64 -82t-80 -114t-97 -152.5l-105 -165q22 -31 112 -177t169 -276l80 -131q33 -54 60 -88.5t46.5 -54t45.5 -29.5t43 -12.5t53 -4.5v-20h-453v20q25 1 42 8.5t24.5 19.5t10 26.5t-2.5 33.5t-11 35.5 t-17.5 38t-20.5 36.5t-21 34l-244 410l-112 -177q-124 -233 -142 -274q-34 -75 -34 -118q0 -22 9 -35q26 -38 136 -38v-20h-485z" />
<glyph unicode="Y" horiz-adv-x="1335" d="M20 1421v21h461v-21h-23t-23.5 -2t-25 -5.5t-19.5 -11t-14.5 -19t-4.5 -29t5 -40t21 -54.5t37 -70l307 -528l166 337q26 52 43 90.5t33 84.5t20 79q2 15 2 29q0 19 -3 38q-5 33 -25 53.5t-58 33t-94 12.5v23h484v-23h-2q-26 0 -38.5 -1t-35 -6t-37.5 -16.5t-38.5 -32.5 t-46 -53.5t-52.5 -79.5t-64.5 -111.5t-76.5 -147.5l-170 -342v-408q0 -65 10 -106.5t32 -60.5t45 -25t60 -6v-23h-428v23q37 0 59.5 6t43.5 25t30.5 60.5t9.5 106.5v381q-134 236 -228.5 401t-122.5 212l-28 47q-18 32 -35.5 56t-30 40t-29 27.5t-25 17.5t-27 10t-25 4.5 t-28.5 2.5q-7 1 -11 1z" />
<glyph unicode="Z" horiz-adv-x="1032" d="M49 0l760 1419h-102q-99 0 -168.5 -4t-133 -14t-105 -29.5t-77 -47.5t-58.5 -71t-39 -97t-28 -128h-32l34 414h875l-717 -1417h25q126 0 214 7.5t160.5 28.5t118 52.5t80.5 84.5t55 119t35 162h31l-49 -479h-879z" />
<glyph unicode="[" horiz-adv-x="608" d="M231 -299v1804h344v-24q-43 0 -66.5 -1.5t-57 -10.5t-50.5 -26.5t-30 -51.5t-13 -84v-1426q0 -43 13.5 -73.5t31.5 -46t50.5 -24t57 -10t64.5 -1.5v-25h-344z" />
<glyph unicode="\" horiz-adv-x="823" d="M31 1499h119l630 -1532h-118z" />
<glyph unicode="]" horiz-adv-x="610" d="M23 -274q40 0 64.5 1.5t57 10t50.5 24t31.5 46t13.5 73.5v1426q0 50 -13 84t-30 51.5t-50.5 26.5t-57 10.5t-66.5 1.5v24h344v-1804h-344v25z" />
<glyph unicode="^" horiz-adv-x="1144" d="M182 770l361 672h47l362 -672h-45l-342 473l-336 -473h-47z" />
<glyph unicode="_" horiz-adv-x="1146" d="M0 -166h1147v-78h-1147v78z" />
<glyph unicode="`" horiz-adv-x="641" d="M8 1432l133 38l371 -329h-31z" />
<glyph unicode="a" d="M84 195q0 36 7.5 66.5t25.5 56.5t39.5 47t58.5 40.5t72 35t90.5 33t104 31t122.5 32.5v114q0 163 -74 239q-42 43 -101 44q-45 0 -99 -25q-40 -19 -65 -40.5t-26.5 -31.5t1.5 -14q38 -7 55 -30q19 -23 19 -51v-12q-4 -34 -33 -58q-22 -19 -52 -19q-5 1 -9 1q-35 4 -56 32 q-20 26 -20 54q0 17 8 34q35 85 159 152q38 19 84.5 29t73.5 10h27q73 0 124 -29t79.5 -85.5t40.5 -128t12 -167.5v-369q0 -5 0.5 -13.5t5 -29.5t12.5 -37t26.5 -29.5t43.5 -13.5q2 0 5.5 0.5t13 4t17.5 9.5t16.5 19t12.5 31l21 -8q-10 -52 -54 -94.5t-110 -42.5 q-6 0 -16.5 0.5t-37 9.5t-47 25t-38 53t-19.5 88q-22 -77 -102.5 -126.5t-186.5 -49.5q-9 0 -25 1.5t-55.5 13t-70 31.5t-55.5 63.5t-25 103.5zM225 231q0 -72 45.5 -123t130.5 -51q137 0 203 140v317q-193 -46 -286 -115t-93 -168z" />
<glyph unicode="b" horiz-adv-x="1114" d="M29 1436v22l243 45v-696q44 74 129 116t172 42q107 0 190.5 -41t134 -111t76 -158t25.5 -188q0 -226 -130.5 -355.5t-336.5 -129.5q-165 0 -280 100q-49 -56 -93 -77q-26 -13 -26 5v1319q0 55 -21 78t-83 29zM272 303q0 -139 70 -219t184 -80q41 0 80.5 12t80 43.5 t70.5 78.5t49 123.5t19 172.5q0 231 -82 352t-225 121q-113 0 -179.5 -73t-66.5 -195v-336z" />
<glyph unicode="c" horiz-adv-x="968" d="M92 469q0 97 34 186.5t95 158.5t153 110t199 41q65 0 116.5 -11.5t80.5 -28t49.5 -38t28 -36t10.5 -28.5q5 -17 5 -31q0 -30 -21 -51q-22 -22 -56.5 -23.5t-56.5 19.5q-25 25 -26 57.5t24 55.5q29 29 53 22q4 -1 4 2q-1 11 -36 30q-68 38 -175 38q-31 0 -67 -9t-83.5 -39 t-84 -77t-62.5 -133.5t-26 -198.5q0 -108 28.5 -191.5t75.5 -132t101 -73.5t112 -27h18q108 0 185 57q84 62 113 142l16 -6q-6 -33 -20.5 -67t-44 -71.5t-68.5 -66.5t-99 -48t-132 -19q-80 0 -157 30.5t-142 88t-104.5 153.5t-39.5 215z" />
<glyph unicode="d" horiz-adv-x="1069" d="M78 483q0 152 62.5 263t167 165t239.5 54q144 0 254 -82v442q0 56 -22 80.5t-83 30.5v22l244 45v-1362q0 -73 20 -89q16 -14 65 -13h19v-21l-186 -34q-25 -4 -39.5 5t-16.5 20l-1 11v105q-43 -68 -127 -105.5t-168 -37.5q-107 0 -190.5 40.5t-134.5 110.5t-77 159 t-26 191zM252 518q0 -236 81.5 -359.5t223.5 -123.5q102 0 173 67t71 172v394q0 121 -74 197.5t-174 76.5q-42 0 -81 -11t-80 -41t-71.5 -76t-49.5 -122.5t-19 -173.5z" />
<glyph unicode="e" horiz-adv-x="968" d="M74 463q0 227 122.5 364.5t305.5 137.5q168 0 276.5 -120.5t108.5 -352.5h-656q3 -222 86.5 -326.5t223.5 -110.5h12q89 -1 172 53q88 58 113 138l16 -6q-6 -37 -30 -79.5t-65 -83.5t-108 -68t-147 -27q-188 0 -309 133.5t-121 347.5zM231 516h517q0 112 -25.5 199 t-65 134t-80 70t-77.5 23q-45 0 -91.5 -27t-86.5 -77.5t-65.5 -134.5t-25.5 -187z" />
<glyph unicode="f" horiz-adv-x="587" d="M25 946h133q0 219 29 342.5t94.5 178.5t181.5 55q57 0 106.5 -22t65.5 -44q14 -20 19.5 -46t-1.5 -52q-12 -34 -45 -50q-19 -8 -39 -8q-15 0 -30 5q-35 14 -50 46q-8 17 -8 35q0 16 6 33q12 35 43 45q13 5 -6 19q-24 18 -61 18q-57 0 -90.5 -40.5t-53.5 -164.5t-20 -350 h233l-4 -22h-229v-777q0 -74 22 -95.5t85 -31.5v-20h-328v20q57 10 68.5 30.5t11.5 96.5v777h-131z" />
<glyph unicode="g" horiz-adv-x="1081" d="M25 -216q9 68 53.5 127.5t116.5 104.5q-84 43 -84 150q2 1 0 9.5t2 24.5t8 35t17.5 40.5t31 40t47.5 35.5t68 26q-79 35 -118.5 109.5t-39.5 162.5q0 129 106 222.5t271 93.5q85 0 161 -26.5t126 -72.5q35 52 87 80.5t93 30.5h9q51 0 75 -33q17 -23 17 -49q0 -6 -1 -13 q-5 -33 -33 -53q-26 -21 -59 -17.5t-55 30.5q-16 23 -16 44q0 9 3 17q1 5 -7 7q-5 1 -10 1q-24 0 -54 -21q-21 -15 -35 -36q39 -37 59.5 -92t20.5 -113q0 -129 -106.5 -224t-274.5 -95q-118 0 -199 37q-54 -6 -91 -62q-26 -38 -26 -74q0 -19 8 -38q31 -69 156 -70h226h28h44 q31 0 51 -1q34 -1 90.5 -12.5t86 -34t48.5 -69.5q13 -31 13 -72q0 -19 -3 -40q0 -6 -2 -17t-14.5 -44.5t-33.5 -65t-66 -73t-105 -75.5q-132 -75 -271 -94q-50 -7 -95 -7q-82 0 -148 22q-103 35 -146 110q-32 54 -32 109q0 13 2 25zM134 -237q12 -32 44 -76q45 -53 134 -83 q72 -25 158 -25q19 0 40 1q108 7 192 60q48 31 82.5 66.5t48.5 64.5t21.5 53.5t7.5 38.5v14q0 4 -1.5 11t-12 25.5t-28 32t-56.5 25t-92 11.5h-287q-108 0 -168 22q-99 -69 -99 -162q0 -38 16 -79zM274 649q0 -81 22.5 -142t59 -93t74 -47t74.5 -15q39 0 77 15t74.5 47 t59 93t22.5 142t-23.5 141.5t-60.5 91.5t-74.5 45.5t-74.5 14.5q-33 0 -63.5 -8t-61.5 -29.5t-53.5 -53.5t-37 -84t-14.5 -118z" />
<glyph unicode="h" horiz-adv-x="993" d="M33 1434v22l243 47v-776q22 92 114.5 165t195.5 73q137 0 216 -80.5t79 -255.5v-467q0 -83 14 -105.5t70 -36.5v-20h-306v20q57 17 69.5 39.5t12.5 102.5v459q0 125 -59 194.5t-174 69.5q-43 0 -83.5 -19.5t-69.5 -50t-48 -59.5t-31 -56v-538q0 -59 6.5 -83.5t21.5 -35 t56 -20.5v-23h-307v23q58 17 70 38.5t12 100.5v1165q0 56 -20 78.5t-82 28.5z" />
<glyph unicode="i" horiz-adv-x="462" d="M59 897v21l242 47v-805q0 -59 6.5 -83.5t21.5 -34t56 -19.5v-23h-305v23q58 17 70 37.5t12 99.5v626q0 55 -20.5 78.5t-82.5 32.5zM125 1225q0 37 24.5 62.5t61.5 25.5q36 0 62 -26t26 -62q0 -35 -26.5 -60.5t-61.5 -25.5q-36 0 -61 25t-25 61z" />
<glyph unicode="j" horiz-adv-x="460" d="M-27 -446q185 61 185 501v721q0 58 -19.5 85.5t-81.5 35.5v21l242 47v-863q0 -142 -21.5 -244t-66 -167t-101.5 -101.5t-137 -56.5v21zM123 1225q0 38 24.5 63t61.5 25q36 0 62 -25t26 -63q0 -35 -26.5 -60.5t-61.5 -25.5q-36 0 -61 25t-25 61z" />
<glyph unicode="k" horiz-adv-x="1009" d="M20 1436v22l244 45v-1343q0 -59 6.5 -83.5t21.5 -34t56 -19.5v-23h-307v23q58 17 70 37.5t12 99.5v1167q0 56 -20.5 79.5t-82.5 29.5zM326 453l192 196q9 8 22.5 21.5t47.5 50t51.5 68.5t26.5 65t-20 52.5t-95 19.5v20h444v-20q-53 -1 -90 -11.5t-98.5 -52t-146.5 -122 t-220 -222.5q34 -47 127.5 -153t170.5 -189l77 -82q39 -45 75 -58t85 -13v-23h-129q-73 0 -120.5 19.5t-94.5 67t-129 155.5z" />
<glyph unicode="l" horiz-adv-x="432" d="M47 1436v22l244 45v-1343q0 -59 6.5 -83.5t21.5 -34t56 -19.5v-23h-307v23q58 17 70 37.5t12 99.5v1167q0 56 -20.5 79.5t-82.5 29.5z" />
<glyph unicode="m" horiz-adv-x="1476" d="M20 897v21l244 47v-209q30 89 108.5 149t172.5 60q224 0 262 -222q29 93 108 157.5t175 64.5q134 0 204 -78.5t70 -255.5v-471q0 -59 6.5 -84t22 -35.5t55.5 -20.5v-20h-305v20q58 17 70 39t12 101v463q0 264 -205 264q-55 0 -101 -33t-69 -72t-35 -80v-75v-467 q0 -58 7 -83.5t22 -36t55 -20.5v-20h-305v20q58 17 70 39t12 101v463q0 129 -47.5 196.5t-155.5 67.5q-55 0 -102 -32t-71 -70.5t-36 -77.5v-547q0 -59 6.5 -83.5t21.5 -34t56 -19.5v-23h-307v23q58 17 70 37.5t12 99.5v622q0 57 -20.5 81.5t-82.5 33.5z" />
<glyph unicode="n" horiz-adv-x="995" d="M20 897v21l244 47v-211q31 87 119 149t184 62q136 0 215.5 -79.5t79.5 -254.5v-471q0 -59 6.5 -84t22 -35.5t55.5 -20.5v-20h-305v20q58 17 70 39t12 101v463q0 122 -61 193t-173 71q-79 0 -140.5 -58t-84.5 -122v-547q0 -59 6.5 -83.5t21.5 -34t56 -19.5v-23h-307v23 q58 17 70 37.5t12 99.5v624q0 56 -20.5 80t-82.5 33z" />
<glyph unicode="o" horiz-adv-x="1093" d="M84 473q0 103 29.5 191t86 156t146.5 106.5t203 38.5q114 0 204 -38.5t146.5 -106.5t85.5 -156t29 -191q0 -102 -29 -190t-85.5 -155.5t-146.5 -106.5t-204 -39q-113 0 -203 39t-146.5 106.5t-86 155.5t-29.5 190zM248 473q0 -469 301 -469q51 0 93.5 13t81.5 45.5 t65.5 84.5t42.5 135t16 191t-16 191t-42.5 135t-65.5 84.5t-81.5 45.5t-93.5 13q-301 0 -301 -469z" />
<glyph unicode="p" horiz-adv-x="1120" d="M33 897v21l243 47v-156q42 73 127 114.5t172 41.5q107 0 191 -40.5t135 -111t77 -159t26 -189.5q0 -228 -130.5 -355.5t-336.5 -127.5q-152 0 -261 84v-453q0 -36 2.5 -56t5.5 -34t15.5 -21.5t23 -11t37.5 -10.5v-23h-307v23q59 17 70.5 36t11.5 97v1178q0 56 -19.5 78 t-82.5 28zM276 272q6 -125 75 -196.5t177 -71.5q42 0 82 11.5t80.5 42t70.5 77t49 122.5t19 173q0 236 -83 357.5t-224 121.5q-108 0 -174 -67t-72 -178v-392z" />
<glyph unicode="q" horiz-adv-x="1085" d="M86 485q0 227 130.5 353.5t336.5 126.5q154 0 264 -86q30 43 80 65q41 19 41 -4v-1327q0 -36 2.5 -56t5.5 -34t15.5 -21.5t23 -11t37.5 -10.5v-23h-307v23q59 17 70.5 36t11.5 97v498q-47 -62 -126 -95.5t-157 -33.5q-107 0 -190.5 41t-134.5 111.5t-77 159.5t-26 191z M254 518q0 -237 82 -363t223 -126q96 0 163.5 61t74.5 160v438q-7 116 -77.5 185t-166.5 69q-42 0 -81 -11t-79.5 -41t-70.5 -76t-49 -122.5t-19 -173.5z" />
<glyph unicode="r" horiz-adv-x="688" d="M29 897v21l243 47v-205q43 88 129 144.5t164 56.5q58 0 92 -46q16 -25 16 -52q0 -9 -2 -19q-8 -38 -42 -60q-23 -16 -50 -16q-10 0 -21 2q-39 8 -62 43q-14 23 -14 46q0 11 3 22q3 12 -12 12h-2q-34 0 -92 -43q-74 -57 -107 -135v-555q0 -59 6.5 -83.5t21.5 -34t56 -19.5 v-23h-307v23q58 17 70 37.5t12 99.5v626q0 55 -20 79.5t-82 31.5z" />
<glyph unicode="s" horiz-adv-x="854" d="M94 57v289h21q3 -56 10.5 -99t29 -91.5t56 -79.5t94.5 -51.5t141 -20.5q61 0 101.5 18t56.5 47t16 66t-16.5 74t-46.5 72.5t-68 60.5l-206 125q-145 101 -183 187q-16 36 -16 74q0 54 31 112q2 5 7 13.5t25.5 30t47 38t75 30t107.5 13.5q105 0 188.5 -16.5t114.5 -32.5 l31 -17v-260h-21q-3 47 -11.5 86.5t-30 81.5t-54.5 70t-88.5 46.5t-128.5 18.5q-80 0 -124.5 -34.5t-46.5 -83.5v-5q0 -47 32 -101q34 -56 100 -97l207 -129q139 -86 179 -198q14 -40 14 -80q0 -70 -46 -136q-3 -4 -8.5 -10.5t-26.5 -23t-46.5 -29t-70 -23t-94.5 -10.5 q-69 0 -131 7.5t-100.5 19t-67.5 22.5t-41 19z" />
<glyph unicode="t" horiz-adv-x="610" d="M35 946h106v301l142 19v-320h241l-4 -22h-237v-623q0 -132 40.5 -187t116.5 -55q42 0 77 28t48 67l17 -9q-18 -68 -74.5 -115.5t-134.5 -47.5q-115 0 -173.5 68.5t-58.5 244.5v629h-102z" />
<glyph unicode="u" horiz-adv-x="1026" d="M35 905v23l252 37v-670q0 -122 66 -179t165 -57q86 0 143.5 48.5t83.5 121.5v541v7q0 91 -12.5 109t-83.5 19v23l238 37v-803q0 -73 19.5 -95t84.5 -30v-21l-198 -32q-21 -4 -33 2.5t-14 15.5l-1 8v170q-23 -81 -103.5 -139.5t-182.5 -58.5q-309 0 -309 307v471v59 t-4.5 38.5t-9.5 27t-20.5 12.5t-32 7.5t-48.5 0.5z" />
<glyph unicode="v" horiz-adv-x="1054" d="M8 926v20h395v-20q-41 0 -64 -14t-26 -34.5t-0.5 -41t9.5 -34.5l6 -14l280 -614l180 496q2 5 5 14.5t9.5 36t8 50.5t-3.5 53.5t-19.5 51t-46 36t-77.5 14.5v20h393v-20q-34 0 -51.5 -2t-43.5 -14t-45 -36.5t-44.5 -70t-53.5 -115.5l-258 -706h-16l-393 841 q-7 15 -15.5 27.5t-15.5 21.5t-16.5 16.5t-15.5 12.5t-16 9.5t-14.5 6.5t-14.5 4t-13 2.5t-12.5 1.5t-10.5 1z" />
<glyph unicode="w" horiz-adv-x="1466" d="M33 926v20h348v-20q-32 0 -49.5 -12.5t-20 -30t-1 -34.5t6.5 -29l5 -13l249 -623l156 455l-72 168q-46 109 -123 119v20h351v-20q-38 0 -59 -13t-24.5 -32t-1.5 -37.5t8 -31.5l5 -13l248 -615l174 533q1 4 3.5 11.5t5.5 29.5t3 41.5t-6.5 44t-21 41.5t-43 29t-68.5 12v20 h346v-20q-22 0 -37 -2.5t-38 -15t-41.5 -35t-40.5 -65.5t-42 -103l-241 -723h-15l-258 624l-213 -624h-16l-342 825q-45 107 -135 119z" />
<glyph unicode="x" horiz-adv-x="1032" d="M23 0v20h9q30 0 47 2t53.5 17t70.5 44.5t86 89.5t112 146l72 103l-268 389q-59 73 -91.5 93t-82.5 22v20h379v-20q-17 0 -29.5 -4t-21.5 -15t-10 -27.5t10.5 -43.5t35.5 -62l156 -227l65 92q77 125 92 160q15 34 15 58q0 39 -37 55q-32 14 -94 14v20h424v-20 q-70 -1 -103 -13q-96 -34 -226 -213q-26 -35 -54 -77l-70 -97l266 -391q13 -18 26 -33.5t26 -26.5t24 -19.5t24.5 -14t22 -9t22 -6t18 -3.5t17 -2t13.5 -1v-20h-371v20q31 0 42 15t5 36.5t-16 43t-20 36.5l-11 15l-164 237l-69 -98q-99 -151 -115 -199q-5 -16 -5 -28 q0 -38 43 -50q26 -8 73 -8v-20h-391z" />
<glyph unicode="y" horiz-adv-x="1087" d="M23 926v20h395v-20q-41 0 -62.5 -16.5t-23.5 -40.5t1.5 -48t10.5 -41l8 -16l273 -586l149 420q3 7 7 19t12 46t12 65q2 17 2 35q0 16 -1 34q-4 38 -17.5 65.5t-45.5 45.5t-81 18v20h393v-20q-29 0 -49 -5t-46 -23.5t-49 -54t-52 -97.5t-62 -152l-320 -887 q-38 -113 -112 -172q-20 -14 -49.5 -18t-55.5 6q-35 17 -48 53q-6 17 -6 33q0 18 7 35q17 35 52 48q17 7 33 7q18 0 36 -8q36 -14 47 -56q6 -25 32 0q25 26 44 76l100 285q-136 294 -231 497.5t-122 259.5l-28 56q-47 104 -153 117z" />
<glyph unicode="z" horiz-adv-x="813" d="M59 0l529 926q-91 0 -155 -4.5t-128.5 -20t-104.5 -42t-68.5 -72.5t-35.5 -111h-24l10 270h672l-510 -926q120 0 200.5 12.5t141 45.5t92 89.5t41.5 143.5h24l-18 -311h-666z" />
<glyph unicode="{" horiz-adv-x="653" d="M100 565v15q8 3 24.5 8t24 8t22 10t22 14.5t19 21t17.5 30t13.5 41t11 54t6 69.5t2.5 88v239q0 86 19.5 149t57.5 102t86 60.5t112 30.5l2 -14q-154 -57 -154 -328v-295q0 -79 -22.5 -140t-57 -92.5t-67.5 -47t-62 -15.5q30 0 62 -12t67 -39.5t57.5 -85t22.5 -135.5v-295 q0 -275 154 -328l-2 -14q-64 9 -112 30.5t-86 60.5t-57.5 102t-19.5 149v240q0 50 -2.5 90t-9 69.5t-12 51.5t-17.5 38t-19.5 25.5t-23.5 17t-24 11t-27 8.5t-27 8z" />
<glyph unicode="|" horiz-adv-x="397" d="M150 -336v1841h100v-1841h-100z" />
<glyph unicode="}" horiz-adv-x="655" d="M106 -322q154 53 154 328v295q0 78 22.5 135.5t57.5 85t67 39.5t62 12q-29 0 -62 15.5t-67.5 47t-57 92.5t-22.5 140v295q0 271 -154 328l3 14q132 -19 203 -97t71 -245v-239q0 -48 2.5 -88t6 -69.5t11 -54t13.5 -41t17.5 -30t19 -21t22 -14.5t22 -10t24 -8t24.5 -8v-15 q-8 -3 -27 -8t-27 -8.5t-24 -11t-23.5 -17t-19.5 -25.5t-17.5 -38t-12 -51.5t-9 -69.5t-2.5 -90v-240q0 -167 -71 -245t-203 -97z" />
<glyph unicode="~" horiz-adv-x="1161" d="M127 455q32 81 81.5 131t97.5 64t92 16t71 -6l27 -7l231 -88q26 -11 68.5 -13t89 5t87.5 32.5t58 65.5l12 -4q-32 -81 -81.5 -131.5t-97.5 -64.5t-91.5 -16t-70.5 6l-27 8l-228 88q-39 15 -96.5 16t-121 -24.5t-89.5 -81.5z" />
<glyph horiz-adv-x="0" />
<glyph unicode="&#xa1;" horiz-adv-x="538" d="M172 1063q0 43 29.5 72.5t72.5 29.5t74 -30t31 -72t-31 -72t-74 -30t-72.5 29.5t-29.5 72.5zM197 -358l36 1157h80l35 -1157h-151z" />
<glyph unicode="&#xa2;" horiz-adv-x="1050" d="M154 469q0 192 121.5 336.5t318.5 159.5v249h39v-249q80 0 139 -16.5t88.5 -42t42.5 -45.5t17 -38q14 -48 -17 -82q-24 -22 -57 -23.5t-55 19.5q-25 25 -26 57t23 56q22 22 54 22q10 -1 -3 12q-34 35 -120 51q-40 7 -86 7v-883q118 -1 200 61.5t111 141.5l17 -6 q-6 -32 -19.5 -65t-40 -69.5t-61.5 -65.5t-89 -49.5t-118 -24.5v-224h-39v224q-86 2 -164 33.5t-140 90t-99 152.5t-37 211zM311 485q0 -99 24 -178t65.5 -128.5t90 -78.5t103.5 -39v879q-35 -5 -69 -20t-74 -48.5t-70 -81.5t-50 -127.5t-20 -177.5z" />
<glyph unicode="&#xa3;" horiz-adv-x="1300" d="M68 166.5q0 18.5 4 39.5t14 42.5t24.5 42.5t35.5 39t46.5 32t59 21.5t71.5 7.5t85.5 -9.5t99.5 -29.5q80 -36 119 -67q10 70 -9 133t-77 155q-92 142 -111 170h-199v23h187q-58 109 -85 209t-24 176.5t27 141.5t65.5 109t94.5 74t111.5 40.5t118.5 4.5t114 -30 q123 -54 159 -182q6 -24 -3.5 -51.5t-32.5 -45.5q-31 -26 -71.5 -22t-66.5 35q-27 33 -22.5 72.5t35.5 66.5q33 26 71 20q16 -1 5 20q-17 36 -69 60l-16 6q-51 18 -99.5 23t-91.5 -3.5t-80 -28t-63 -53.5t-41 -78.5t-14 -104t17 -128t53 -153.5t94 -178h363v-23h-346 l69 -100q42 -69 54.5 -146.5t2.5 -136.5t-34 -114q46 -31 99 -59.5t82 -40.5l30 -13q56 -18 111.5 -14.5t97.5 40t45 95.5l24 -2q1 -60 -17 -109t-43.5 -77.5t-58.5 -48t-58.5 -27t-47.5 -8.5q-27 -1 -59.5 8.5t-55.5 19.5t-68.5 40.5t-64.5 44t-78 57.5 q-65 -98 -154.5 -134t-209.5 -36q-15 0 -37 4.5t-59 17.5t-70 46.5t-49 82.5q-4 15 -4 33.5zM94 137q12 -45 39 -75t61 -41t53 -14t38 -3q106 0 189.5 46t127.5 132q-108 78 -194 115q-107 41 -180 17.5t-110 -76.5t-24 -101z" />
<glyph unicode="&#xa4;" horiz-adv-x="1085" d="M37 274l141 144q-102 127 -102 291q0 161 102 288l-141 142l67 69l144 -143q123 102 289 102q168 0 288 -102l146 143l65 -69l-141 -142q102 -127 102 -288q0 -164 -102 -291l141 -144l-65 -65l-146 141q-126 -104 -288 -104q-160 0 -289 104l-144 -141zM174 707 q0 -149 107 -256t256 -107t256 107q106 106 106 258q0 147 -106 256q-106 106 -256 106t-256 -106q-107 -107 -107 -258z" />
<glyph unicode="&#xa5;" horiz-adv-x="1169" d="M-55 1423v19h461v-19q-20 0 -30 -0.5t-30.5 -4.5t-29 -12t-17 -25t-4.5 -41.5t19 -62.5t44 -87l306 -524l163 331q26 53 43 90.5t34 85t21.5 80.5t0 67t-24.5 54.5t-57.5 33.5t-93.5 13v21h483v-21h-2q-26 0 -38.5 -1t-35 -6t-37.5 -16.5t-38.5 -32.5t-46 -53.5 t-52.5 -79.5t-64.5 -111.5t-76.5 -147.5l-162 -326h354v-29h-358v-137h358v-28h-358v-234q0 -65 9.5 -105.5t30.5 -59.5t43.5 -25t59.5 -6v-23h-428v23q37 0 59.5 6t44 25t31 59.5t9.5 105.5v234h-400v28h400v119l-11 18h-389v29h375q-125 220 -213.5 374t-114.5 197l-26 44 q-42 72 -78 107.5t-57.5 42.5t-66.5 10q-6 1 -9 1z" />
<glyph unicode="&#xa6;" horiz-adv-x="405" d="M145 381h99v-772h-99v772zM145 737v768h99v-768h-99z" />
<glyph unicode="&#xa7;" horiz-adv-x="1058" d="M117.5 570q13.5 72 74 148.5t166.5 145.5q-91 78 -127.5 151t-23.5 185q9 75 43 130t75 82.5t95 42.5t93.5 17.5t80.5 0.5q78 -4 145.5 -53t87.5 -105q18 -52 -14 -92q-25 -28 -62.5 -29t-66.5 25q-27 25 -28.5 60.5t22.5 63.5q30 30 57 27q15 -1 -3 19q-34 38 -93 54 q-13 3 -25 5q-83 7 -148 -9t-110 -62.5t-55 -119.5q-12 -91 26 -155t158 -156l263 -180q92 -64 145.5 -145t62.5 -171.5t-52.5 -187.5t-192.5 -180q89 -75 127 -149.5t24 -184.5q-8 -64 -33 -113t-59.5 -77t-76 -48t-82 -25t-79 -8.5t-65.5 1.5q-75 4 -143 52t-88 103 q-18 53 18 93q25 28 61.5 29.5t65.5 -23.5q28 -25 30 -63t-24 -64q-32 -32 -63 -29q-16 1 8 -19q49 -40 114 -55l13 -2q108 -13 198 36.5t103 154.5q14 93 -23 157.5t-155 151.5l-265 182q-73 52 -122 113t-70 132t-7.5 143zM197.5 610q-3.5 -56 20.5 -111.5t64.5 -99.5 t94.5 -82q16 -11 114.5 -77.5t129.5 -89.5q62 -43 71 -52q87 57 131.5 120t47.5 119t-21.5 112t-66 100t-95.5 82q-45 33 -254 176l-55 41q-88 -57 -133 -119.5t-48.5 -118.5z" />
<glyph unicode="&#xa8;" horiz-adv-x="423" d="M-18 1323q0 36 23 60t58 24q33 0 57.5 -24.5t24.5 -59.5q0 -32 -25 -56t-57 -24q-35 0 -58 23.5t-23 56.5zM279 1323q0 35 23.5 59.5t57.5 24.5t58 -24.5t24 -59.5q0 -32 -24 -56t-58 -24t-57.5 23.5t-23.5 56.5z" />
<glyph unicode="&#xa9;" horiz-adv-x="1622" d="M59 754q0 151 58.5 288t158 236.5t237.5 158t290 58.5t290 -58.5t237.5 -157.5t158.5 -236.5t59 -288.5q0 -152 -59 -289.5t-158.5 -236.5t-237.5 -157.5t-290 -58.5q-204 0 -375 99t-270 269.5t-99 373.5zM137 754q0 -180 89.5 -333.5t243 -243t333.5 -89.5t333 89.5 t242.5 243t89.5 333.5q0 135 -53 258.5t-142 213t-212.5 142.5t-257.5 53q-180 0 -333.5 -89.5t-243 -243t-89.5 -334.5zM414 735q0 199 109.5 306.5t291.5 107.5q96 0 155.5 -14t110.5 -56l-10 -176h-16q-8 223 -240 223q-40 0 -72 -5.5t-73 -28.5t-68.5 -62.5t-47 -115 t-19.5 -179.5q0 -89 13.5 -158t38.5 -110.5t52 -68.5t62.5 -39t59.5 -15.5t54 -3.5q27 0 49.5 2t59 15t62.5 35t46.5 66.5t22.5 106.5h16l10 -176q-64 -43 -118.5 -57.5t-147.5 -14.5q-182 0 -291.5 109.5t-109.5 308.5z" />
<glyph unicode="&#xaa;" horiz-adv-x="579" d="M41 1038q0 71 60 106.5t212 74.5v59q0 85 -37.5 120t-105.5 5q-44 -18 -48 -32q-1 -3 1 -3q16 0 29 -16q10 -14 7.5 -32.5t-16.5 -29.5q-13 -12 -31 -10.5t-30 16.5q-14 21 -4 47q4 14 24.5 36.5t57.5 41.5q20 10 44.5 15.5t39.5 5.5h14q73 0 102 -55t29 -160v-193 q0 -3 0.5 -7t3 -15.5t6.5 -19.5t14 -15t23 -6q3 0 7.5 1t13 9t10.5 23l20 -7q-3 -32 -27.5 -50.5t-64.5 -18.5q-3 0 -8.5 0.5t-19.5 4t-24.5 10.5t-19 22t-8.5 36q-10 -32 -53 -52.5t-100 -20.5q-5 0 -13 0.5t-29 6t-37 15.5t-29 33t-13 55zM115 1059q0 -39 23.5 -64.5 t70.5 -25.5q44 0 69 22.5t35 52.5v150q-104 -24 -151 -55t-47 -80z" />
<glyph unicode="&#xab;" horiz-adv-x="1249" d="M178 545l473 489v-41l-332 -448l332 -439v-38zM596 545l473 489v-41l-330 -448l330 -439v-38z" />
<glyph unicode="&#xac;" horiz-adv-x="1306" d="M84 694v101h1126v-619h-106v518h-1020z" />
<glyph unicode="&#xad;" horiz-adv-x="909" d="M131 465v113h645v-113h-645z" />
<glyph unicode="&#xae;" horiz-adv-x="1642" d="M61 754q0 152 58.5 289t158 236t237 157.5t290.5 58.5q152 0 290 -58.5t237.5 -157t158.5 -236t59 -289.5q0 -151 -59 -288.5t-158.5 -237t-237.5 -158t-290 -58.5q-204 0 -375 99.5t-270 270t-99 372.5zM139 754q0 -180 89.5 -333t242.5 -242t334 -89q135 0 257.5 52.5 t212 141.5t142.5 212t53 258q0 136 -53 259.5t-142.5 212.5t-212 142t-257.5 53t-258.5 -52.5t-212.5 -142t-142 -213t-53 -259.5zM539 348v23q39 0 52 20.5t13 95.5v562q0 51 -12.5 63t-52.5 12v23h182q74 0 122.5 -4.5t92 -17t68 -36.5t38 -62.5t13.5 -94.5 q0 -205 -191 -213q22 -1 37.5 -4t42 -18t45.5 -40.5t38 -77.5t30 -124q12 -84 117 -84v-23h-87h-34.5t-25 3.5t-19 6t-13.5 13.5t-11.5 20t-9.5 32t-10.5 42t-12.5 58t-17 73q-8 32 -30.5 55t-50 33.5t-53.5 17t-44 6.5l-17 1h-53v-242q0 -57 15.5 -76.5t52.5 -19.5v-23 h-215zM686 731h35h4q38 0 57 0.5t49 4t45 11t34.5 22t28.5 36t15.5 53.5t6.5 74q0 40 -7.5 71t-17 51.5t-30 34t-36 20.5t-46.5 10.5t-48.5 4t-54.5 0.5h-35v-393z" />
<glyph unicode="&#xaf;" horiz-adv-x="737" d="M-33 1231v86h805v-86h-805z" />
<glyph unicode="&#xb0;" horiz-adv-x="780" d="M117 1243q0 110 78.5 188t187.5 78t187.5 -78t78.5 -188q0 -108 -78.5 -185t-187.5 -77t-187.5 77t-78.5 185zM174 1243q0 -86 61.5 -146.5t149.5 -60.5q85 0 146 60.5t61 146.5q0 85 -61 146t-146 61q-87 0 -149 -61t-62 -146z" />
<glyph unicode="&#xb1;" horiz-adv-x="1245" d="M84 0v106h1063v-106h-1063zM84 637v106h477v355h107v-355h479v-106h-479v-350h-107v350h-477z" />
<glyph unicode="&#xb2;" horiz-adv-x="524" d="M63 774l205 311q97 141 53 231q-28 55 -93 63t-107 -39q-27 -30 -31 -76l-24 2q1 51 18.5 88t42.5 53t49.5 25t41.5 10h18q69 0 115 -46t46 -112q0 -42 -24 -87t-84 -124l-156 -235h195q51 0 80 51h22l-31 -115h-336z" />
<glyph unicode="&#xb3;" horiz-adv-x="526" d="M68 1290q1 43 19.5 74t40 45.5t51.5 22.5t43 9t24 1q47 0 85 -25.5t54.5 -65t16.5 -82.5t-29 -82.5t-82 -60.5q74 -13 113.5 -60t39.5 -105q1 -57 -20 -98t-56 -60.5t-68.5 -28t-68.5 -8.5q-55 0 -94 16.5t-57 38.5q-7 9 -8 23.5t4 21.5q9 15 25.5 20.5t31.5 -1.5t21 -25 t-2 -33q-9 -15 -21 -18q-4 0 5 -5q32 -18 95 -18q155 0 142 162q-5 62 -46 105.5t-132 46.5v20q65 6 104 49.5t36.5 100t-48.5 96.5q-38 27 -80 26.5t-76.5 -30.5t-38.5 -74z" />
<glyph unicode="&#xb4;" horiz-adv-x="692" d="M178 1141l371 329l133 -38l-473 -291h-31z" />
<glyph unicode="&#xb5;" horiz-adv-x="1017" d="M23 905v23l251 37v-693q7 -111 71.5 -162t160.5 -51q86 0 143.5 48.5t83.5 121.5v541v7q0 91 -12.5 109t-83.5 19v23l237 37v-803q0 -72 19.5 -94.5t85.5 -30.5v-21l-199 -32q-21 -4 -32.5 2.5t-13.5 15.5l-1 8v170q-17 -71 -88.5 -127t-168.5 -68t-202 44v-387 q0 -73 20 -97t85 -32v-21l-197 -33q-21 -4 -32 2.5t-12 15.5l-1 9v1274v10v54.5t-4.5 35.5t-9 24.5t-20.5 11t-31.5 7.5t-48.5 2z" />
<glyph unicode="&#xb6;" horiz-adv-x="1255" d="M76 1024q0 98 30 173t78.5 120t117.5 74t137.5 39.5t148.5 11.5h2h104v-1985h-321v23q40 0 75.5 8.5t68.5 27.5t52 56t19 88v954q-90 0 -161 9.5t-139 37t-113 72t-72 118.5t-27 173zM809 -543v1985h278v-25q-78 0 -122.5 -54t-44.5 -159v-1489q0 -235 153 -235v-23h-264 z" />
<glyph unicode="&#xb7;" horiz-adv-x="493" d="M160 612q0 34 24 58t58 24t59 -24t25 -58t-25 -58t-59 -24t-58 24t-24 58z" />
<glyph unicode="&#xb8;" horiz-adv-x="534" d="M117 -375q7 17 24.5 23t34.5 -2q15 -7 21 -25t-2 -33q-7 -14 -23 -18q-4 0 3 -5.5t27.5 -11t47.5 -6.5q58 0 94.5 33t36.5 94q0 21 -5.5 42.5t-20.5 46.5t-40 39.5t-64 21t-93 -7.5l59 176h25l-47 -131q133 30 203.5 -24t58.5 -140q-20 -162 -207 -162q-93 0 -129 45 q-14 21 -4 45z" />
<glyph unicode="&#xb9;" horiz-adv-x="393" d="M80 1335l129 107h31v-570q0 -26 5.5 -41.5t17.5 -21.5t20.5 -7t25.5 -1v-23h-209v23q18 0 28.5 1.5t22.5 8t17.5 22t5.5 39.5v435q0 27 -11 34.5t-27.5 0.5t-41.5 -25z" />
<glyph unicode="&#xba;" horiz-adv-x="659" d="M70 1100q0 51 6 96.5t23 93t45 81.5t75 55.5t109 21.5q76 0 129.5 -31.5t80 -85.5t37.5 -110t11 -121q0 -50 -6 -94t-23.5 -89.5t-45.5 -78t-75 -53.5t-108 -21q-62 0 -109 21t-75 53t-45 78.5t-23 90t-6 93.5zM152 1100q0 -314 176 -314q36 0 64.5 12.5t55 44t41.5 97 t15 160.5q0 325 -176 325t-176 -325z" />
<glyph unicode="&#xbb;" horiz-adv-x="1247" d="M172 68v38l330 439l-330 448v41l473 -489zM590 68v38l332 439l-332 448v41l473 -489z" />
<glyph unicode="&#xbc;" horiz-adv-x="1251" d="M29 74l1140 1378h88l-1142 -1378h-86zM199 1405l141 123h35v-656q0 -29 6 -47t20 -24.5t23.5 -8t28.5 -1.5v-23h-230v23q20 0 31.5 2t24 9t18.5 24.5t6 45.5v508q0 24 -6.5 34.5t-19.5 8.5t-28 -11t-36 -26zM625 223v13l348 516l37 -2v-482h98v-45h-98v-96q0 -37 4.5 -59 t16 -31.5t21.5 -11.5t31 -2v-23h-229v23q20 0 30.5 2.5t22 11.5t16.5 30t5 56v100h-303zM689 272.5q3 -4.5 30 -4.5h209v373l-226 -336q-16 -28 -13 -32.5z" />
<glyph unicode="&#xbd;" horiz-adv-x="1306" d="M29 74l1140 1378h88l-1142 -1378h-86zM199 1405l141 123h35v-656q0 -29 6 -47t19.5 -24.5t23 -8t27.5 -1.5v-23h-228v23q20 0 31 2t23.5 9t18 24.5t5.5 45.5v508q0 23 -6 33t-19 8t-27.5 -10.5t-35.5 -24.5zM799 0l231 356q108 156 62 259q-28 63 -99 77q-72 14 -125 -31 q-43 -37 -49 -102l-18 4q1 59 21.5 101t49 60.5t56.5 28.5t48 11h19q80 0 131.5 -52t51.5 -126q0 -49 -27.5 -99t-97.5 -145l-181 -268h226q68 0 104 59h15l-37 -133h-381z" />
<glyph unicode="&#xbe;" horiz-adv-x="1241" d="M29 74l1140 1378h88l-1142 -1378h-86zM111 1358q1 40 14.5 71.5t36 48.5t44 28.5t47.5 15.5t36.5 5t19.5 1q44 0 81.5 -21t60.5 -54t31.5 -74t0 -80.5t-39.5 -74.5t-81 -55q83 -13 128 -65.5t47 -118.5q0 -53 -16.5 -94t-41.5 -64.5t-59 -38t-64 -19.5t-61 -5 q-62 0 -107 18.5t-65 42.5q-9 10 -9.5 26.5t5.5 25.5q10 18 28 23.5t35 -3.5q19 -10 24.5 -28.5t-3.5 -37.5q-10 -16 -19 -16q-5 -1 5 -8t38.5 -14t67.5 -7q86 0 127.5 42.5t32.5 142.5q-6 68 -53 119.5t-150 54.5v18q56 5 96 36.5t54.5 73.5t3.5 89t-50 80q-28 24 -65.5 28 t-70 -9t-56.5 -41.5t-27 -65.5zM627 221v15l348 514l37 -2v-482h98v-45h-98v-96q0 -36 4.5 -57.5t16 -31t21.5 -11.5t31 -2v-23h-229v23q26 0 39.5 4.5t24 26.5t10.5 67v100h-303zM691 271q3 -5 30 -5h209v373l-225 -334q-17 -29 -14 -34z" />
<glyph unicode="&#xbf;" horiz-adv-x="1196" d="M207 -174q-15 316 319 475q74 35 105.5 108t23.5 169l35 4q6 -40 6.5 -70.5t-6 -76t-33.5 -90t-73 -83.5q-74 -64 -85 -75q-106 -106 -114 -264q-2 -42 2 -89q9 -101 44.5 -172t85 -106t111 -48t120 -6t114.5 29q72 27 79 68q5 23 -12 29q-3 1 -5 1q-34 3 -58 37 q-22 32 -15 70t38 61q31 22 69 14t60 -40q26 -33 10 -95q-8 -34 -50 -84t-106 -77q-121 -54 -240.5 -56.5t-210.5 39.5t-149.5 128t-64.5 200zM549 858q0 46 32 77.5t78 31.5q44 0 75.5 -31.5t31.5 -77.5q0 -44 -31.5 -76t-75.5 -32q-46 0 -78 32t-32 76z" />
<glyph unicode="&#xc0;" horiz-adv-x="1380" d="M29 0h434v23q-163 -2 -184 99q-15 71 42 242q9 27 29 84v1v1l1 1v1v1l1 1v1h553l74 -195q102 -237 -35 -237v-23h408v23q-27 2 -42.5 6.5t-37 21t-42 52.5t-44.5 96q-373 943 -498 1243h-14l-338 -932q-49 -138 -87.5 -229t-66 -143t-55 -77.5t-47 -31.5t-51.5 -6v-23z M358 477l260 719l279 -719h-539zM406 1794l133 39l370 -330h-30z" />
<glyph unicode="&#xc1;" horiz-adv-x="1380" d="M29 0v23q32 0 51.5 6t47 31.5t55 77.5t66 143t87.5 229l338 932h14q56 -134 180.5 -444.5t221.5 -554.5l96 -244q24 -60 44.5 -96t42 -52.5t37 -21t42.5 -6.5v-23h-408v23q137 0 35 237l-74 195h-553q-64 -184 -74 -252q-17 -127 69 -163q44 -18 116 -17v-23h-434z M358 477h539l-279 719zM442 1503l371 329l133 -38l-473 -291h-31z" />
<glyph unicode="&#xc2;" horiz-adv-x="1380" d="M29 0h434v23q-163 -2 -184 99q-15 71 42 242q9 27 29 84v1v1l1 1v1v1l1 1v1h553l74 -195q102 -237 -35 -237v-23h408v23q-27 2 -42.5 6.5t-37 21t-42 52.5t-44.5 96q-373 943 -498 1243h-14l-338 -932q-49 -138 -87.5 -229t-66 -143t-55 -77.5t-47 -31.5t-51.5 -6v-23z M358 477l260 719l279 -719h-539zM395 1505l279 385l278 -385h-34l-244 236l-244 -236h-35z" />
<glyph unicode="&#xc3;" horiz-adv-x="1380" d="M29 0v23q32 0 51.5 6t47 31.5t55 77.5t66 143t87.5 229l338 932h14q56 -134 180.5 -444.5t221.5 -554.5l96 -244q24 -60 44.5 -96t42 -52.5t37 -21t42.5 -6.5v-23h-408v23q137 0 35 237l-74 195h-553q-64 -184 -74 -252q-17 -127 69 -163q44 -18 116 -17v-23h-434z M227 1589q31 81 80.5 132t97.5 65t91.5 16.5t70.5 -4.5l27 -8l229 -88q26 -11 69 -12.5t89.5 6t87 33t57.5 65.5l15 -6q-23 -60 -56 -103.5t-67 -65t-69.5 -33.5t-67 -12.5t-56 2t-39.5 6.5l-14 5l-229 90q-38 15 -95 16t-120 -25t-88 -83zM358 477h539l-279 719z" />
<glyph unicode="&#xc4;" horiz-adv-x="1380" d="M29 0v23q32 0 51.5 6t47 31.5t55 77.5t66 143t87.5 229l338 932h14q56 -134 180.5 -444.5t221.5 -554.5l96 -244q24 -60 44.5 -96t42 -52.5t37 -21t42.5 -6.5v-23h-408v23q137 0 35 237l-74 195h-553q-64 -184 -74 -252q-17 -127 69 -163q44 -18 116 -17v-23h-434z M358 477h539l-279 719zM451 1688q0 35 23.5 59.5t57.5 24.5t58 -24.5t24 -59.5q0 -34 -24 -58t-58 -24t-57.5 24t-23.5 58zM750 1688q0 35 22.5 59.5t56.5 24.5t59 -24.5t25 -59.5q0 -34 -25 -58t-59 -24q-33 0 -56 24t-23 58z" />
<glyph unicode="&#xc5;" horiz-adv-x="1380" d="M29 0v23q32 0 51.5 6t47 31.5t55 77.5t66 143t87.5 229l338 932h14q56 -134 180.5 -444.5t221.5 -554.5l96 -244q24 -60 44.5 -96t42 -52.5t37 -21t42.5 -6.5v-23h-408v23q137 0 35 237l-74 195h-553q-64 -184 -74 -252q-17 -127 69 -163q44 -18 116 -17v-23h-434z M358 477h539l-279 719zM487 1802q0 82 56.5 139.5t138.5 57.5t138.5 -57.5t56.5 -139.5q0 -80 -57 -137t-138 -57t-138 57t-57 137zM545 1802q0 -57 39.5 -97t97.5 -40q57 0 97 40t40 97q0 58 -40 99t-97 41q-58 0 -97.5 -40.5t-39.5 -99.5z" />
<glyph unicode="&#xc6;" horiz-adv-x="1896" d="M10 0v23q39 0 70.5 14t81 62t117.5 152.5t161 272.5l467 840q-11 35 -35 45t-75 10v23h917v-359h-22q-3 81 -22.5 140t-60 95t-79 57.5t-106 30.5t-112 11t-124.5 2h-101v-682h132h31.5t32.5 1.5t37 4.5t34.5 10t35.5 16.5t29 25.5t25.5 36t15.5 48.5t8 62.5h23v-430h-23 q-1 42 -11.5 75.5t-24 54.5t-36.5 35.5t-40.5 22t-46 11t-42.5 4t-40 0.5h-4h-4h-132v-692h74h28q75 0 112.5 1t102 8t99 21t80 42.5t69.5 69.5t43 104t23 145h23v-414h-936v23q66 0 90.5 40t24.5 156v258h-476q-52 -94 -84 -160.5t-49 -119t-17 -84.5t18 -53t51 -29t86 -8 v-23h-439zM457 500h463v755q0 5 -1 36.5t-1 35.5z" />
<glyph unicode="&#xc7;" horiz-adv-x="1351" d="M82 721q0 179 52 320.5t147 232.5t224.5 138.5t287.5 47.5q170 0 275.5 -25.5t197.5 -99.5l-21 -313h-22q-8 105 -44 184.5t-81.5 122t-105.5 68.5t-106 33.5t-93 7.5q-50 0 -93.5 -5.5t-96.5 -24t-95 -49t-84 -85t-70 -128t-45.5 -182.5t-17.5 -243q0 -137 18 -247.5 t46 -184.5t71 -128t84.5 -83.5t95.5 -47t95.5 -22t91.5 -4.5q44 0 92 8.5t109 36.5t109 71.5t82.5 122t37.5 179.5h22l21 -313q-114 -75 -211 -101t-262 -26q-25 0 -54 2l-41 -115q133 30 204 -24t59 -140q-20 -162 -207 -162q-93 0 -129 45q-14 21 -4 45q7 17 24.5 23 t34.5 -2q15 -7 20.5 -24.5t-2.5 -32.5t-22 -19q-4 0 3 -5t27.5 -10.5t47.5 -6.5q58 0 94.5 33t36.5 94q0 21 -5.5 42.5t-20.5 46t-40 39t-64 21t-93 -7.5l53 162q-290 22 -461.5 213t-171.5 522z" />
<glyph unicode="&#xc8;" horiz-adv-x="1183" d="M63 0h967v416h-22q-3 -64 -16 -117t-28.5 -91.5t-46 -68.5t-54.5 -49.5t-68.5 -32.5t-72 -20t-82.5 -10t-83 -3.5t-89 -0.5h-28h-104v694h164q28 0 47 -1.5t53 -6.5t58 -18.5t48.5 -35t38.5 -58t15 -85.5h22v430h-22q-1 -41 -12.5 -74t-27 -54t-40 -36t-45 -22.5 t-49.5 -11.5t-45.5 -4.5t-40.5 -0.5h-164v680h131q69 0 108 -1t100.5 -7.5t97 -19t79.5 -37t68 -59.5t41.5 -89t19.5 -123h23v359h-941v-23q66 0 85.5 -33t19.5 -131v-1036q0 -109 -21.5 -152.5t-83.5 -43.5v-23zM344 1794l133 39l371 -330h-31z" />
<glyph unicode="&#xc9;" horiz-adv-x="1183" d="M63 0v23q62 0 83.5 43.5t21.5 152.5v1036q0 98 -19.5 131t-85.5 33v23h941v-359h-23q-2 69 -19.5 123t-41.5 89t-68 59.5t-79.5 37t-97 19t-100.5 7.5t-108 1h-131v-680h164q24 0 40.5 0.5t45.5 4.5t49.5 11.5t45 22.5t40 36t27 54t12.5 74h22v-430h-22q-1 49 -15 85.5 t-38.5 58t-48.5 35t-58 18.5t-53 6.5t-47 1.5h-164v-694h104h28q66 0 99.5 0.5t92.5 5t91 15t77.5 28t71 47t52 69.5t39.5 98t17 130h22v-416h-967zM303 1503l371 330l133 -39l-473 -291h-31z" />
<glyph unicode="&#xca;" horiz-adv-x="1183" d="M63 0h967v416h-22q-3 -64 -16 -117t-28.5 -91.5t-46 -68.5t-54.5 -49.5t-68.5 -32.5t-72 -20t-82.5 -10t-83 -3.5t-89 -0.5h-28h-104v694h164q28 0 47 -1.5t53 -6.5t58 -18.5t48.5 -35t38.5 -58t15 -85.5h22v430h-22q-1 -41 -12.5 -74t-27 -54t-40 -36t-45 -22.5 t-49.5 -11.5t-45.5 -4.5t-40.5 -0.5h-164v680h131q69 0 108 -1t100.5 -7.5t97 -19t79.5 -37t68 -59.5t41.5 -89t19.5 -123h23v359h-941v-23q66 0 85.5 -33t19.5 -131v-1036q0 -109 -21.5 -152.5t-83.5 -43.5v-23zM283 1505l278 385l279 -385h-35l-244 236l-244 -236h-34z " />
<glyph unicode="&#xcb;" horiz-adv-x="1183" d="M63 0v23q62 0 83.5 43.5t21.5 152.5v1036q0 98 -19.5 131t-85.5 33v23h941v-359h-23q-2 69 -19.5 123t-41.5 89t-68 59.5t-79.5 37t-97 19t-100.5 7.5t-108 1h-131v-680h164q24 0 40.5 0.5t45.5 4.5t49.5 11.5t45 22.5t40 36t27 54t12.5 74h22v-430h-22q-1 49 -15 85.5 t-38.5 58t-48.5 35t-58 18.5t-53 6.5t-47 1.5h-164v-694h104h28q66 0 99.5 0.5t92.5 5t91 15t77.5 28t71 47t52 69.5t39.5 98t17 130h22v-416h-967zM326 1688q0 35 23 59.5t57 24.5t58.5 -24.5t24.5 -59.5q0 -34 -24.5 -58t-58.5 -24t-57 24t-23 58zM623 1688 q0 35 23.5 59.5t58.5 24.5q33 0 57 -24.5t24 -59.5q0 -34 -24 -58t-57 -24q-35 0 -58.5 24t-23.5 58z" />
<glyph unicode="&#xcc;" horiz-adv-x="598" d="M45 1794l133 39l371 -330h-31zM100 0h422v23q-67 0 -97 40.5t-30 141.5v1065q0 91 28.5 121t98.5 30v21h-422v-21q71 0 100 -30t29 -121v-1065q0 -101 -30.5 -141.5t-98.5 -40.5v-23z" />
<glyph unicode="&#xcd;" horiz-adv-x="598" d="M88 1503l371 330l133 -39l-473 -291h-31zM100 0v23q68 0 98.5 40.5t30.5 141.5v1065q0 91 -29 121t-100 30v21h422v-21q-70 0 -98.5 -30t-28.5 -121v-1065q0 -101 30 -141.5t97 -40.5v-23h-422z" />
<glyph unicode="&#xce;" horiz-adv-x="598" d="M35 1505l278 385l279 -385h-35l-244 236l-243 -236h-35zM100 0h422v23q-67 0 -97 40.5t-30 141.5v1065q0 91 28.5 121t98.5 30v21h-422v-21q71 0 100 -30t29 -121v-1065q0 -101 -30.5 -141.5t-98.5 -40.5v-23z" />
<glyph unicode="&#xcf;" horiz-adv-x="598" d="M82 1688q0 35 23.5 59.5t58.5 24.5q33 0 57.5 -24.5t24.5 -59.5q0 -33 -24.5 -56.5t-57.5 -23.5q-35 0 -58.5 23t-23.5 57zM100 0v23q68 0 98.5 40.5t30.5 141.5v1065q0 91 -29 121t-100 30v21h424v-21q-70 0 -99.5 -30t-29.5 -121v-1065q0 -101 31 -141.5t98 -40.5v-23 h-424zM379 1688q0 35 24 59.5t58 24.5t58 -24.5t24 -59.5q0 -34 -24 -57t-58 -23t-58 23t-24 57z" />
<glyph unicode="&#xd0;" horiz-adv-x="1372" d="M25 698v43h204v480q0 200 -129 200v21h389q93 0 173 -8.5t162 -30t148 -56.5t125 -91.5t98 -130.5t62 -177t23 -229q0 -132 -23 -238.5t-62 -180.5t-98.5 -129t-124 -87t-149 -51.5t-161.5 -26t-173 -6.5h-389v23q66 0 97.5 49t31.5 153v473h-204zM399 23h90 q161 0 244 21q230 59 311 316q46 146 46 359q0 109 -13.5 201t-34.5 159.5t-55.5 121t-68.5 88.5t-81 61t-86 39t-90.5 21t-87.5 9.5t-84 1.5h-90v-680h291v-43h-291v-675z" />
<glyph unicode="&#xd1;" horiz-adv-x="1579" d="M8 1421v21h318l915 -1204v700q0 80 -0.5 118t-5.5 100.5t-14.5 92.5t-28.5 70t-46.5 57.5t-69.5 31t-97 13.5v21h567v-21q-59 0 -104 -13t-75 -29.5t-50.5 -55t-30.5 -67t-15.5 -88.5t-6 -96.5t-0.5 -113.5v-7v-6v-7v-938h-43l-861 1122v-614q0 -88 1.5 -132.5 t8.5 -112.5t23.5 -101.5t45 -71t75.5 -52.5t111 -15v-23h-578v23q53 0 95.5 8.5t72 29.5t51.5 41.5t35 60.5t21 69.5t11.5 84.5t4 90t0.5 101v641l-86 113q-19 24 -37.5 44t-33 35t-30.5 27l-26 19.5t-24.5 14t-21 9.5t-20.5 5t-18 2.5t-17.5 1.5t-15.5 1zM326 1589 q23 59 55.5 102.5t66 65t69 33.5t66.5 12.5t55.5 -1.5t39.5 -7l14 -4l230 -88q26 -11 68.5 -12.5t89 6t87.5 33t58 65.5l14 -6q-23 -60 -56.5 -103.5t-67.5 -65t-69.5 -33.5t-66.5 -12.5t-55.5 2t-39.5 6.5l-14 5l-229 90q-38 15 -95 16t-120 -25t-88 -83z" />
<glyph unicode="&#xd2;" horiz-adv-x="1486" d="M84 711q0 -124 23.5 -232.5t74 -200.5t125 -157t182.5 -102t240 -37t240 37t182.5 102t125 157t74 200.5t23.5 232.5q0 156 -38 289t-114.5 237t-202.5 163.5t-290 59.5t-290 -59.5t-202.5 -163.5t-114.5 -237t-38 -289zM260 711q0 163 25.5 290.5t69 208.5t104.5 133.5 t127 73.5t143 21q76 0 141.5 -21t126.5 -73.5t103.5 -133.5t68 -208.5t25.5 -290.5q0 -707 -465 -707q-469 0 -469 707zM463 1794l133 39l371 -330h-31z" />
<glyph unicode="&#xd3;" horiz-adv-x="1486" d="M84 711q0 156 38 289t114.5 237t202.5 163.5t290 59.5t290 -59.5t202.5 -163.5t114.5 -237t38 -289q0 -124 -23.5 -232.5t-74 -200.5t-125 -157t-182.5 -102t-240 -37t-240 37t-182.5 102t-125 157t-74 200.5t-23.5 232.5zM260 711q0 -707 469 -707q465 0 465 707 q0 163 -25.5 290.5t-68 208.5t-103.5 133.5t-126.5 73.5t-141.5 21q-77 0 -143 -21t-127 -73.5t-104.5 -133.5t-69 -208.5t-25.5 -290.5zM481 1503l371 329l133 -38l-473 -291h-31z" />
<glyph unicode="&#xd4;" horiz-adv-x="1486" d="M84 711q0 -124 23.5 -232.5t74 -200.5t125 -157t182.5 -102t240 -37t240 37t182.5 102t125 157t74 200.5t23.5 232.5q0 156 -38 289t-114.5 237t-202.5 163.5t-290 59.5t-290 -59.5t-202.5 -163.5t-114.5 -237t-38 -289zM260 711q0 163 25.5 290.5t69 208.5t104.5 133.5 t127 73.5t143 21q76 0 141.5 -21t126.5 -73.5t103.5 -133.5t68 -208.5t25.5 -290.5q0 -707 -465 -707q-469 0 -469 707zM444 1505l279 385l278 -385h-34l-244 236l-244 -236h-35z" />
<glyph unicode="&#xd5;" horiz-adv-x="1486" d="M84 711q0 -124 23.5 -232.5t74 -200.5t125 -157t182.5 -102t240 -37t240 37t182.5 102t125 157t74 200.5t23.5 232.5q0 156 -38 289t-114.5 237t-202.5 163.5t-290 59.5t-290 -59.5t-202.5 -163.5t-114.5 -237t-38 -289zM260 711q0 163 25.5 290.5t69 208.5t104.5 133.5 t127 73.5t143 21q76 0 141.5 -21t126.5 -73.5t103.5 -133.5t68 -208.5t25.5 -290.5q0 -707 -465 -707q-469 0 -469 707zM281 1589q23 59 55.5 102.5t66.5 65t69.5 33.5t66.5 12.5t55.5 -1.5t38.5 -7l14 -4l232 -90q26 -10 68.5 -11.5t89 6.5t87.5 33.5t58 65.5l12 -6 q-23 -60 -56 -103.5t-67 -65t-69.5 -33.5t-67 -12.5t-56 2t-38.5 6.5l-15 5l-227 88q-28 11 -69 14.5t-87 -2.5t-87.5 -32.5t-61.5 -69.5z" />
<glyph unicode="&#xd6;" horiz-adv-x="1486" d="M84 711q0 156 38 289t114.5 237t202.5 163.5t290 59.5t290 -59.5t202.5 -163.5t114.5 -237t38 -289q0 -124 -23.5 -232.5t-74 -200.5t-125 -157t-182.5 -102t-240 -37t-240 37t-182.5 102t-125 157t-74 200.5t-23.5 232.5zM260 711q0 -707 469 -707q465 0 465 707 q0 163 -25.5 290.5t-68 208.5t-103.5 133.5t-126.5 73.5t-141.5 21q-77 0 -143 -21t-127 -73.5t-104.5 -133.5t-69 -208.5t-25.5 -290.5zM502 1688q0 35 23 59.5t57 24.5t58 -24.5t24 -59.5q0 -34 -24 -58t-58 -24t-57 24t-23 58zM799 1688q0 35 23 59.5t57 24.5t59 -24.5 t25 -59.5q0 -34 -25 -58t-59 -24t-57 24t-23 58z" />
<glyph unicode="&#xd7;" horiz-adv-x="1228" d="M121 115l405 405l-405 406l90 90l403 -406l406 404l88 -88l-406 -406l406 -405l-88 -90l-406 407l-403 -407z" />
<glyph unicode="&#xd8;" horiz-adv-x="1488" d="M86 713q0 125 23.5 234.5t74 204.5t125 163t182.5 106.5t240 38.5q226 0 373 -104l102 170h43l-116 -195q122 -98 182.5 -259.5t60.5 -358.5q0 -157 -38 -287.5t-114.5 -231t-202 -156.5t-290.5 -56q-202 0 -346 86l-82 -140h-43l94 160q-134 91 -201 254t-67 371z M262 713q0 -370 137 -547l660 1112q-114 160 -328 160q-77 0 -143 -21t-127.5 -72.5t-104.5 -132.5t-68.5 -208t-25.5 -291zM424 133q113 -129 307 -129q465 0 465 709q0 339 -117 528z" />
<glyph unicode="&#xd9;" horiz-adv-x="1400" d="M37 1419q72 0 103.5 -36t31.5 -140v-758q0 -122 35.5 -219t97.5 -158.5t145 -93.5t181 -32q225 0 359.5 127.5t133.5 369.5v531v26q0 66 0.5 96t3 78t9 68t17.5 50.5t28.5 42t42.5 25.5t59.5 18.5t79.5 4.5v23h-487v-23q41 0 72 -5t54.5 -18.5t40 -28.5t27.5 -44t17 -55 t9 -72t4 -84t1 -102v-531q0 -198 -103.5 -310t-281.5 -112q-180 0 -284.5 108t-104.5 302v772q0 49 7.5 83t19 53t32.5 29t40 12.5t50 2.5v23h-440v-23zM410 1794l133 39l370 -330h-30z" />
<glyph unicode="&#xda;" horiz-adv-x="1400" d="M37 1419v23h440v-23q-31 0 -50 -2.5t-40 -12.5t-32.5 -29t-19 -53t-7.5 -83v-772q0 -194 104.5 -302t284.5 -108q178 0 281.5 112t103.5 310v531q0 64 -1 102t-4 84t-9 72t-17 55t-27.5 44t-40 28.5t-54.5 18.5t-72 5v23h487v-23q-52 0 -89 -8.5t-63.5 -18.5t-43 -39.5 t-26 -50t-13.5 -72.5t-4.5 -85.5t-0.5 -108.5v-26v-531q1 -242 -133.5 -369.5t-359.5 -127.5q-98 0 -181 32t-145 93.5t-97.5 158.5t-35.5 219v758q0 104 -31.5 140t-103.5 36zM461 1503l370 330l134 -39l-473 -291h-31z" />
<glyph unicode="&#xdb;" horiz-adv-x="1400" d="M37 1419q72 0 103.5 -36t31.5 -140v-758q0 -122 35.5 -219t97.5 -158.5t145 -93.5t181 -32q225 0 359.5 127.5t133.5 369.5v531v26q0 66 0.5 96t3 78t9 68t17.5 50.5t28.5 42t42.5 25.5t59.5 18.5t79.5 4.5v23h-487v-23q41 0 72 -5t54.5 -18.5t40 -28.5t27.5 -44t17 -55 t9 -72t4 -84t1 -102v-531q0 -198 -103.5 -310t-281.5 -112q-180 0 -284.5 108t-104.5 302v772q0 49 7.5 83t19 53t32.5 29t40 12.5t50 2.5v23h-440v-23zM412 1505l278 385l279 -385h-35l-244 236l-244 -236h-34z" />
<glyph unicode="&#xdc;" horiz-adv-x="1400" d="M37 1419v23h440v-23q-31 0 -50 -2.5t-40 -12.5t-32.5 -29t-19 -53t-7.5 -83v-772q0 -194 104.5 -302t284.5 -108q178 0 281.5 112t103.5 310v531q0 64 -1 102t-4 84t-9 72t-17 55t-27.5 44t-40 28.5t-54.5 18.5t-72 5v23h487v-23q-52 0 -89 -8.5t-63.5 -18.5t-43 -39.5 t-26 -50t-13.5 -72.5t-4.5 -85.5t-0.5 -108.5v-26v-531q1 -242 -133.5 -369.5t-359.5 -127.5q-98 0 -181 32t-145 93.5t-97.5 158.5t-35.5 219v758q0 104 -31.5 140t-103.5 36zM467 1688q0 35 23 59.5t57 24.5t58 -24.5t24 -59.5q0 -34 -24 -58t-58 -24t-57 24t-23 58z M764 1688q0 35 23 59.5t57 24.5t59 -24.5t25 -59.5q0 -34 -25 -58t-59 -24t-57 24t-23 58z" />
<glyph unicode="&#xdd;" horiz-adv-x="1335" d="M18 1421v21h461v-21h-23t-23.5 -2t-25 -5.5t-19.5 -11t-14.5 -19t-4.5 -29t5 -40t21 -54.5t37 -70l305 -522l166 336q26 55 42 91t33 84t21 78.5t-0.5 64.5t-24.5 53t-57.5 31.5t-93.5 12.5v23h484v-23q-25 0 -38 -1t-35 -6t-37 -17t-38 -33t-45.5 -53.5t-52.5 -79.5 t-65 -111.5t-78 -148.5l-170 -340v-408q0 -65 9.5 -106t31.5 -60t44.5 -24.5t59.5 -5.5v-25h-426v25q37 0 59.5 5.5t43.5 24.5t30.5 60t9.5 106v381q-134 236 -229 401t-123 212l-29 47q-25 44 -48 73.5t-39 45.5t-38.5 24.5t-34.5 10.5t-39 4q-8 1 -12 1zM455 1503l370 330 l133 -39l-473 -291h-30z" />
<glyph unicode="&#xde;" horiz-adv-x="1075" d="M78 0v23q63 0 91 53t28 160v1003q0 97 -26.5 139.5t-92.5 42.5v21h389v-21q-65 0 -93 -43t-28 -139v-53h19q84 0 146.5 -2.5t129.5 -9.5t115.5 -20t95.5 -34t78.5 -52t56 -73t36 -97.5t11.5 -125.5q0 -62 -10 -112.5t-27 -89.5t-46 -69.5t-61 -52t-78.5 -36.5t-91.5 -24 t-106.5 -14.5t-117.5 -7t-131 -1.5h-19v-129q0 -107 29 -160t92 -53v-23h-389zM346 387h19h4q77 0 115 1t101 8t95 21t74.5 42t62 68.5t34.5 102t15 142.5q0 82 -15 145.5t-35.5 104.5t-62.5 69.5t-74 43t-93.5 21.5t-97.5 8t-108 1h-15h-19v-778z" />
<glyph unicode="&#xdf;" horiz-adv-x="1159" d="M59 0v20q53 17 67.5 68.5t14.5 147.5v808q0 486 359 486q71 0 132 -10.5t116.5 -36t94.5 -65.5t62 -102t23 -142q0 -60 -18.5 -111t-48.5 -84t-64 -58t-68 -38.5t-58 -20t-36 -6.5q35 0 74 -5.5t86 -20t90 -36.5t84.5 -57.5t71.5 -80t48.5 -107.5t18.5 -137 q0 -199 -110 -314.5t-332 -115.5q-77 0 -127.5 34t-61.5 74q-15 51 12 86q20 25 53.5 28.5t57.5 -14.5t26.5 -54.5t-16.5 -57.5q-12 -19 -49 -29q-14 -1 0 -14q38 -29 105 -31q127 0 192.5 105t61.5 315q-2 103 -31 181t-70.5 122t-99 71t-107 35.5t-102.5 8.5v20 q38 0 70 5.5t70 25t64 52t44 93t18 142.5q0 68 -13 122t-32 87.5t-48 57.5t-51.5 35.5t-53 17.5t-43.5 6.5t-31 0.5h-4q-60 0 -103.5 -36.5t-63 -88t-31 -103t-12.5 -87.5l-1 -37v-1155h-230z" />
<glyph unicode="&#xe0;" d="M84 195q0 36 7.5 66.5t25.5 56.5t39.5 47t58.5 40.5t72 35t90.5 33t104 31t122.5 32.5v114q0 164 -73.5 239.5t-200.5 18.5q-40 -19 -65 -40.5t-26.5 -31.5t1.5 -14q38 -7 55 -30q23 -28 18.5 -62.5t-32.5 -58.5q-26 -22 -61 -18.5t-56 32.5q-32 43 -12 88q35 85 159 152 q38 19 84.5 29t73.5 10h27q73 0 124 -29t79.5 -85.5t40.5 -128t12 -167.5v-369q0 -5 0.5 -13.5t5 -29.5t12.5 -37t26.5 -29.5t43.5 -13.5q2 0 5.5 0.5t13 4t17.5 9.5t16.5 19t12.5 31l21 -8q-10 -52 -54 -94.5t-110 -42.5q-6 0 -16.5 0.5t-37 9.5t-47 25t-38 53t-19.5 88 q-22 -77 -102.5 -126.5t-186.5 -49.5q-9 0 -25 1.5t-55.5 13t-70 31.5t-55.5 63.5t-25 103.5zM213 1397l133 39l371 -330h-31zM225 231q0 -72 45.5 -123t130.5 -51q137 0 203 140v317q-193 -46 -286 -115t-93 -168z" />
<glyph unicode="&#xe1;" d="M84 195q0 36 7.5 66.5t25.5 56.5t39.5 47t58.5 40.5t72 35t90.5 33t104 31t122.5 32.5v114q0 164 -73.5 239.5t-200.5 18.5q-40 -19 -65 -40.5t-26.5 -31.5t1.5 -14q38 -7 55 -30q23 -28 18.5 -62.5t-32.5 -58.5q-26 -22 -61 -18.5t-56 32.5q-32 43 -12 88q35 85 159 152 q38 19 84.5 29t73.5 10h27q73 0 124 -29t79.5 -85.5t40.5 -128t12 -167.5v-369q0 -5 0.5 -13.5t5 -29.5t12.5 -37t26.5 -29.5t43.5 -13.5q2 0 5.5 0.5t13 4t17.5 9.5t16.5 19t12.5 31l21 -8q-10 -52 -54 -94.5t-110 -42.5q-6 0 -16.5 0.5t-37 9.5t-47 25t-38 53t-19.5 88 q-22 -77 -102.5 -126.5t-186.5 -49.5q-9 0 -25 1.5t-55.5 13t-70 31.5t-55.5 63.5t-25 103.5zM225 231q0 -72 45.5 -123t130.5 -51q137 0 203 140v317q-193 -46 -286 -115t-93 -168zM235 1106l371 329l133 -38l-473 -291h-31z" />
<glyph unicode="&#xe2;" d="M84 195q0 36 7.5 66.5t25.5 56.5t39.5 47t58.5 40.5t72 35t90.5 33t104 31t122.5 32.5v114q0 164 -73.5 239.5t-200.5 18.5q-40 -19 -65 -40.5t-26.5 -31.5t1.5 -14q38 -7 55 -30q23 -28 18.5 -62.5t-32.5 -58.5q-26 -22 -61 -18.5t-56 32.5q-32 43 -12 88q35 85 159 152 q38 19 84.5 29t73.5 10h27q73 0 124 -29t79.5 -85.5t40.5 -128t12 -167.5v-369q0 -5 0.5 -13.5t5 -29.5t12.5 -37t26.5 -29.5t43.5 -13.5q2 0 5.5 0.5t13 4t17.5 9.5t16.5 19t12.5 31l21 -8q-10 -52 -54 -94.5t-110 -42.5q-6 0 -16.5 0.5t-37 9.5t-47 25t-38 53t-19.5 88 q-22 -77 -102.5 -126.5t-186.5 -49.5q-9 0 -25 1.5t-55.5 13t-70 31.5t-55.5 63.5t-25 103.5zM215 1059l279 385l278 -385h-35l-243 235l-244 -235h-35zM225 231q0 -72 45.5 -123t130.5 -51q137 0 203 140v317q-193 -46 -286 -115t-93 -168z" />
<glyph unicode="&#xe3;" d="M49 1167q32 81 81.5 131.5t97 64.5t91 17t70.5 -4l27 -8l231 -90q26 -10 68.5 -11.5t89 6t87.5 33t58 64.5l13 -4q-23 -60 -56 -103.5t-67 -65t-69.5 -33.5t-67 -12.5t-56 2t-39.5 6.5l-14 5l-227 88q-28 10 -69 13.5t-87.5 -2.5t-88 -32t-61.5 -69zM84 195 q0 36 7.5 66.5t25.5 56.5t39.5 47t58.5 40.5t72 35t90.5 33t104 31t122.5 32.5v114q0 164 -73.5 239.5t-200.5 18.5q-40 -19 -65 -40.5t-26.5 -31.5t1.5 -14q38 -7 55 -30q23 -28 18.5 -62.5t-32.5 -58.5q-26 -22 -61 -18.5t-56 32.5q-32 43 -12 88q35 85 159 152 q38 19 84.5 29t73.5 10h27q73 0 124 -29t79.5 -85.5t40.5 -128t12 -167.5v-369q0 -5 0.5 -13.5t5 -29.5t12.5 -37t26.5 -29.5t43.5 -13.5q2 0 5.5 0.5t13 4t17.5 9.5t16.5 19t12.5 31l21 -8q-10 -52 -54 -94.5t-110 -42.5q-6 0 -16.5 0.5t-37 9.5t-47 25t-38 53t-19.5 88 q-22 -77 -102.5 -126.5t-186.5 -49.5q-9 0 -25 1.5t-55.5 13t-70 31.5t-55.5 63.5t-25 103.5zM225 231q0 -72 45.5 -123t130.5 -51q137 0 203 140v317q-193 -46 -286 -115t-93 -168z" />
<glyph unicode="&#xe4;" d="M84 195q0 36 7.5 66.5t25.5 56.5t39.5 47t58.5 40.5t72 35t90.5 33t104 31t122.5 32.5v114q0 164 -73.5 239.5t-200.5 18.5q-40 -19 -65 -40.5t-26.5 -31.5t1.5 -14q38 -7 55 -30q23 -28 18.5 -62.5t-32.5 -58.5q-26 -22 -61 -18.5t-56 32.5q-32 43 -12 88q35 85 159 152 q38 19 84.5 29t73.5 10h27q73 0 124 -29t79.5 -85.5t40.5 -128t12 -167.5v-369q0 -5 0.5 -13.5t5 -29.5t12.5 -37t26.5 -29.5t43.5 -13.5q2 0 5.5 0.5t13 4t17.5 9.5t16.5 19t12.5 31l21 -8q-10 -52 -54 -94.5t-110 -42.5q-6 0 -16.5 0.5t-37 9.5t-47 25t-38 53t-19.5 88 q-22 -77 -102.5 -126.5t-186.5 -49.5q-9 0 -25 1.5t-55.5 13t-70 31.5t-55.5 63.5t-25 103.5zM225 231q0 -72 45.5 -123t130.5 -51q137 0 203 140v317q-193 -46 -286 -115t-93 -168zM240 1262q0 35 23.5 59.5t58.5 24.5q34 0 57.5 -24.5t23.5 -59.5q0 -34 -23.5 -58 t-57.5 -24q-35 0 -58.5 24t-23.5 58zM539 1262q0 35 22.5 59.5t56.5 24.5t58 -24.5t24 -59.5q0 -34 -24 -58t-58 -24q-33 0 -56 24t-23 58z" />
<glyph unicode="&#xe5;" d="M84 195q0 36 7.5 66.5t25.5 56.5t39.5 47t58.5 40.5t72 35t90.5 33t104 31t122.5 32.5v114q0 164 -73.5 239.5t-200.5 18.5q-40 -19 -65 -40.5t-26.5 -31.5t1.5 -14q38 -7 55 -30q23 -28 18.5 -62.5t-32.5 -58.5q-26 -22 -61 -18.5t-56 32.5q-32 43 -12 88q35 85 159 152 q38 19 84.5 29t73.5 10h27q73 0 124 -29t79.5 -85.5t40.5 -128t12 -167.5v-369q0 -5 0.5 -13.5t5 -29.5t12.5 -37t26.5 -29.5t43.5 -13.5q2 0 5.5 0.5t13 4t17.5 9.5t16.5 19t12.5 31l21 -8q-10 -52 -54 -94.5t-110 -42.5q-6 0 -16.5 0.5t-37 9.5t-47 25t-38 53t-19.5 88 q-22 -77 -102.5 -126.5t-186.5 -49.5q-9 0 -25 1.5t-55.5 13t-70 31.5t-55.5 63.5t-25 103.5zM225 231q0 -72 45.5 -123t130.5 -51q137 0 203 140v317q-193 -46 -286 -115t-93 -168zM272 1307q0 82 57.5 139t139.5 57q80 0 137.5 -57.5t57.5 -138.5q0 -79 -58 -137t-137 -58 q-81 0 -139 57.5t-58 137.5zM332 1307q0 -57 39.5 -97.5t97.5 -40.5q56 0 95.5 40.5t39.5 97.5t-39.5 97t-95.5 40q-58 0 -97.5 -40t-39.5 -97z" />
<glyph unicode="&#xe6;" horiz-adv-x="1411" d="M84 195q0 45 12.5 80.5t42.5 65.5t66 53t97 46.5t121 42t152 43.5v125q0 167 -64 240.5t-189 17.5q-75 -35 -91 -71q-5 -13 2 -13q34 -7 56 -32q22 -28 17.5 -63t-32.5 -58q-27 -22 -61 -18.5t-55 32.5q-34 47 -13 88q36 86 156 150q38 19 79.5 29.5t63.5 10.5l23 1 q151 0 209 -156q63 79 130.5 117.5t160.5 38.5q170 0 265 -116t95 -364h-604q2 -217 67.5 -318.5t210.5 -107.5q94 -4 168.5 56t100.5 135l18 -12q-8 -37 -28.5 -76t-58 -82t-102.5 -70.5t-147 -27.5q-120 0 -208 57.5t-128 159.5q-23 -103 -104 -160t-195 -57q-9 0 -25 1.5 t-56 13t-71 31.5t-56 63.5t-25 103.5zM227 233q0 -75 44 -125.5t130 -50.5q77 0 129.5 48.5t73.5 115.5q-24 80 -29 221v62q-130 -39 -195 -74q-152 -83 -153 -197zM725 508h465q0 120 -21 209t-55.5 135.5t-71 68t-75.5 21.5q-100 0 -171 -109.5t-71 -324.5z" />
<glyph unicode="&#xe7;" horiz-adv-x="968" d="M92 469q0 97 34 186.5t95 158.5t153 110t199 41q65 0 116.5 -11.5t80.5 -28t49.5 -38t28 -36t10.5 -28.5q15 -51 -16 -82q-22 -22 -56.5 -23.5t-56.5 19.5q-25 25 -26 57.5t24 55.5q29 29 53 22q4 -1 4 2q-1 11 -36 30q-68 38 -175 38q-31 0 -67 -9t-83.5 -39t-84 -77 t-62.5 -133.5t-26 -198.5q0 -108 28.5 -191.5t75.5 -132t101 -73.5t112 -27q119 -5 203 57t113 142l16 -6q-6 -33 -20.5 -67t-44 -71.5t-68.5 -66.5t-99 -48t-132 -19q-15 0 -27 2l-41 -115q133 30 203.5 -24t58.5 -140q-20 -162 -207 -162q-93 0 -129 45q-14 21 -4 45 q7 17 25 23t35 -2q15 -7 20.5 -24.5t-2.5 -32.5t-23 -19q-4 0 3 -5t27.5 -10.5t47.5 -6.5q58 0 94.5 33t36.5 94q0 21 -5.5 42.5t-20.5 46t-40 39t-64 21t-93 -7.5l53 162q-75 8 -143 42t-124.5 92t-90 148.5t-33.5 200.5z" />
<glyph unicode="&#xe8;" horiz-adv-x="968" d="M74 463q0 -214 121 -347.5t309 -133.5q80 0 147 27t108 68t65 83.5t30 79.5l-16 6q-25 -80 -113 -137.5t-184 -53.5q-140 6 -223.5 110.5t-86.5 326.5h656q0 232 -108.5 352.5t-276.5 120.5q-183 0 -305.5 -137.5t-122.5 -364.5zM231 516q0 103 25.5 187t65.5 134.5 t86.5 77.5t91.5 27q37 0 77.5 -23t80 -70t65 -134t25.5 -199h-517zM254 1397l133 39l371 -330h-31z" />
<glyph unicode="&#xe9;" horiz-adv-x="968" d="M74 463q0 227 122.5 364.5t305.5 137.5q168 0 276.5 -120.5t108.5 -352.5h-656q3 -222 86.5 -326.5t223.5 -110.5q96 -4 184 53.5t113 137.5l16 -6q-6 -37 -30 -79.5t-65 -83.5t-108 -68t-147 -27q-188 0 -309 133.5t-121 347.5zM231 516h517q0 112 -25.5 199t-65 134 t-80 70t-77.5 23q-45 0 -91.5 -27t-86.5 -77.5t-65.5 -134.5t-25.5 -187zM231 1106l371 330l133 -39l-473 -291h-31z" />
<glyph unicode="&#xea;" horiz-adv-x="968" d="M74 463q0 -214 121 -347.5t309 -133.5q80 0 147 27t108 68t65 83.5t30 79.5l-16 6q-25 -80 -113 -137.5t-184 -53.5q-140 6 -223.5 110.5t-86.5 326.5h656q0 232 -108.5 352.5t-276.5 120.5q-183 0 -305.5 -137.5t-122.5 -364.5zM205 1059l278 385l279 -385h-35l-244 235 l-243 -235h-35zM231 516q0 103 25.5 187t65.5 134.5t86.5 77.5t91.5 27q37 0 77.5 -23t80 -70t65 -134t25.5 -199h-517z" />
<glyph unicode="&#xeb;" horiz-adv-x="968" d="M74 463q0 227 122.5 364.5t305.5 137.5q168 0 276.5 -120.5t108.5 -352.5h-656q3 -222 86.5 -326.5t223.5 -110.5q96 -4 184 53.5t113 137.5l16 -6q-6 -37 -30 -79.5t-65 -83.5t-108 -68t-147 -27q-188 0 -309 133.5t-121 347.5zM231 516h517q0 112 -25.5 199t-65 134 t-80 70t-77.5 23q-45 0 -91.5 -27t-86.5 -77.5t-65.5 -134.5t-25.5 -187zM266 1262q0 35 24 59.5t58 24.5t58 -24.5t24 -59.5q0 -34 -24 -58t-58 -24t-58 24t-24 58zM565 1262q0 35 23 59.5t57 24.5t59 -24.5t25 -59.5q0 -34 -25 -58t-59 -24t-57 24t-23 58z" />
<glyph unicode="&#xec;" horiz-adv-x="462" d="M-43 1397l133 39l371 -330h-31zM59 897q62 -9 82.5 -32.5t20.5 -78.5v-626q0 -79 -12 -99.5t-70 -37.5v-23h305v23q-41 10 -56 19.5t-21.5 34t-6.5 83.5v805l-242 -47v-21z" />
<glyph unicode="&#xed;" horiz-adv-x="462" d="M-18 1106l370 330l133 -39l-473 -291h-30zM59 897v21l242 47v-805q0 -59 6.5 -83.5t21.5 -34t56 -19.5v-23h-305v23q58 17 70 37.5t12 99.5v626q0 55 -20.5 78.5t-82.5 32.5z" />
<glyph unicode="&#xee;" horiz-adv-x="462" d="M-45 1059l278 385l279 -385h-35l-244 235l-243 -235h-35zM59 897q62 -9 82.5 -32.5t20.5 -78.5v-626q0 -79 -12 -99.5t-70 -37.5v-23h305v23q-41 10 -56 19.5t-21.5 34t-6.5 83.5v805l-242 -47v-21z" />
<glyph unicode="&#xef;" horiz-adv-x="462" d="M-10 1262q0 35 23.5 59.5t58.5 24.5q33 0 57.5 -24.5t24.5 -59.5q0 -33 -24.5 -57.5t-57.5 -24.5q-35 0 -58.5 24t-23.5 58zM59 897v21l242 47v-805q0 -59 6.5 -83.5t21.5 -34t56 -19.5v-23h-305v23q58 17 70 37.5t12 99.5v626q0 54 -21 78t-82 33zM287 1262 q0 35 23.5 59.5t58.5 24.5q34 0 58 -24.5t24 -59.5q0 -34 -24 -58t-58 -24q-35 0 -58.5 24t-23.5 58z" />
<glyph unicode="&#xf0;" horiz-adv-x="1050" d="M80 436q5 93 34.5 174.5t81 145.5t131 101.5t177.5 37.5q92 0 177 -40.5t132 -131.5q-1 139 -44.5 292.5t-106.5 244.5l-314 -160l-29 18l326 172q-123 148 -313 148v22q116 0 205.5 -34t175.5 -103l205 109l28 -21l-209 -113q99 -107 168.5 -271.5t69.5 -342.5 q0 -157 -28.5 -282.5t-87 -221t-154.5 -147t-224 -51.5q-62 0 -121 16.5t-112.5 53t-92.5 88.5t-59.5 128.5t-15.5 167.5zM256 422q-5 -114 11 -197.5t49 -130.5t74 -68.5t91 -21.5q175 0 253.5 158.5t78.5 515.5v4q-46 82 -120.5 123t-145.5 41q-133 0 -208 -111t-83 -313z " />
<glyph unicode="&#xf1;" horiz-adv-x="995" d="M20 897v21l244 47v-211q31 87 119 149t184 62q136 0 215.5 -79.5t79.5 -254.5v-471q0 -59 6.5 -84t22 -35.5t55.5 -20.5v-20h-305v20q58 17 70 39t12 101v463q0 122 -61 193t-173 71q-79 0 -140.5 -58t-84.5 -122v-547q0 -59 6.5 -83.5t21.5 -34t56 -19.5v-23h-307v23 q58 17 70 37.5t12 99.5v624q0 56 -20.5 80t-82.5 33zM61 1167q32 81 81.5 131.5t97 64.5t91 17t70.5 -4l27 -8l231 -90q26 -10 69 -11.5t89 6t87.5 33t58.5 64.5l12 -4q-23 -60 -56 -103.5t-67 -65t-69.5 -33.5t-67 -12.5t-56 2t-39.5 6.5l-14 5l-227 88q-40 15 -96.5 16.5 t-119.5 -24t-89 -82.5z" />
<glyph unicode="&#xf2;" horiz-adv-x="1093" d="M84 473q0 -102 29.5 -190t86 -155.5t146.5 -106.5t203 -39q114 0 204 39t146.5 106.5t85.5 155.5t29 190q0 103 -29 191t-85.5 156t-146.5 106.5t-204 38.5q-113 0 -203 -38.5t-146.5 -106.5t-86 -156t-29.5 -191zM248 473q0 469 301 469q51 0 93.5 -13t81.5 -45.5 t65.5 -84.5t42.5 -135t16 -191t-16 -191t-42.5 -135t-65.5 -84.5t-81.5 -45.5t-93.5 -13q-301 0 -301 469zM307 1397l133 39l371 -330h-31z" />
<glyph unicode="&#xf3;" horiz-adv-x="1093" d="M84 473q0 103 29.5 191t86 156t146.5 106.5t203 38.5q114 0 204 -38.5t146.5 -106.5t85.5 -156t29 -191q0 -102 -29 -190t-85.5 -155.5t-146.5 -106.5t-204 -39q-113 0 -203 39t-146.5 106.5t-86 155.5t-29.5 190zM248 473q0 -469 301 -469q51 0 93.5 13t81.5 45.5 t65.5 84.5t42.5 135t16 191t-16 191t-42.5 135t-65.5 84.5t-81.5 45.5t-93.5 13q-301 0 -301 -469zM283 1106l370 330l133 -39l-473 -291h-30z" />
<glyph unicode="&#xf4;" horiz-adv-x="1093" d="M84 473q0 -102 29.5 -190t86 -155.5t146.5 -106.5t203 -39q114 0 204 39t146.5 106.5t85.5 155.5t29 190q0 103 -29 191t-85.5 156t-146.5 106.5t-204 38.5q-113 0 -203 -38.5t-146.5 -106.5t-86 -156t-29.5 -191zM248 473q0 469 301 469q51 0 93.5 -13t81.5 -45.5 t65.5 -84.5t42.5 -135t16 -191t-16 -191t-42.5 -135t-65.5 -84.5t-81.5 -45.5t-93.5 -13q-301 0 -301 469zM264 1059l279 385l278 -385h-35l-243 235l-244 -235h-35z" />
<glyph unicode="&#xf5;" horiz-adv-x="1093" d="M84 473q0 -102 29.5 -190t86 -155.5t146.5 -106.5t203 -39q114 0 204 39t146.5 106.5t85.5 155.5t29 190q0 103 -29 191t-85.5 156t-146.5 106.5t-204 38.5q-113 0 -203 -38.5t-146.5 -106.5t-86 -156t-29.5 -191zM115 1167q23 59 55.5 102t66 64.5t69 34t66.5 13 t55.5 -2t38.5 -6.5l15 -4l230 -90q26 -10 68.5 -11.5t89 6t87.5 33t58 64.5l14 -4q-23 -60 -56.5 -103.5t-67.5 -65t-69.5 -33.5t-66.5 -12.5t-55.5 2t-38.5 6.5l-15 5l-229 88q-39 15 -95.5 16.5t-119.5 -24.5t-88 -82zM248 473q0 469 301 469q51 0 93.5 -13t81.5 -45.5 t65.5 -84.5t42.5 -135t16 -191t-16 -191t-42.5 -135t-65.5 -84.5t-81.5 -45.5t-93.5 -13q-301 0 -301 469z" />
<glyph unicode="&#xf6;" horiz-adv-x="1093" d="M84 473q0 103 29.5 191t86 156t146.5 106.5t203 38.5q114 0 204 -38.5t146.5 -106.5t85.5 -156t29 -191q0 -102 -29 -190t-85.5 -155.5t-146.5 -106.5t-204 -39q-113 0 -203 39t-146.5 106.5t-86 155.5t-29.5 190zM248 473q0 -469 301 -469q51 0 93.5 13t81.5 45.5 t65.5 84.5t42.5 135t16 191t-16 191t-42.5 135t-65.5 84.5t-81.5 45.5t-93.5 13q-301 0 -301 -469zM324 1262q0 35 24 59.5t58 24.5t57.5 -24.5t23.5 -59.5q0 -34 -23.5 -58t-57.5 -24t-58 24t-24 58zM623 1262q0 35 22.5 59.5t56.5 24.5t59 -24.5t25 -59.5q0 -34 -25 -58 t-59 -24q-33 0 -56 24t-23 58z" />
<glyph unicode="&#xf7;" horiz-adv-x="1280" d="M92 514v107h1098v-107h-1098zM541 125q0 41 29.5 70.5t70.5 29.5t69.5 -29.5t28.5 -70.5t-28.5 -70.5t-69.5 -29.5t-70.5 29.5t-29.5 70.5zM541 1012q0 41 29.5 70.5t70.5 29.5t69.5 -29.5t28.5 -70.5q0 -42 -28.5 -71.5t-69.5 -29.5t-70.5 30t-29.5 71z" />
<glyph unicode="&#xf8;" horiz-adv-x="1093" d="M84 469q0 103 29.5 192t86 157t146.5 107.5t203 39.5q130 0 233 -54l92 164h33l-100 -176q101 -61 154 -175t53 -255q0 -102 -29 -189.5t-85.5 -154.5t-146.5 -105t-204 -38q-133 0 -234 53l-98 -172h-33l107 186q-102 61 -154.5 172t-52.5 248zM248 469q0 -234 86 -348 l407 727q-66 94 -192 94q-301 0 -301 -473zM352 96q64 -92 197 -92q51 0 93.5 12.5t81.5 44.5t65.5 83.5t42.5 134t16 190.5q0 235 -88 352z" />
<glyph unicode="&#xf9;" horiz-adv-x="1026" d="M35 905q32 0 48.5 -0.5t32 -7.5t20.5 -12.5t9.5 -27t4.5 -38.5v-59v-471q0 -307 309 -307q102 0 182.5 58.5t103.5 139.5v-170q0 -1 0.5 -3.5t3 -8.5t7.5 -9t14 -6t23 1l198 32v21q-65 8 -84.5 30t-19.5 95v803l-238 -37v-23q20 0 32 -0.5t24 -4.5t17.5 -5t11 -12t7 -15 t3 -25t1.5 -31v-42v-541q-26 -73 -83.5 -121.5t-143.5 -48.5q-99 0 -165 57t-66 179v670l-252 -37v-23zM274 1397l134 39l370 -330h-30z" />
<glyph unicode="&#xfa;" horiz-adv-x="1026" d="M35 905v23l252 37v-670q0 -122 66 -179t165 -57q86 0 143.5 48.5t83.5 121.5v541v7q0 91 -12.5 109t-83.5 19v23l238 37v-803q0 -73 19.5 -95t84.5 -30v-21l-198 -32q-21 -4 -33 2.5t-14 15.5l-1 8v170q-23 -81 -103.5 -139.5t-182.5 -58.5q-309 0 -309 307v471v59 t-4.5 38.5t-9.5 27t-20.5 12.5t-32 7.5t-48.5 0.5zM262 1106l371 329l133 -38l-473 -291h-31z" />
<glyph unicode="&#xfb;" horiz-adv-x="1026" d="M35 905q32 0 48.5 -0.5t32 -7.5t20.5 -12.5t9.5 -27t4.5 -38.5v-59v-471q0 -307 309 -307q102 0 182.5 58.5t103.5 139.5v-170q0 -1 0.5 -3.5t3 -8.5t7.5 -9t14 -6t23 1l198 32v21q-65 8 -84.5 30t-19.5 95v803l-238 -37v-23q20 0 32 -0.5t24 -4.5t17.5 -5t11 -12t7 -15 t3 -25t1.5 -31v-42v-541q-26 -73 -83.5 -121.5t-143.5 -48.5q-99 0 -165 57t-66 179v670l-252 -37v-23zM223 1059l279 385l278 -385h-35l-243 235l-244 -235h-35z" />
<glyph unicode="&#xfc;" horiz-adv-x="1026" d="M35 905v23l252 37v-670q0 -122 66 -179t165 -57q86 0 143.5 48.5t83.5 121.5v541v7q0 91 -12.5 109t-83.5 19v23l238 37v-803q0 -73 19.5 -95t84.5 -30v-21l-198 -32q-21 -4 -33 2.5t-14 15.5l-1 8v170q-23 -81 -103.5 -139.5t-182.5 -58.5q-309 0 -309 307v471v59 t-4.5 38.5t-9.5 27t-20.5 12.5t-32 7.5t-48.5 0.5zM274 1262q0 35 23 59.5t57 24.5t59 -24.5t25 -59.5q0 -34 -25 -58t-59 -24t-57 24t-23 58zM571 1262q0 35 23.5 59.5t58.5 24.5q33 0 57.5 -24.5t24.5 -59.5q0 -33 -24.5 -57.5t-57.5 -24.5q-35 0 -58.5 24t-23.5 58z" />
<glyph unicode="&#xfd;" horiz-adv-x="1087" d="M23 924v22h395v-22q-41 0 -62.5 -16.5t-23.5 -40t1.5 -47t10.5 -40.5l8 -16l269 -582l153 418q3 7 7 18.5t12 45.5t12 65t0.5 68.5t-17 64.5t-45.5 45t-81 17v22h393v-22q-30 0 -49.5 -5t-45 -23t-48 -53.5t-51.5 -97.5t-62 -153l-324 -887q-37 -111 -110 -170 q-19 -16 -49.5 -19.5t-55.5 7.5q-35 15 -48.5 51t1.5 70t51.5 47.5t69.5 -0.5q34 -14 47 -56q5 -23 28 4q22 26 40 74l102 281q-135 295 -229 499t-121 260l-27 56q-49 109 -151 115zM305 1112l371 330l133 -39l-473 -291h-31z" />
<glyph unicode="&#xfe;" horiz-adv-x="1107" d="M31 1427v23l243 47v-688q42 73 127 114.5t172 41.5q107 0 190.5 -40.5t134.5 -111t77 -159t26 -189.5q0 -228 -130 -355.5t-336 -127.5q-152 0 -261 84v-453q0 -36 2.5 -56t5.5 -34t15.5 -21.5t23 -11t37.5 -10.5v-23h-307v23q59 17 70.5 36t11.5 97v1710q0 56 -20 78 t-82 26zM274 272q6 -125 75 -196.5t177 -71.5q42 0 82 11.5t80.5 42t70.5 77t49 122.5t19 173q0 236 -83 357.5t-224 121.5q-108 0 -174 -67t-72 -178v-392z" />
<glyph unicode="&#xff;" horiz-adv-x="1087" d="M23 924v22h395v-22q-41 0 -62.5 -16.5t-23.5 -40t1.5 -47t10.5 -40.5l8 -16l269 -582l153 418q3 7 7 18.5t12 45.5t12 65t0.5 68.5t-17 64.5t-45.5 45t-81 17v22h393v-22q-30 0 -49.5 -5t-45 -23t-48 -53.5t-51.5 -97.5t-62 -153l-324 -887q-37 -111 -110 -170 q-19 -16 -49.5 -19.5t-55.5 7.5q-35 15 -48.5 51t1.5 70q15 35 50.5 48t70.5 -1q34 -14 47 -56q5 -23 28 4q22 26 40 74l102 281q-135 295 -229 499t-121 260l-27 56q-49 109 -151 115zM317 1262q0 35 23.5 59.5t58.5 24.5q34 0 58 -24.5t24 -59.5q0 -34 -24 -58t-58 -24 q-35 0 -58.5 24t-23.5 58zM616 1262q0 35 23 59.5t57 24.5t58 -24.5t24 -59.5q0 -34 -24 -58t-58 -24t-57 24t-23 58z" />
<glyph unicode="&#x152;" horiz-adv-x="1820" d="M86 709q0 126 19 234t64 204.5t113 164t172 107t236 39.5q49 0 131 -16h842v-359h-23q-4 70 -21 124t-39 89.5t-62.5 60t-73.5 37t-91 19t-96 7.5t-106 1h-98v-680h100q91 0 132 15q104 37 108 186h22v-430h-22q-1 42 -11 75.5t-22.5 54.5t-34.5 36t-38.5 22t-44 10.5 t-41 4t-38.5 0.5h-10h-100v-692h73q182 0 247 10q161 24 230 133q56 90 64 250h23v-416h-865q-77 -18 -135 -18q-132 0 -235.5 37t-172 101t-113.5 157t-64 199.5t-19 232.5zM262 709q0 -165 21.5 -289.5t58.5 -203t92.5 -127.5t117 -68t138.5 -19q85 0 140 38.5t55 125.5 v1089q0 181 -195 181q-76 0 -138.5 -21.5t-117.5 -73.5t-92 -133.5t-58.5 -208t-21.5 -290.5z" />
<glyph unicode="&#x153;" horiz-adv-x="1615" d="M84 471q0 83 14 155t46 135.5t80 108t120.5 70t163.5 25.5q129 0 209.5 -54.5t138.5 -156.5q61 104 138 157.5t180 53.5q166 0 263 -121t97 -369h-600q1 -212 69 -311t205 -105q94 -4 173 58.5t100 132.5l18 -8q-6 -29 -18 -59.5t-37.5 -68t-59.5 -65.5t-87.5 -47.5 t-118.5 -19.5q-112 0 -189 49t-137 147q-59 -98 -136.5 -147t-207.5 -49q-91 0 -163.5 25.5t-120.5 69.5t-80 106.5t-46 133.5t-14 154zM248 471q0 -109 12 -190.5t33.5 -134t55 -84.5t71.5 -45t88 -13q62 0 107 21.5t80 72.5t53 144t18 229t-18 229.5t-53 145.5t-80 74 t-107 22q-50 0 -88 -13t-71.5 -46t-55 -86t-33.5 -135t-12 -191zM934 500h463q0 120 -21.5 210.5t-56.5 138.5t-71.5 70.5t-73.5 22.5q-100 0 -170 -113t-70 -329z" />
<glyph unicode="&#x178;" horiz-adv-x="1335" d="M18 1423v21h461v-21q-20 0 -30 -0.5t-30.5 -4.5t-29 -12t-16.5 -25t-4 -41.5t19 -62.5t44 -87l305 -522l162 336q18 38 30 63.5t27 61.5t22.5 60t15 54t6.5 50.5t-5 43t-18 36.5t-33.5 26.5t-50 18t-70.5 5.5v21h484v-21q-28 0 -43 -1.5t-39.5 -10t-43.5 -26t-47 -49.5 t-58 -81t-69.5 -119.5t-88.5 -166.5l-170 -340v-408q0 -65 9.5 -106t31.5 -60t44.5 -24.5t59.5 -5.5v-25h-426v25q37 0 59.5 5.5t43.5 24.5t30.5 60t9.5 106v381q-134 236 -229 401t-123 212l-29 47q-18 32 -35.5 56.5t-29.5 40.5t-30 28t-24.5 17.5t-28 10t-25 5t-29.5 2.5 q-2 0 -3 0.5t-3 0.5h-3zM449 1690q0 36 23 60t58 24q33 0 57.5 -24.5t24.5 -59.5q0 -33 -24.5 -57.5t-57.5 -24.5q-35 0 -58 24t-23 58zM745 1690q0 35 24 59.5t58 24.5t58 -24.5t24 -59.5q0 -34 -24 -58t-58 -24t-58 24t-24 58z" />
<glyph unicode="&#x2c6;" horiz-adv-x="557" d="M0 1087l279 386l278 -386h-35l-243 234l-244 -234h-35z" />
<glyph unicode="&#x2dc;" horiz-adv-x="843" d="M-37 1176q32 81 81.5 131t97 64t91 16t70.5 -5l27 -8l231 -88q26 -11 68.5 -12.5t89 6t87.5 33t58 65.5l13 -6q-32 -81 -81.5 -131.5t-97.5 -64.5t-92 -16t-71 6l-27 8l-227 88q-28 10 -69 13t-87.5 -3.5t-88 -32t-61.5 -68.5z" />
<glyph unicode="&#x2000;" horiz-adv-x="999" />
<glyph unicode="&#x2001;" horiz-adv-x="1999" />
<glyph unicode="&#x2002;" horiz-adv-x="999" />
<glyph unicode="&#x2003;" horiz-adv-x="1999" />
<glyph unicode="&#x2004;" horiz-adv-x="666" />
<glyph unicode="&#x2005;" horiz-adv-x="499" />
<glyph unicode="&#x2006;" horiz-adv-x="333" />
<glyph unicode="&#x2007;" horiz-adv-x="333" />
<glyph unicode="&#x2008;" horiz-adv-x="249" />
<glyph unicode="&#x2009;" horiz-adv-x="399" />
<glyph unicode="&#x200a;" horiz-adv-x="111" />
<glyph unicode="&#x2010;" horiz-adv-x="909" d="M131 465v113h645v-113h-645z" />
<glyph unicode="&#x2011;" horiz-adv-x="909" d="M131 465v113h645v-113h-645z" />
<glyph unicode="&#x2012;" horiz-adv-x="909" d="M131 465v113h645v-113h-645z" />
<glyph unicode="&#x2013;" horiz-adv-x="1148" d="M0 473v88h1149v-88h-1149z" />
<glyph unicode="&#x2014;" horiz-adv-x="2160" d="M0 473v88h2161v-88h-2161z" />
<glyph unicode="&#x2018;" horiz-adv-x="417" d="M123 1135q4 78 45 145q15 27 26.5 43.5t40 41.5t68.5 46l10 -10q-42 -29 -68.5 -62t-35 -60.5t-8.5 -51t8 -37.5t18 -16q42 -7 66 -29q28 -28 29 -66.5t-27 -66.5q-30 -29 -68.5 -28.5t-66.5 28.5q-41 45 -37 123z" />
<glyph unicode="&#x2019;" horiz-adv-x="423" d="M114 1309.5q-1 38.5 27 66.5q30 29 68.5 28.5t66.5 -28.5q41 -45 37 -123t-45 -145q-15 -27 -26.5 -43.5t-40 -41.5t-68.5 -46l-10 10q42 29 68.5 62t35 60.5t8.5 51t-8 37.5t-18 16q-42 7 -66 29q-28 28 -29 66.5z" />
<glyph unicode="&#x201a;" horiz-adv-x="417" d="M112 83q-1 39 27 67q30 29 68.5 28.5t66.5 -28.5q41 -45 37 -123.5t-45 -145.5q-15 -27 -26.5 -43.5t-40 -41.5t-68.5 -46l-10 10q42 29 68.5 62t35 61t8.5 51.5t-8 37.5t-18 16q-43 8 -66 28q-28 28 -29 67z" />
<glyph unicode="&#x201c;" horiz-adv-x="784" d="M107 1143q5 77 45 145q18 29 28.5 44t39.5 40.5t69 46.5l8 -10q-42 -29 -68.5 -62t-34.5 -60.5t-7.5 -51t8.5 -37.5t18 -16q41 -7 63 -29q29 -28 30 -66.5t-27 -66.5q-28 -29 -68 -28.5t-68 28.5q-41 46 -36 123zM463 1143q4 78 45 145q15 27 26.5 43.5t40 41.5t68.5 46 l10 -10q-42 -29 -68.5 -62t-35 -60.5t-8.5 -51t8 -37.5t18 -16q42 -7 66 -29q28 -28 29 -66.5t-27 -66.5q-30 -29 -68.5 -28.5t-66.5 28.5q-41 45 -37 123z" />
<glyph unicode="&#x201d;" horiz-adv-x="774" d="M112 1326.5q-1 38.5 27 66.5q30 29 68.5 28.5t66.5 -28.5q41 -45 37 -123.5t-45 -145.5q-15 -27 -26.5 -43.5t-40 -41.5t-68.5 -46l-10 11q42 29 68.5 62t35 60.5t8.5 51t-8 37.5t-18 16q-42 7 -66 29q-28 28 -29 66.5zM468.5 1326.5q-0.5 38.5 27.5 66.5 q28 29 67.5 28.5t67.5 -28.5q41 -46 36.5 -123.5t-44.5 -145.5q-17 -28 -28.5 -43.5t-40.5 -41t-69 -46.5l-8 11q42 29 68.5 62t34.5 60.5t7.5 51t-8.5 37.5t-18 16q-41 7 -63 29q-29 28 -29.5 66.5z" />
<glyph unicode="&#x201e;" horiz-adv-x="774" d="M112 85q-1 39 27 67q30 29 68.5 28.5t66.5 -28.5q41 -45 37 -123.5t-45 -145.5q-15 -27 -26.5 -43.5t-40 -41.5t-68.5 -46l-10 10q42 29 68.5 62t35 61t8.5 51.5t-8 37.5t-18 16q-43 8 -66 28q-28 28 -29 67zM468.5 85q-0.5 39 27.5 67q28 29 67.5 28.5t67.5 -28.5 q41 -46 36.5 -123.5t-44.5 -145.5q-17 -28 -28.5 -43.5t-40.5 -41t-69 -46.5l-8 10q42 29 68.5 62t34.5 61t7.5 51.5t-8.5 37.5t-18 16q-42 7 -63 28q-29 28 -29.5 67z" />
<glyph unicode="&#x2022;" horiz-adv-x="839" d="M219 698q0 76 53 128.5t127 52.5t126.5 -52.5t52.5 -128.5q0 -72 -53 -124t-126 -52q-74 0 -127 52t-53 124z" />
<glyph unicode="&#x2026;" horiz-adv-x="1280" d="M176 78q0 40 27 68t65 28q40 0 68.5 -28t28.5 -68q0 -39 -28.5 -66.5t-68.5 -27.5q-38 0 -65 27t-27 67zM535 78q0 40 27 68t67 28q38 0 66 -28t28 -68q0 -39 -27.5 -66.5t-66.5 -27.5q-40 0 -67 27t-27 67zM895 78q0 40 27 68t67 28q39 0 67.5 -28.5t28.5 -67.5 t-28.5 -66.5t-67.5 -27.5q-40 0 -67 27t-27 67z" />
<glyph unicode="&#x202f;" horiz-adv-x="399" />
<glyph unicode="&#x2039;" horiz-adv-x="694" d="M102 545l473 489v-41l-331 -448l331 -439v-38z" />
<glyph unicode="&#x203a;" horiz-adv-x="694" d="M98 68v38l330 439l-330 448v41l473 -489z" />
<glyph unicode="&#x205f;" horiz-adv-x="499" />
<glyph unicode="&#x20ac;" horiz-adv-x="1193" d="M29 606l18 27h199q0 15 -1 44t-1 44q0 14 1 46t1 48h-217l18 29h201q22 305 145.5 460.5t345.5 155.5q117 0 182 -22t154 -92v-271h-22q0 71 -14 128.5t-35 94.5t-51.5 64.5t-58.5 41.5t-61 22t-53 10t-41 2q-38 0 -73 -10t-80 -47t-79 -98t-61 -174.5t-34 -264.5h442 l-16 -29h-428q0 -9 -1 -45t-1 -49q0 -12 1 -45t1 -43h411l-16 -27h-395q7 -157 34.5 -273t61.5 -177t80 -97.5t80.5 -45.5t72.5 -9q28 0 57.5 4t79 25t86 56.5t64 107.5t27.5 170h22v-271q-108 -72 -166.5 -93t-171.5 -21q-221 0 -345 159.5t-144 464.5h-219z" />
<glyph unicode="&#x2122;" horiz-adv-x="1329" d="M27 1274v168h493v-168h-22q0 41 -12 70.5t-27 43.5t-36 21.5t-31 8.5t-21 1h-66v-481q0 -37 12.5 -49t40.5 -12v-23h-172v23q29 0 42.5 12t13.5 49v481h-66q-18 0 -29 -1t-32 -8.5t-33.5 -21.5t-22.5 -43.5t-10 -70.5h-22zM586 854v23q65 0 87.5 43t22.5 153v303 q-29 43 -92 43v23h146l219 -484l170 484h131v-23q-31 0 -47.5 -15.5t-16.5 -57.5v-383q0 -86 68 -86v-23h-195v23q30 0 45 18t15 68v409l-187 -526h-12l-221 493v-266q0 -114 17 -155t75 -41v-23h-225z" />
<glyph unicode="&#x25fc;" horiz-adv-x="942" d="M0 0v942h942v-942h-942z" />
<glyph unicode="&#xfb01;" horiz-adv-x="1005" d="M37 946h133v12q0 165 28 277.5t84.5 175.5t129.5 89t174 26q95 0 168.5 -46.5t83.5 -142.5q4 -66 -31 -98q-28 -26 -66 -24.5t-63 28.5q-26 29 -24.5 66t30.5 63q29 29 64 23q19 -2 18 15q-2 28 -45 57q-55 38 -135 38q-27 0 -48 -2.5t-51 -14.5t-52.5 -33t-47 -61 t-40 -95t-26 -139t-10.5 -189v-25h291h242v-790q0 -59 6.5 -83.5t21.5 -34.5t56 -20v-18h-305v18q58 17 70 38t12 100v651q0 58 -22.5 87.5t-80.5 29.5h-291v-777q0 -79 22 -101t85 -30v-16h-328v16q57 10 68.5 30.5t11.5 100.5v777h-131z" />
<glyph unicode="&#xfb02;" horiz-adv-x="972" d="M18 946h134v41q0 282 87.5 410.5t252.5 128.5q126 0 196 -45l178 47v-1372q0 -36 2.5 -56t5.5 -34t15.5 -21.5t23 -11t37.5 -10.5v-23h-307v23q59 17 70.5 36t11.5 97v1183q0 136 -176 150q-37 3 -68 -4.5t-67.5 -38t-61.5 -85t-42 -155.5t-17 -239v-21h219l-4 -22h-215 v-777q0 -42 5.5 -66t22 -36.5t30.5 -16t48 -8.5v-20h-327v20q58 10 69 29t11 98v777h-132z" />
</font>
</defs>
</svg>
