<?xml version="1.0" standalone="no"?>
<!DOCTYPE svg PUBLIC "-//W3C//DTD SVG 1.1//EN" "http://www.w3.org/Graphics/SVG/1.1/DTD/svg11.dtd" >
<svg xmlns="http://www.w3.org/2000/svg" xmlns:xlink="http://www.w3.org/1999/xlink" version="1.1">
<metadata></metadata>
<defs>
<font id="butlerextrabold" horiz-adv-x="1116" >
<font-face units-per-em="2048" ascent="1505" descent="-543" />
<missing-glyph horiz-adv-x="557" />
<glyph horiz-adv-x="0" />
<glyph horiz-adv-x="682" />
<glyph unicode=" "  horiz-adv-x="557" />
<glyph unicode="&#x09;" horiz-adv-x="557" />
<glyph unicode="&#xa0;" horiz-adv-x="557" />
<glyph unicode="!" horiz-adv-x="729" d="M195 158q0 -73 52 -124.5t124 -51.5t124 51.5t52 124.5t-52 124.5t-124 51.5t-124 -51.5t-52 -124.5zM209 1526h332l-78 -1030h-184z" />
<glyph unicode="&#x22;" horiz-adv-x="1142" d="M207 1442h305l-63 -672h-175zM657 1442h306l-64 -672h-176z" />
<glyph unicode="#" horiz-adv-x="1495" d="M90 434v213h285l67 295h-223v213h273l88 373h211l-86 -373h276l88 373h213l-88 -373h223v-213h-272l-70 -295h213v-213h-260l-100 -434h-213l100 434h-278l-101 -434h-211l101 434h-236zM588 647h276l70 295h-279z" />
<glyph unicode="$" horiz-adv-x="1230" d="M84.5 975q-56.5 162 69.5 330q4 6 13.5 16.5t45.5 37.5t81 47t124.5 37t171.5 17v250h26v-250q93 -1 176.5 -11.5t136.5 -24.5t93 -27.5t57 -22.5l17 -10v-344h-19q-15 47 -33 90.5t-57 104t-86.5 104.5t-122 77.5t-162.5 37.5v-469l263 -172q206 -136 263 -305t-55 -338 q-18 -22 -34.5 -38t-57 -42.5t-87 -43.5t-123.5 -30.5t-169 -13.5v-250h-26v250q-101 3 -190 15.5t-144 29t-95.5 32t-57.5 26.5l-17 11v393h16q13 -45 35.5 -96t65 -117.5t94.5 -120t129 -95.5t164 -52v520l-228 146q-221 139 -277.5 301zM394 1229q5 -55 48.5 -116.5 t120.5 -111.5l27 -20v453q-65 0 -113.5 -28t-68 -75t-14.5 -102zM616 8q79 0 132.5 32t72 84.5t12 113.5t-47.5 124.5t-107 112.5l-62 37v-504z" />
<glyph unicode="%" horiz-adv-x="2162" d="M289 1012q0 79 17.5 144.5t54 118t99 82t146.5 29.5q83 0 145 -29.5t98 -82t53.5 -118t17.5 -144.5q0 -163 -76 -262t-238 -99q-84 0 -146.5 27.5t-99 78t-54 114t-17.5 141.5zM496 0l1056 1442h168l-1056 -1442h-168zM502 1012q0 -90 2 -142.5t8 -94.5t18 -60.5 t29.5 -27.5t46.5 -9q24 0 40 4.5t28.5 20.5t18.5 36.5t10 62.5t5 87.5t1 122.5q0 90 -2 144.5t-8 98.5t-18 64.5t-29.5 30.5t-45.5 10q-24 0 -40.5 -5.5t-28.5 -23t-18.5 -39.5t-10.5 -65.5t-5 -90.5t-1 -124zM1272 408q0 79 17.5 144.5t54 117.5t99 81t146.5 29 q83 0 145.5 -29t99 -81t54 -117.5t17.5 -144.5t-17.5 -142.5t-54 -113.5t-99 -77.5t-145.5 -27.5q-164 0 -240.5 98.5t-76.5 262.5zM1485 408q0 -91 2 -143.5t7.5 -94.5t18 -60.5t30 -27t46.5 -8.5q25 0 40.5 4.5t28 20.5t18.5 36t10 62t5 88t1 123q0 90 -2 144t-8 97.5 t-18 64t-29.5 30.5t-45.5 10q-24 0 -40.5 -5.5t-28.5 -22.5t-18.5 -39.5t-10.5 -65.5t-5 -90t-1 -123z" />
<glyph unicode="&#x26;" horiz-adv-x="1687" d="M142 366.5q7 49.5 32.5 98.5t57.5 86.5t75.5 75t78.5 61t75 47.5l59 37l-90 135q-75 102 -93 210t15 192.5t112 142.5t189 66q112 8 195.5 -42t116.5 -147q85 -251 -164 -430l254 -381q94 184 250 225q35 12 82 6t79 -32q47 -38 52.5 -100.5t-35.5 -112.5 q-40 -47 -103 -52.5t-110 35.5q-51 41 -51 101q-1 28 -36 18q-47 -13 -87 -68q-15 -20 -25 -42q24 -39 82 -123.5t72 -102.5q76 -108 178 -108q130 0 143 102h29q1 -128 -74 -204t-201 -78q-25 -1 -53.5 1t-69 9.5t-81.5 27t-70 48.5q-25 22 -123 157q-19 -58 -66 -107.5 t-108 -82.5t-134.5 -46.5t-143 -5.5t-135.5 47.5t-111 106.5q-40 60 -55 120t-8 109.5zM406.5 448.5q19.5 -91.5 89.5 -180.5q36 -46 88.5 -78t108 -42t108.5 15t84 87l-346 498l-60 -39q-48 -38 -70 -103.5t-2.5 -157zM600 1278q-5 -69 49 -152l135 -202q61 41 100 90 t53 91t14.5 85.5t-6.5 72.5t-19 54q-31 64 -82.5 101t-110.5 28q-51 -7 -89.5 -53t-43.5 -115z" />
<glyph unicode="'" horiz-adv-x="602" d="M154 1442h305l-64 -672h-176z" />
<glyph unicode="(" horiz-adv-x="720" d="M162 507v13q0 159 19 261q81 445 511 745l29 -27q-256 -301 -256 -985q0 -680 252 -909l-29 -27q-85 48 -157 106t-122.5 113t-91.5 120.5t-66 118.5t-43.5 118t-27 108t-13 100t-5 81.5t-0.5 63.5z" />
<glyph unicode=")" horiz-adv-x="714" d="M-4 1499l29 27q110 -76 197 -164t141.5 -165t93.5 -167t57.5 -152t28.5 -141t11 -114t1 -88v-15q0 -165 -22 -275q-88 -432 -504 -667l-29 27q252 229 252 909q0 684 -256 985z" />
<glyph unicode="*" horiz-adv-x="1153" d="M129 1034l78 234l315 -187l-78 361h246l-78 -361l320 187l76 -234l-367 -37l274 -245l-198 -144l-150 338l-147 -338l-199 144l275 245z" />
<glyph unicode="+" horiz-adv-x="1464" d="M115 518v232h499v518h232v-518h500v-232h-500v-518h-232v518h-499z" />
<glyph unicode="," horiz-adv-x="587" d="M118.5 174q-0.5 80 55.5 137q56 55 135 55t135 -55q41 -41 51 -99t-7 -118t-40 -109t-53 -94q-65 -96 -182 -161l-18 24q53 41 87.5 98.5t35 91t-12.5 42.5q-85 11 -129 53q-57 55 -57.5 135z" />
<glyph unicode="-" horiz-adv-x="909" d="M131 401v238h645v-238h-645z" />
<glyph unicode="." horiz-adv-x="612" d="M121 180q0 80 56.5 137.5t135.5 57.5q78 0 134.5 -57.5t56.5 -137.5q0 -79 -56.5 -134.5t-134.5 -55.5q-80 0 -136 55.5t-56 134.5z" />
<glyph unicode="/" horiz-adv-x="915" d="M29 -43l630 1528h222l-631 -1528h-221z" />
<glyph unicode="0" horiz-adv-x="1357" d="M66 709q0 126 20 235t66 205.5t116 164t175 107t237 39.5t236.5 -39.5t174 -107t115.5 -164t66 -205.5t20 -235q0 -125 -20 -231.5t-66 -199.5t-115.5 -157.5t-174 -101.5t-236.5 -37q-133 0 -237.5 37t-174.5 101.5t-116 157.5t-66 199.5t-20 231.5zM471 709 q0 -176 5.5 -289.5t18 -198.5t37 -129t59.5 -64t89 -20q44 0 75 12.5t55 45.5t38 81.5t23 131t12.5 183t3.5 247.5q0 176 -5.5 292.5t-18.5 204.5t-37.5 135.5t-59 70t-86.5 22.5q-45 0 -76.5 -14t-55.5 -49.5t-38.5 -87t-23.5 -137t-12 -187.5t-3 -250z" />
<glyph unicode="1" horiz-adv-x="858" d="M84 1143l393 317h129v-1276q0 -91 30.5 -125t90.5 -34v-25h-575v25q68 0 105.5 36t37.5 123v889q0 38 -11 61.5t-28 30t-37.5 5t-41.5 -10t-38 -17.5t-28 -16l-11 -8z" />
<glyph unicode="2" horiz-adv-x="1017" d="M57 0l441 612q158 250 100 417q-36 101 -139 141q-99 38 -197 0q-100 -40 -130 -139q-6 -20 -9 -42l-33 -4q-12 90 8.5 169.5t63 134t99.5 94.5t116.5 58.5t114.5 18.5q152 0 261 -106.5t109 -247.5q0 -78 -44.5 -164.5t-97.5 -147t-133.5 -146t-115.5 -130.5l-168 -227 h434q57 0 110 29.5t85 87.5h26l-112 -408h-789z" />
<glyph unicode="3" horiz-adv-x="1097" d="M71.5 199q-5.5 49 14.5 92q29 63 93 86t124 -6q63 -29 87 -92.5t-5 -126.5q-32 -66 -90 -80q-12 -2 -2 -17q25 -36 122 -45q24 -2 52 -2q87 0 141 53t69.5 136t0.5 186q-5 38 -14.5 72t-34.5 81.5t-61 82.5t-99.5 62.5t-144.5 33.5v26q88 22 146.5 66.5t80 97.5t21.5 108 t-23 102t-60 75q-47 35 -116 40.5t-133 -28t-86 -100.5l-25 2q-1 71 23 131.5t62.5 101t88 69t99 41.5t96.5 13q84 0 158 -31t124.5 -82t75.5 -119.5t18.5 -140t-55.5 -147.5t-137 -139q146 -36 236.5 -134.5t93.5 -209.5t-30.5 -197t-87.5 -137t-129 -84t-146.5 -45 t-149.5 -12q-127 0 -215 33t-150 104q-27 31 -32.5 80z" />
<glyph unicode="4" horiz-adv-x="1126" d="M59 401v35l713 1024l96 -18v-897h193v-144h-193v-112q0 -76 6.5 -126t15 -77.5t28.5 -40.5t35.5 -15.5t47.5 -2.5v-27h-600v27q31 0 47.5 2.5t36 15.5t28.5 39.5t15.5 74.5t6.5 120v122h-476zM202.5 569q-0.5 -11 9 -16.5t18 -6.5t24.5 -1h281v526l-289 -416 q-22 -31 -32.5 -53t-11 -33z" />
<glyph unicode="5" horiz-adv-x="1120" d="M102 254q15 68 77 105t132 22q67 -15 104.5 -75.5t22.5 -131.5q-18 -72 -71 -102q-18 -8 -7 -26q21 -38 138 -38q67 0 121 21t87 56.5t54.5 81.5t21.5 96.5t-12 101.5q-6 21 -16 41.5t-29 48.5t-44.5 51t-63 48.5t-85 41t-110 28.5t-138 11t-169.5 -12l155 819h736 l-95 -305h-669l-47 -234q184 31 324.5 15.5t239.5 -59t160.5 -113.5t89 -147.5t25.5 -162.5q-3 -92 -32.5 -168t-79.5 -128.5t-117 -88.5t-144 -52.5t-163 -16.5q-219 0 -340 100q-34 28 -50 76.5t-6 95.5z" />
<glyph unicode="6" horiz-adv-x="1222" d="M86 651q0 186 47.5 338.5t132 255.5t201 159t252.5 56q69 0 128 -17.5t96 -44.5t56.5 -47.5t30.5 -37.5q22 -35 21 -85t-27 -91q-38 -60 -106 -76.5t-130 20.5q-60 37 -75 107.5t24 128.5q40 62 103 74q10 1 -1 13q-30 30 -120 30q-259 0 -262 -707q26 82 112 126t183 44 q91 0 161.5 -25.5t114 -68t71 -102t38 -121.5t10.5 -134q0 -154 -68 -260t-182.5 -155t-267.5 -49q-265 0 -404 178t-139 491zM457 662q0 -103 1.5 -176t5.5 -146.5t12 -121.5t20.5 -91t31 -67.5t43.5 -38t58 -13.5q113 0 144.5 76.5t31.5 321.5q0 405 -164 405 q-27 0 -56 -7.5t-59 -23.5t-49.5 -46.5t-19.5 -71.5z" />
<glyph unicode="7" horiz-adv-x="1153" d="M94 1018l68 424h923l-176 -305q-61 -115 -104.5 -258t-64 -255t-31.5 -255.5t-12 -207t-1 -161.5h-342q7 109 22 200t50.5 201.5t92 219t147.5 240t215 276.5h-553q-58 0 -117.5 -31t-89.5 -88h-27z" />
<glyph unicode="8" horiz-adv-x="1167" d="M74 330q0 67 28.5 128.5t73.5 104t93 71.5t93 42q-249 165 -249 395q0 177 127 283t338 106q204 0 316 -80.5t112 -220.5q0 -54 -23 -103.5t-60 -84t-79.5 -57.5t-85.5 -33q161 -75 252.5 -201t91.5 -262q0 -216 -130.5 -326t-377.5 -110q-256 0 -388 84t-132 264z M319 344q0 -162 70.5 -249t204.5 -87q98 0 159.5 58.5t67.5 160.5q6 96 -61 180t-174 146q-10 5 -86.5 46.5t-81.5 43.5q-43 -31 -71 -105.5t-28 -193.5zM389 1237q-7 -100 66 -178q37 -43 102 -78q17 -10 82.5 -43t87.5 -41q86 51 86 248q0 151 -76 227q-62 62 -159 62 q-79 0 -132 -53.5t-57 -143.5z" />
<glyph unicode="9" horiz-adv-x="1200" d="M76 997q0 154 68.5 260t183 154.5t266.5 48.5q184 0 307 -82.5t179.5 -229.5t56.5 -355q0 -156 -20 -278.5t-65.5 -224t-118 -168.5t-180.5 -103.5t-249 -36.5q-76 0 -137.5 17.5t-98 45.5t-54.5 47t-28 37q-24 36 -23 86.5t27 91.5q38 61 106.5 76t129.5 -23 q60 -37 75 -106t-22 -129q-44 -64 -104 -72q-11 -1 3 -13q34 -32 126 -32q180 0 220.5 133.5t43.5 579.5q-30 -83 -113 -128.5t-170 -45.5q-409 0 -409 450zM418 1038q0 -405 155 -405q74 0 134.5 39t60.5 116q0 360 -33 503t-137 143q-73 0 -110.5 -34t-53.5 -117t-16 -245 z" />
<glyph unicode=":" horiz-adv-x="598" d="M111 172q0 80 56.5 137.5t137.5 57.5q78 0 135.5 -58t57.5 -137q0 -81 -57 -138t-136 -57q-82 0 -138 56.5t-56 138.5zM111 780q0 80 56.5 137.5t137.5 57.5q78 0 135.5 -58t57.5 -137t-57.5 -135.5t-135.5 -56.5q-81 0 -137.5 56t-56.5 136z" />
<glyph unicode=";" horiz-adv-x="593" d="M111 784q0 80 56.5 137.5t137.5 57.5q79 0 136 -57.5t57 -137.5q0 -81 -56.5 -137.5t-136.5 -56.5q-82 0 -138 56t-56 138zM114 173.5q-1 78.5 56 135.5q56 57 134 56.5t134 -56.5q41 -41 52 -98.5t-5 -117.5t-38.5 -109t-51.5 -93q-60 -87 -188 -159l-19 24 q55 38 90 95.5t35.5 91t-12.5 41.5q-85 11 -129 55q-57 56 -58 134.5z" />
<glyph unicode="&#x3c;" horiz-adv-x="1228" d="M94 500v88l1039 532v-233l-676 -342l676 -346v-232z" />
<glyph unicode="=" horiz-adv-x="1255" d="M115 213v205h1046v-205h-1046zM115 674v205h1046v-205h-1046z" />
<glyph unicode="&#x3e;" horiz-adv-x="1228" d="M96 -33v234l676 342l-676 346v231l1039 -532v-88z" />
<glyph unicode="?" horiz-adv-x="1228" d="M162 1223q7 56 55 118.5t127 98.5q120 53 249 58t232 -32.5t171.5 -117.5t72.5 -187q4 -86 -15.5 -159t-52.5 -122t-77 -87t-84.5 -58t-79.5 -30q-89 -23 -141.5 -81.5t-45.5 -146.5l-36 -4q-1 4 -5.5 31.5t-5.5 40t-2.5 40.5t4 47.5t14 46.5t27 52t43.5 49q69 65 92 153 t11 224q-7 77 -39.5 138.5t-81.5 95.5t-109.5 43.5t-122.5 -17.5q-49 -19 -58 -61q-6 -28 12 -34q3 -1 6 -1q56 0 100 -47q44 -46 41.5 -110t-47.5 -107q-45 -42 -108.5 -37t-108.5 51q-49 54 -37 152zM399 166q0 73 52 124.5t124 51.5q74 0 126.5 -51.5t52.5 -124.5 t-52.5 -124.5t-126.5 -51.5q-72 0 -124 51.5t-52 124.5z" />
<glyph unicode="@" horiz-adv-x="1921" d="M78 360q7 171 66.5 320t158.5 259.5t229 188t284 113t317 27.5q115 -6 219.5 -38t197 -95t157 -151.5t95.5 -217t17 -281.5q-9 -94 -35.5 -172t-63 -131.5t-83.5 -95t-94 -65.5t-98 -38.5t-92 -19.5t-79 -4q-92 1 -137 47t-37 105q-8 -12 -20 -26.5t-39 -38t-57.5 -42 t-75.5 -32t-93 -13.5q-54 0 -97 26t-67.5 67t-41.5 92t-17.5 101.5t4.5 94.5q7 51 23 105.5t51.5 123t83.5 120.5t125.5 88t171.5 36q34 0 64 -9t48.5 -22t32 -27t19.5 -23t6 -11l10 53l227 -4q-105 -534 -121 -606q-10 -55 -2 -71q11 -19 43 -19q28 0 63.5 14.5t75.5 49 t73 83t56 123.5t25 164q1 63 -2 116t-16 114t-35.5 109.5t-61.5 96t-92.5 81.5t-131.5 58t-175 33q-121 10 -230 -12.5t-193.5 -71t-153.5 -116.5t-117 -149.5t-78.5 -168t-42.5 -174.5q-2 -9 -4 -24.5t-4 -63t0.5 -94.5t15 -111.5t35 -121.5t65 -117t100 -105t145.5 -79 t196 -46q80 -8 149 -1t126 24t97.5 34.5t62.5 30.5l22 14l14 -22q-6 -7 -18.5 -18t-59.5 -39t-103 -49t-152 -38t-204 -16q-67 0 -136.5 11t-146 37.5t-145 65.5t-130 101.5t-105 140.5t-67 186.5t-17.5 235.5zM868 420q-35 -160 5 -239.5t114 -84.5q25 -2 47 6t36 21 t24.5 26.5t15.5 22.5l4 10q3 15 16 76.5t28 135.5t26 134q5 33 7.5 64t0 74.5t-21.5 70t-54 27.5q-84 1 -149.5 -100t-98.5 -244z" />
<glyph unicode="A" horiz-adv-x="1499" d="M35 0v25q25 2 38.5 5t45.5 25.5t61.5 64t75 127t96.5 206.5l385 989h23l536 -1258q12 -27 23 -48.5t23.5 -37t21 -27.5t22 -19.5t19 -12.5t20 -7.5t17 -3.5t18.5 -2l15 -1v-25h-652v25q45 0 66.5 23.5t20 57.5t-9.5 67.5t-19 56.5l-11 24l-63 145h-445q-6 -14 -10 -45 q-4 -30 -6 -74v-10q0 -38 12 -78q12 -44 36 -83t72 -63q45 -22 105 -21h11v-25h-547zM369 426h428l-226 530z" />
<glyph unicode="B" horiz-adv-x="1411" d="M76 0v18q42 0 69.5 38t38.5 94.5t11 130.5v878q0 51 -6 96t-19.5 84.5t-37.5 62.5t-56 23v17h559h7q63 0 95.5 -0.5t91.5 -3.5t91.5 -9t81 -18.5t75.5 -30t60 -44.5t50 -62t28.5 -83t11.5 -106q0 -62 -20.5 -115t-53 -87.5t-74.5 -61.5t-82 -42t-79.5 -24.5t-63 -12.5 t-35.5 -3q36 0 70.5 -2t87 -10.5t97 -23.5t92.5 -43t81 -66t54.5 -96.5t21.5 -130.5q0 -75 -21 -133t-52 -96.5t-88 -65t-106.5 -40.5t-131 -21.5t-138.5 -9t-151 -1.5h-559zM555 27h55q127 0 176 14q104 29 140 143q24 75 24 191q0 69 -12 124t-29.5 90t-47.5 60.5 t-55.5 38t-64 19.5t-63 8.5t-62.5 1.5h-61v-690zM555 743h70q38 0 69 6.5t66 28.5t59 58.5t39.5 102.5t15.5 155q0 64 -10 115t-25.5 84t-39.5 57t-45.5 36t-51 19t-49 8.5t-45.5 1.5h-53v-672z" />
<glyph unicode="C" horiz-adv-x="1433" d="M82 721q0 213 101 382.5t276.5 263t392.5 93.5q370 0 504 -110l-25 -367h-24q-113 451 -455 451q-89 0 -148.5 -32.5t-103 -113t-63 -219.5t-19.5 -348t20.5 -348.5t64.5 -219.5t103 -112.5t146 -32.5q74 0 144 27t132.5 80.5t109.5 142.5t69 203h24l25 -369 q-77 -51 -210 -80.5t-294 -29.5q-217 0 -392.5 93t-276.5 262.5t-101 383.5z" />
<glyph unicode="D" horiz-adv-x="1605" d="M84 0v27q64 0 100.5 72.5t36.5 181.5v878q0 103 -36.5 179.5t-100.5 76.5v27h573q93 0 177.5 -8.5t174 -31t164.5 -57.5t143 -92t114.5 -131t74 -178t27.5 -229t-27.5 -228t-74 -175.5t-114.5 -128.5t-142.5 -90t-165 -55.5t-174 -29.5t-177.5 -8h-573zM567 27h90 q56 0 94.5 3.5t88.5 19t83.5 42.5t68.5 78t56 122.5t34.5 179t13.5 243.5q0 135 -13 242t-34 180t-55 125t-68.5 81.5t-83 46t-89 21t-96.5 4.5h-90v-1388z" />
<glyph unicode="E" horiz-adv-x="1349" d="M55 0v27q61 0 90 70.5t29 183.5v878q0 69 -10.5 123.5t-38 93.5t-70.5 39v27h1149v-406h-26q-5 77 -40 139.5t-86.5 101t-113 67t-121.5 41.5t-109.5 20.5t-80.5 8.5l-31 1h-74v-674h121q6 0 15.5 0.5t37 4.5t53.5 11.5t58 24.5t56.5 40.5t43 61.5t23.5 85h26v-482h-26 q-6 64 -38 111t-73 68.5t-81 33.5t-68 14l-27 1h-121v-688h74h19.5t51.5 3t77.5 8.5t90.5 19t98 32t94 49.5t83.5 69.5t61 94t32.5 121.5h27v-424h-1176z" />
<glyph unicode="F" horiz-adv-x="1249" d="M51 0v27q62 0 90.5 70t28.5 184v878q0 69 -10.5 123.5t-38 93.5t-70.5 39v27h1170v-406h-27q-7 79 -44 142.5t-90.5 102t-117 67t-125 40.5t-112 19t-81.5 7l-32 1h-72v-674h127q6 0 15.5 0.5t37.5 4.5t54.5 11.5t59.5 24.5t58 40t45.5 61t26.5 86h27v-482h-27 q-6 47 -26 85t-46.5 61t-57.5 40t-60 24t-53.5 11.5t-38.5 4.5h-15h-127v-447q0 -50 8.5 -89.5t20.5 -64t31.5 -42t34.5 -25.5t37 -12.5t31 -4.5t24 -1v-27h-656z" />
<glyph unicode="G" horiz-adv-x="1548" d="M80 721q0 209 95.5 377.5t268.5 265t390 96.5q188 0 307 -25t213 -87l-27 -377h-43q-9 114 -41.5 200t-75.5 135t-103 79t-113.5 39.5t-116.5 9.5q-120 0 -186 -61.5t-97 -215t-31 -436.5q0 -282 32 -436.5t97.5 -215.5t184.5 -61q148 0 196.5 51.5t48.5 202.5 q0 76 -6 124.5t-15.5 77.5t-31 43t-43 17.5t-61.5 3.5v27h577v-27q-68 0 -91 -20q-34 -30 -41 -150q-5 -75 -5 -276q-89 -46 -228.5 -73t-299.5 -27q-217 0 -390 96.5t-268.5 265t-95.5 377.5z" />
<glyph unicode="H" horiz-adv-x="1452" d="M53 0v27q15 2 27.5 7t22 10.5t16.5 15.5t11.5 18t7.5 22.5t4.5 24t2 27t0.5 27v30v29.5v960q0 107 -11 144q-19 68 -81 73v27h479v-27q-12 -2 -21 -9t-14.5 -22.5t-8.5 -28.5t-4 -37t-1.5 -38t0 -42.5t0.5 -39.5v-493h496v493v30.5v32.5v31t-1.5 31t-3.5 27.5t-6 25 t-9 19t-12.5 14.5t-16.5 6v27h477v-27q-22 -2 -38 -11t-25.5 -27t-15.5 -34t-8 -44t-2.5 -44t-0.5 -46v-11v-960v-29.5v-30t0.5 -27.5t2 -27t5 -23.5t8 -22.5t11 -17.5t15.5 -16t21 -10.5t27 -7v-27h-477v27q18 3 28.5 17.5t15 46.5t5 52.5t0.5 67.5v27v436h-496v-436 q0 -123 6 -154q11 -51 43 -57v-27h-479z" />
<glyph unicode="I" horiz-adv-x="815" d="M80 0v27q73 0 113 47.5t40 165.5v993q0 107 -38.5 144.5t-114.5 37.5v27h661v-27q-75 0 -114 -37.5t-39 -144.5v-993q0 -118 40.5 -165.5t112.5 -47.5v-27h-661z" />
<glyph unicode="J" horiz-adv-x="921" d="M0 -317q70 25 128 73t107.5 127.5t77 204.5t27.5 285v635q0 294 -17 351.5t-110 57.5v25h623v-25q-74 0 -106 -32t-32 -125v-887q0 -143 -40.5 -259t-105.5 -192.5t-157.5 -132.5t-186 -85.5t-200.5 -45.5z" />
<glyph unicode="K" horiz-adv-x="1699" d="M86 0v27q66 0 90.5 36t24.5 138v1052q0 95 -24.5 128.5t-90.5 33.5v27h602v-27q-39 0 -60.5 -4.5t-42 -20t-28.5 -49t-8 -88.5v-1052q0 -101 28.5 -137.5t96.5 -36.5v-27h-588zM637 637l315 354q24 26 51 74.5t46 108.5t21 113q0 4 1 7q1 48 -31 83q-34 37 -104 38v27 h676v-27q-54 0 -115.5 -22.5t-148 -79t-203.5 -171t-256 -280.5l520 -694q37 -48 73.5 -79t72 -43t54 -15t48.5 -4v-27h-344q-43 0 -73 1.5t-61.5 10.5t-51.5 16.5t-48.5 31t-47.5 43t-53 63t-60 80t-74 104.5q-52 75 -103.5 146.5t-77.5 105.5z" />
<glyph unicode="L" horiz-adv-x="1349" d="M78 1415v27h631v-27q-37 0 -61 -5t-45.5 -21.5t-31.5 -50.5t-10 -87v-1224h37q27 0 59.5 2t90 11.5t110.5 26t112.5 48t104 74t77.5 108.5t40 147h27v-444h-1125v27q64 0 89.5 46.5t25.5 153.5v1039q0 89 -30 119t-101 30z" />
<glyph unicode="M" horiz-adv-x="2062" d="M18 0v27q75 0 133 40t90 97.5t52.5 131t26.5 129.5t6 105v725q-28 49 -58 82.5t-60 48.5t-51.5 21t-47.5 8v27h550l494 -991l383 991h475v-27q-71 0 -99 -36.5t-28 -129.5v-1030q0 -101 37.5 -146.5t110.5 -45.5v-27h-623v27q69 0 98 44t29 148v1147l-539 -1384h-26 l-619 1230v-682q0 -39 4 -84t14.5 -105t32.5 -113t53 -99.5t81 -74t112 -27.5v-27h-631z" />
<glyph unicode="N" horiz-adv-x="1720" d="M10 1415v27h578l762 -1012v522q0 37 -5 85t-23.5 118t-47.5 125.5t-84 95.5q-54 39 -123 39h-4v27h620v-27q-58 0 -106 -20.5t-79 -53.5t-54.5 -78.5t-36 -88t-20 -89.5t-9.5 -77t-2 -56v-952h-168l-833 1112v-620q0 -28 1 -52.5t7 -75t16.5 -91t32.5 -88.5t52 -81 t78 -55t108 -22v-27h-637v27q61 0 111 22t81.5 55.5t56 80t36.5 89.5t19.5 90.5t9 75.5t1.5 52v651l-88 119q-23 29 -45.5 52.5t-39.5 39t-36.5 27t-31 17.5t-29 9.5t-24.5 4.5t-24 2t-20 1z" />
<glyph unicode="O" horiz-adv-x="1615" d="M84 711q0 152 51 288t143 238.5t230 162.5t303 60t303 -60t230 -162.5t143 -238.5t51 -288q0 -153 -51 -286t-143 -231.5t-230 -155t-303 -56.5t-303 56.5t-230 155t-143 231.5t-51 286zM506 711q0 -175 8.5 -290.5t28 -199.5t56 -128.5t86.5 -64.5t126 -20 q62 0 106.5 12.5t79 45t56 82.5t35 131t19 184t5.5 248q0 174 -8.5 291.5t-27.5 204.5t-54.5 135t-86 70t-124.5 22q-75 0 -125.5 -22t-87 -70t-56 -135t-28 -204.5t-8.5 -291.5z" />
<glyph unicode="P" horiz-adv-x="1382" d="M55 1415v27h518q96 0 171 -3.5t156 -14.5t141.5 -30t116.5 -50t91.5 -74t56.5 -104t21 -138q0 -76 -21 -136.5t-56.5 -103.5t-91.5 -74t-116.5 -50t-141.5 -30t-156.5 -14.5t-170.5 -3.5h-36v-335q0 -52 6.5 -92t16 -66.5t26.5 -45.5t31.5 -28.5t39 -14.5t41 -6t43.5 -1 v-27h-673v27q62 0 88 51.5t26 159.5v972q0 205 -127 205zM537 643h36q58 0 88 1t72 6t62 15t46 28.5t37.5 46t23.5 68.5t16 95t4 125q0 72 -4 127.5t-17.5 96t-24.5 69t-38.5 46.5t-46 27.5t-61.5 14t-69.5 5.5t-83.5 1h-4h-36v-772z" />
<glyph unicode="Q" horiz-adv-x="1601" d="M84 711q0 152 51 288t143 238.5t230 162.5t303 60t303 -60t230 -162.5t143 -238.5t51 -288q0 -153 -51 -286t-143 -231.5t-230 -155t-303 -56.5t-303 56.5t-230 155t-143 231.5t-51 286zM219 -283q75 63 156 107t150 62.5t135 27.5q42 5 78 5q21 0 40 -2q51 -5 90 -11.5 t60 -13.5l20 -7l350 -118q24 -8 46.5 -12.5t41 -7t38.5 -0.5t33 3.5t30 7.5t26 9.5t23.5 12t19 11.5t17.5 11.5t14 9.5l17 -21l-238 -205q-49 -40 -105 -58.5t-113 -19.5h-6q-56 0 -131 18q-79 20 -154.5 47.5t-186.5 74.5l-176 73q-22 9 -42 14.5t-36 9t-33.5 3t-28.5 -0.5 t-26.5 -5t-22 -7t-20.5 -9.5t-17 -9t-16 -10t-14 -9.5zM506 711q0 -175 8.5 -290.5t28 -199.5t56 -128.5t86.5 -64.5t126 -20q62 0 106.5 12.5t79 45t56 82.5t35 131t19 184t5.5 248q0 174 -8.5 291.5t-27.5 204.5t-54.5 135t-86 70t-124.5 22q-75 0 -125.5 -22t-87 -70 t-56 -135t-28 -204.5t-8.5 -291.5z" />
<glyph unicode="R" horiz-adv-x="1548" d="M47 0v27q47 0 73 16.5t40 63.5t14 133v993q0 96 -30 139t-97 43v27h545q112 0 197 -5.5t173.5 -20t151 -42t113 -70t75.5 -106t25 -147.5q0 -343 -440 -371h21q46 0 85 -7q47 -9 95 -36.5t86 -75t74 -126.5t65 -187q14 -55 43.5 -99t63 -69t63 -38t51.5 -15v-27h-297 q-177 0 -224 61t-111 342q-3 12 -4.5 19t-4 17.5t-4.5 19.5q-13 59 -45 101t-68.5 61t-71 29.5t-56.5 11.5h-23h-97v-422q0 -123 28 -168t95 -45v-27h-604zM528 688h64q141 0 189 13q77 21 108 99q31 80 31 251q0 78 -7.5 135t-17 96.5t-34 65t-42.5 39t-59.5 20t-68 7.5 t-84.5 1h-5h-5h-5h-64v-727z" />
<glyph unicode="S" horiz-adv-x="1269" d="M86 975q-17 50 -17 101q0 113 87 229q4 6 13.5 16.5t45.5 37.5t81 47t124.5 37t171.5 17q98 0 186 -10t144 -24t98 -28t60 -24l18 -10v-344h-27q-134 414 -479 414q-65 0 -113.5 -28t-68.5 -75q-16 -37 -15 -80q0 -11 1 -22q5 -55 48.5 -116.5t120.5 -111.5l316 -208 q205 -136 263 -305q20 -57 20 -115q0 -112 -74 -223q-2 -4 -6.5 -10t-22.5 -23.5t-39.5 -33t-59 -35t-81 -33.5t-106 -23.5t-132.5 -9.5q-111 0 -209 11.5t-158.5 28.5t-105.5 34t-64 28l-18 12v393h27q15 -49 37 -101.5t67.5 -123.5t101 -125t140.5 -92.5t182 -38.5 q53 0 95.5 22t67.5 58q24 38 30 86q2 16 3 32q0 33 -9 67q-13 51 -51.5 104.5t-98.5 97.5l-315 199q-223 139 -279 301z" />
<glyph unicode="T" horiz-adv-x="1488" d="M39 1006v436h1407v-436h-27q-3 72 -33 134.5t-75 105.5t-98 77t-105.5 53t-92.5 29t-63 10h-30v-1175q0 -103 34.5 -158t98.5 -55v-27h-625v27q64 0 98.5 55t34.5 158v1175h-31q-30 0 -80.5 -13t-117 -45t-124 -76.5t-99.5 -117t-45 -157.5h-27z" />
<glyph unicode="U" horiz-adv-x="1556" d="M55 1415v27h619v-27q-71 0 -104 -38t-33 -142v-766q0 -177 91 -271t242 -94q143 0 238.5 100.5t95.5 264.5v571q0 27 -3 57.5t-11.5 76.5t-27.5 85.5t-46.5 76t-73 58t-102.5 21.5v27h578l2 -27q-55 0 -100.5 -16.5t-75 -42.5t-51.5 -62.5t-33.5 -70.5t-18.5 -72.5 t-8.5 -63t-1.5 -47.5v-571q0 -102 -29 -185t-77.5 -138.5t-116.5 -93t-143 -54t-158 -16.5q-106 0 -200.5 32t-168.5 92.5t-117 158t-43 218.5v752q0 95 -28 137.5t-95 42.5z" />
<glyph unicode="V" horiz-adv-x="1619" d="M27 1415v27h667v-27q-44 0 -66 -24.5t-22 -59.5q0 -3 -1 -5q0 -32 6 -64q6 -34 15 -60l9 -24l315 -744l213 531q9 22 17 60t14 90q2 20 2 41q0 30 -6 62q-8 52 -28.5 97t-68 72.5t-116.5 27.5v27h600v-27q-33 0 -58.5 -6t-64.5 -32.5t-76 -73.5t-86 -134.5t-102 -210.5 l-387 -958h-47l-551 1249q-20 47 -40.5 79.5t-35.5 49t-36 25t-32 10t-34 2.5z" />
<glyph unicode="W" horiz-adv-x="2330" d="M43 1415v27h647v-27q-44 0 -66 -24.5t-22 -59.5q0 -3 -1 -5q0 -32 6 -64q6 -34 15 -60l9 -24l301 -725l178 485q-28 64 -59.5 142t-49.5 124l-18 45q-20 48 -39.5 80.5t-33.5 49t-34.5 25t-30 9.5t-32.5 2v27h645v-27q-44 -1 -66 -25q-23 -25 -24 -64q0 -32 6 -64 q6 -34 16 -60l9 -24l299 -729l190 516q10 28 18 75q9 50 10 118q0 66 -15 120q-15 56 -63.5 96.5t-127.5 40.5v27h592v-27q-30 0 -58 -8.5t-67 -37t-77.5 -76.5t-87 -133.5t-97.5 -201.5l-356 -958h-54q-54 125 -210 496t-171 405l-327 -901h-56q-115 268 -247 580t-206 490 l-75 179q-20 48 -39.5 80.5t-33.5 49t-34.5 25t-30 9.5t-32.5 2z" />
<glyph unicode="X" horiz-adv-x="1708" d="M39 1415v27h723v-27q-30 0 -52 -13q-21 -14 -30 -38q-4 -10 -4 -23q0 -17 8 -41q12 -40 47 -90l236 -327q77 104 110 149q7 10 18 29.5t25.5 49.5t25 62.5t16.5 66.5q4 19 4 37q0 15 -2 29q-6 31 -22 55.5t-52.5 39t-90.5 14.5v27h619v-27q-20 -1 -29.5 -1.5t-43 -8.5 t-60 -22t-73 -44t-91 -71.5t-104 -108t-121.5 -149.5l-113 -152l457 -651q137 -178 239 -182v-25h-686v25q36 5 48.5 29t5 54t-20 60t-24.5 50l-13 20l-225 321l-111 -151q-13 -18 -28 -50t-31 -76.5t-19 -88.5q-1 -10 -1 -20q0 -33 8 -62q10 -38 49 -62t104 -24v-25h-622 v25q55 2 89 13q176 60 431 392l112 154q-68 100 -182.5 262t-194.5 274l-81 111q-83 108 -140.5 145t-107.5 39z" />
<glyph unicode="Y" horiz-adv-x="1613" d="M39 1417v25h635v-25h-2q-25 0 -38 -1.5t-28.5 -13.5t-14 -35t19.5 -69.5t57 -113.5l295 -490q118 244 147 307q10 20 22.5 62.5t19.5 104.5q2 26 2 51q0 34 -5 65q-9 54 -52 92.5t-120 38.5v27h604v-27q-31 0 -64 -9t-80.5 -38t-94.5 -75t-104 -127t-110 -187l-151 -309 v-430q0 -213 123 -213v-27h-598v27q125 0 125 213v325q-134 236 -234 408.5t-133 226.5l-33 55q-26 45 -49.5 76.5t-40 47.5t-36 25t-31 10.5t-31.5 2.5z" />
<glyph unicode="Z" horiz-adv-x="1300" d="M45 0l799 1415h-96q-234 0 -406.5 -109t-210.5 -278h-29l33 414h1120l-743 -1415h59q256 0 427.5 129.5t205.5 320.5h27l-41 -477h-1145z" />
<glyph unicode="[" horiz-adv-x="731" d="M233 -299v1804h461v-26q-31 0 -48 -0.5t-43.5 -4t-41.5 -10t-33 -19.5t-28 -31t-16.5 -46.5t-6.5 -64.5v-1420q0 -43 13.5 -73.5t31.5 -46t50.5 -24t57 -10t64.5 -1.5v-27h-461z" />
<glyph unicode="\" horiz-adv-x="940" d="M29 1505h231l639 -1546h-233z" />
<glyph unicode="]" horiz-adv-x="716" d="M23 -272q40 0 64.5 1.5t57 10t50.5 24t31.5 46t13.5 73.5v1420q0 36 -6.5 64.5t-16.5 46.5t-28 31t-33 19.5t-41.5 10t-43.5 4t-48 0.5v26h460v-1804h-460v27z" />
<glyph unicode="^" horiz-adv-x="1200" d="M182 770l381 672h78l379 -672h-98l-322 305l-315 -305h-103z" />
<glyph unicode="_" horiz-adv-x="1146" d="M0 -121h1147v-166h-1147v166z" />
<glyph unicode="`" horiz-adv-x="808" d="M8 1386l281 89l401 -334h-121z" />
<glyph unicode="a" d="M84 190q0 60 22 104.5t49.5 72.5t102.5 56t128 42t179 45q32 8 49 12v129q0 159 -77 231q-44 42 -98 42q-40 0 -85 -23q-13 -6 -23 -14.5t-14.5 -17.5t0 -17t19.5 -12q49 -12 76 -62q15 -28 15 -58q0 -20 -7 -40q-17 -52 -64 -78q-28 -15 -58 -15q-20 1 -41 7 q-52 16 -77 63q-15 31 -15 64q1 5 1 9q2 38 24 65q19 26 29 38t43 39.5t76 49.5q41 22 90 32.5t78 10.5h29q193 0 285.5 -109.5t92.5 -300.5v-305q0 -6 0.5 -16t6 -35t15 -44t30 -34.5t47.5 -14.5q5 0 13.5 1t24.5 9.5t21 24.5l23 -12q-18 -61 -88 -104t-164 -43 q-4 0 -11.5 0.5t-29.5 4t-42 9.5t-45.5 19t-44.5 30.5t-34 46t-19 64.5q-22 -75 -100.5 -124.5t-185.5 -49.5q-18 0 -41 2.5t-61.5 15t-68.5 33.5t-52.5 62t-22.5 95zM397 242q0 -6 0.5 -15t6.5 -32.5t16 -41.5t32 -32.5t52 -14.5q73 0 110 91v297q-66 -15 -111 -42t-67 -63 t-30.5 -70.5t-8.5 -76.5z" />
<glyph unicode="b" horiz-adv-x="1277" d="M27 1421v25l405 82v-729q44 82 132.5 124t201.5 42q192 0 312 -136.5t120 -353.5q0 -108 -28 -193t-75.5 -140.5t-114.5 -92t-141 -52t-159 -15.5q-206 0 -305 96q-34 -25 -94.5 -48.5t-101.5 -28.5t-48 9v1280q0 54 -21 81t-83 50zM432 358q0 -177 56 -263.5t151 -86.5 q102 0 154.5 105.5t52.5 339.5q0 218 -53.5 328t-169.5 110q-66 0 -110.5 -42.5t-62.5 -106t-18 -144.5v-240z" />
<glyph unicode="c" horiz-adv-x="1046" d="M92 477q0 99 34 185.5t99.5 155t171.5 108t240 39.5q182 0 291 -109q26 -25 36 -66q5 -21 6 -41q0 -19 -5 -38q-19 -57 -73 -85q-32 -17 -65 -18q-22 0 -45 8q-57 19 -84 71q-16 31 -16 62q0 22 8 46q17 60 70 82q14 7 -3 26q-34 35 -114 35q-38 0 -75.5 -24t-71 -72.5 t-54 -135t-20.5 -198.5q0 -160 70.5 -245.5t193.5 -98.5q16 -2 33 -2q61 0 121 24q76 30 104 82l23 -12q-5 -46 -33.5 -92.5t-77 -88t-125.5 -67.5t-168 -26q-131 0 -240 68.5t-170 182t-61 244.5z" />
<glyph unicode="d" horiz-adv-x="1286" d="M84 477q0 122 38.5 216.5t107.5 153t161 88.5t203 30q174 0 260 -76v405q0 54 -20.5 79t-83.5 48v25l403 82v-1338q0 -74 20.5 -99.5t83.5 -33.5v-26l-346 -47q-25 -4 -39.5 5t-15.5 20l-2 11v154q-23 -63 -79.5 -108t-120.5 -64.5t-128 -19.5q-199 0 -320.5 129 t-121.5 366zM438 510q0 -225 50 -326.5t167 -101.5q80 0 135.5 54.5t63.5 133.5v351q0 157 -63.5 237t-155.5 80q-66 0 -107.5 -37.5t-65.5 -133.5t-24 -257z" />
<glyph unicode="e" horiz-adv-x="1085" d="M74 469q0 116 40 211.5t109 157t158 94.5t190 33q100 0 176.5 -25t134.5 -79t88.5 -147t30.5 -222h-604q3 -93 22 -162t53 -112.5t75.5 -68t95.5 -36.5q28 -6 56 -6q60 0 123 29q92 43 124 138l27 -10q-11 -51 -42.5 -99t-82.5 -90t-130.5 -67.5t-174.5 -25.5 q-131 0 -239.5 68t-169 179.5t-60.5 239.5zM397 518h332q0 196 -41 308t-117 112q-52 0 -93 -64.5t-61 -159.5t-20 -196z" />
<glyph unicode="f" horiz-adv-x="741" d="M25 946h133q0 139 21 242t57 167t92 102t118 52.5t144 14.5q73 0 134.5 -34t86.5 -79q20 -33 20 -77q0 -40 -18 -72q-26 -45 -79 -60q-19 -5 -37 -5q-32 0 -62 17q-46 28 -59 80q-5 18 -5 35q0 33 17 64q23 45 78 55q23 5 16 22q-11 24 -64 27h-10q-90 0 -118.5 -120.5 t-28.5 -430.5h219l-4 -26h-215v-689q0 -96 16.5 -144t67.5 -62v-25h-467v25q53 16 66.5 63t13.5 143v689h-131z" />
<glyph unicode="g" horiz-adv-x="1189" d="M44 -217q18 40 49 76t65 60t69 40q-110 54 -110 174q0 7 0.5 19.5t10.5 47t27.5 65.5t57 66.5t94.5 57.5q-94 37 -139 112.5t-45 155.5q0 135 100.5 221.5t306.5 86.5q208 0 320 -93q73 98 180 121q12 2 25 2q20 0 41 -5q35 -10 59 -34q31 -34 31 -79v-9q-3 -50 -41 -84 q-33 -30 -78 -30h-10q-51 4 -84 41q-30 33 -30 71q0 7 1 15q2 8 -9 9h-3q-26 0 -59 -29l-5 -5q72 -75 72 -199q0 -43 -13 -84.5t-43.5 -82.5t-76 -71.5t-117 -49.5t-160.5 -19q-118 0 -192 29q-18 -9 -36.5 -27.5t-29.5 -41t-8.5 -42.5t33.5 -33.5t90 -13.5h287 q55 0 93 -3.5t95.5 -23t91 -55t52.5 -107.5q13 -44 13 -99q0 -34 -5 -72q-1 -7 -3 -18.5t-15 -47t-34.5 -69t-65.5 -78t-103 -80.5q-124 -77 -285 -102q-68 -10 -130 -10q-86 0 -162 20q-129 34 -167 116q-24 49 -24 98q0 52 19 93zM184 -188q5 -28 21 -54t40 -44.5t46 -33 t37 -21.5l16 -7q131 -65 265 -70q11 -1 23 -1q118 0 197 54q40 27 57 69q13 35 13 60q0 6 -1 12l-3 29q-1 4 -3.5 11.5t-14.5 26t-29.5 32.5t-51 25.5t-75.5 11.5h-279q-113 0 -188 31q-41 -34 -58 -69q-13 -26 -13 -49q0 -7 1 -13zM414 657q0 -164 27.5 -223t88.5 -59 q42 0 66.5 22t38.5 85t14 175q0 113 -13.5 175t-38 84t-67.5 22q-46 0 -70 -23t-35 -82.5t-11 -175.5z" />
<glyph unicode="h" horiz-adv-x="1159" d="M29 1415v27l407 86v-778q34 85 126 150t183 65q297 0 297 -316v-407q0 -97 17 -151t67 -66v-25h-467v25q53 16 67.5 68t14.5 149v399q0 89 -37 130.5t-118 41.5q-41 0 -82.5 -29t-67.5 -77v-465q0 -98 16.5 -150.5t67.5 -64.5v-27h-467v27q53 16 67.5 67.5t14.5 147.5 v1046q0 54 -21 79t-85 48z" />
<glyph unicode="i" horiz-adv-x="620" d="M53 854v27l408 84v-725q0 -97 16.5 -149t67.5 -66v-25h-467v25q53 17 67.5 68t14.5 147v477q0 54 -22 81.5t-85 55.5zM121 1239q0 71 48.5 119.5t119.5 48.5q69 0 118.5 -49t49.5 -119q0 -69 -49.5 -117.5t-118.5 -48.5q-70 0 -119 48.5t-49 117.5z" />
<glyph unicode="j" horiz-adv-x="610" d="M37 -442q35 9 60.5 63t37.5 125.5t18.5 142t7.5 118.5l1 48v647q0 54 -21 86.5t-82 65.5v27l404 84v-863q0 -462 -426 -569v25zM125 1243q0 69 49.5 117.5t118.5 48.5t118.5 -48.5t49.5 -117.5q0 -70 -49.5 -119t-118.5 -49t-118.5 49t-49.5 119z" />
<glyph unicode="k" horiz-adv-x="1234" d="M18 1421v25l408 82v-1288q0 -97 16.5 -149t67.5 -66v-25h-467v25q53 16 67.5 66.5t14.5 148.5v1048q0 54 -22 82t-85 51zM465 416l217 227q21 22 48 64q26 43 46 93q10 25 10 46.5t-10 39.5q-19 35 -84 34h-4v26h526v-26q-34 -1 -86.5 -16.5t-126 -50t-161.5 -103.5 t-168 -162q68 -95 149 -203t129 -169l47 -60q48 -66 105.5 -97.5t109.5 -31.5v-27h-333q-96 0 -139 35t-137 175q-14 21 -21 32z" />
<glyph unicode="l" horiz-adv-x="589" d="M43 1421v25l408 82v-1288q0 -97 16.5 -149t67.5 -66v-25h-467v25q53 16 67.5 66.5t14.5 148.5v1048q0 54 -22 82t-85 51z" />
<glyph unicode="m" horiz-adv-x="1658" d="M18 854v27l408 84v-203q40 88 115.5 145.5t163.5 57.5q240 0 274 -215q34 93 114 154t173 61q64 0 112 -14.5t87 -48.5t59 -96.5t20 -152.5v-411q0 -97 17 -151t67 -66v-25h-467v25q53 16 67.5 68t14.5 149v403q0 172 -121 172q-48 0 -93 -41.5t-46 -91.5v-37v-405 q0 -97 17 -151t67 -66v-25h-467v25q53 16 67.5 68t14.5 149v403q0 88 -29 130t-90 42q-44 0 -86 -39t-51 -84v-456q0 -97 16.5 -148t67.5 -65v-25h-467v25q28 8 45 26.5t24.5 51.5t9 59.5t1.5 75.5v475q0 55 -21.5 84.5t-83.5 56.5z" />
<glyph unicode="n" horiz-adv-x="1157" d="M18 854v27l408 84v-209q37 88 125.5 148.5t179.5 60.5q65 0 115.5 -14.5t93 -48.5t65.5 -97t23 -152v-411q0 -98 16.5 -151.5t67.5 -65.5v-25h-467v25q53 16 67.5 68t14.5 149v403q0 82 -39.5 127t-114.5 45q-47 0 -91.5 -38.5t-55.5 -86.5v-454q0 -97 16.5 -148 t67.5 -65v-25h-467v25q28 8 45 26.5t24.5 51.5t9 59.5t1.5 75.5v481q0 54 -21 80.5t-84 54.5z" />
<glyph unicode="o" horiz-adv-x="1165" d="M84 473q0 103 32.5 191t94.5 156t160 106.5t221 38.5q124 0 222 -38.5t160 -106.5t94 -156t32 -191q0 -102 -32 -190t-94 -155.5t-160 -106.5t-222 -39q-123 0 -221.5 39t-160 106.5t-94 155.5t-32.5 190zM442 473q0 -118 3.5 -191.5t12 -131.5t26 -86.5t43 -42 t65.5 -13.5q33 0 56 8t40 30.5t27 54t16 87.5t8 121t2 164t-2 164t-8 121t-16 87.5t-27 54t-40 30.5t-56 8q-40 0 -65.5 -13.5t-43 -42t-26 -86.5t-12 -131.5t-3.5 -191.5z" />
<glyph unicode="p" horiz-adv-x="1294" d="M33 854v27l405 84v-164q44 81 132.5 122.5t199.5 41.5q192 0 313 -136.5t121 -351.5q0 -108 -28 -193t-75.5 -141t-114 -93t-141 -52.5t-159.5 -15.5q-152 0 -248 55v-348q0 -95 17 -143.5t67 -61.5v-27h-465v27q53 16 66.5 62.5t13.5 142.5v1042q0 53 -20 76t-84 47z M438 289q10 -141 65.5 -211t139.5 -70q209 0 209 445q0 218 -54 328t-169 110q-87 0 -134 -66.5t-57 -171.5v-364z" />
<glyph unicode="q" horiz-adv-x="1288" d="M100 477q0 123 38.5 217.5t108 153t161 88t202.5 29.5q192 0 305 -74q53 38 109 57q49 15 81 15h10q34 -3 34 -23v-1251q0 -96 16.5 -144t67.5 -61v-27h-467v27q53 16 66.5 62.5t13.5 142.5v409q-42 -52 -127.5 -84t-175.5 -32q-199 0 -321 129.5t-122 365.5zM442 510 q0 -229 51.5 -349t165.5 -120q81 0 134 56t53 141v409q-4 147 -61.5 219t-143.5 72q-49 0 -84 -21t-62 -69t-40 -132t-13 -206z" />
<glyph unicode="r" horiz-adv-x="948" d="M25 854v27l409 84v-260q36 56 71 98.5t56.5 65t51 42t39 24.5t36.5 17q28 13 62 13q15 -1 31 -3q52 -8 89 -40q54 -46 58 -118q0 -6 1 -12q0 -64 -42 -112q-47 -54 -117 -60q-7 -1 -15 0q-62 0 -110 42q-57 48 -57 112q0 16 -27 7q-55 -18 -116 -108q-6 -8 -11 -16v-417 q0 -97 16.5 -149t67.5 -66v-25h-469v25q29 9 46.5 28t24.5 52t9 59.5t2 75.5v477q0 54 -21.5 81.5t-84.5 55.5z" />
<glyph unicode="s" horiz-adv-x="917" d="M93 632q-10 36 -10 70q0 86 64 162q3 4 9.5 11t31.5 24.5t55.5 30.5t84 24t114.5 11q105 0 189 -15t115 -30l32 -15v-219h-26q-25 103 -108.5 177.5t-201.5 74.5q-39 0 -69.5 -15.5t-44 -43t-11 -60t31 -70t79.5 -69.5l207 -129q90 -55 139 -137q47 -78 46 -158v-8 q-2 -86 -54 -156q-3 -4 -9.5 -11.5t-32 -26.5t-57 -33.5t-86 -26.5t-116.5 -12q-69 0 -133 8.5t-105 20t-72 23.5t-45 20l-14 9v263h27q15 -54 43.5 -107t70 -102t101.5 -79t127 -30q53 0 85 30q34 29 38 71q1 6 0 12q0 37 -22 79q-26 50 -83 87l-207 125q-147 94 -183 220z " />
<glyph unicode="t" horiz-adv-x="768" d="M25 946h118v275l301 43v-318h254l-4 -26h-250v-619q0 -88 37 -130t119 -42q40 0 72.5 20t50.5 46l22 -13q-26 -80 -111 -140t-188 -60q-303 0 -303 313v625h-114z" />
<glyph unicode="u" horiz-adv-x="1202" d="M35 899v25l418 41v-664q0 -88 35 -129t118 -41q46 0 89.5 31.5t66.5 91.5v481q0 95 -5 114q-9 32 -50 43q-16 4 -41 7v25l397 41v-781q0 -72 19 -93.5t85 -29.5v-24l-348 -53q-24 -4 -38.5 6t-16.5 22l-2 11v174q-25 -87 -116.5 -151t-201.5 -64q-65 0 -115 15t-92 49 t-64.5 97t-22.5 152v446q0 89 -8 109q-11 30 -60 41q-18 4 -47 8z" />
<glyph unicode="v" horiz-adv-x="1126" d="M-8 920v26h563v-26q-36 0 -53.5 -16.5t-17 -40.5t6 -48t13.5 -41l8 -16l205 -422q86 215 102 264q8 21 15 52.5t9 80.5v16q0 40 -8 73q-10 40 -47 69t-98 29v26h438v-26q-37 0 -65.5 -11t-63 -44t-71 -99.5t-80.5 -171.5l-238 -612h-73q-80 175 -178 380t-156 323 l-58 118q-19 37 -40 62t-42.5 36t-36.5 14.5t-34 4.5z" />
<glyph unicode="w" horiz-adv-x="1703" d="M27 920v26h518v-26q-29 0 -42.5 -15.5t-12 -38t7 -45t12.5 -37.5l8 -16l203 -428l106 293l-84 180q-34 66 -58.5 85.5t-57.5 21.5v26h499v-26q-32 0 -47 -15.5t-14 -38t7 -45t14 -37.5l8 -16l200 -428q81 209 97 258q5 16 10 41t9 63q2 17 3 35q1 21 -3 41 q-6 36 -19.5 69t-46.5 53t-82 20v26h419v-26q-34 0 -61 -11.5t-59.5 -44t-68 -100t-73.5 -170.5l-225 -612h-68l-284 620l-219 -620h-72l-383 831q-52 102 -141 107z" />
<glyph unicode="x" horiz-adv-x="1224" d="M10 920v26h596v-26q-28 0 -46 -15t-15 -49.5t37 -79.5l112 -158l68 93q3 4 7.5 11.5t14.5 29.5t15.5 41.5t4.5 44t-12 41.5t-40.5 29t-75.5 12v26h487v-26q-217 -5 -381 -222l-71 -104l325 -473q66 -90 172 -96v-25h-563v25q41 0 41 32q0 26 -26 72q-21 39 -31 49 l-127 184l-78 -108q-3 -5 -8 -13t-16 -32t-16 -45.5t-2 -48t18 -45.5t52.5 -32t94.5 -13v-25h-508v25q35 0 72.5 11t84 37.5t99.5 77.5t106 123l84 113l-315 453q-22 24 -41.5 40.5t-39 24t-29.5 10t-29.5 4t-20.5 1.5z" />
<glyph unicode="y" horiz-adv-x="1167" d="M2 922v24h563v-24q-34 0 -52 -15.5t-19 -37.5t3 -44t11 -37l6 -16l213 -434l96 262q2 7 6 18.5t11.5 45t9.5 64.5q1 10 1 22q0 21 -3 45q-4 37 -19.5 63.5t-49.5 45t-85 18.5v24h441v-24q-40 0 -69.5 -11t-64 -45t-72 -100t-81.5 -172l-285 -780q-64 -192 -162 -277 q-31 -25 -83 -31q-14 -2 -27 -2q-37 0 -66 13q-60 28 -83 89q-11 29 -11 57q0 33 14 65q26 60 87 83q29 11 57 11q33 0 65 -15q60 -27 80 -90q6 -21 26 -18q43 8 78 121q1 1 1 2l39 106q-28 64 -135 286.5t-200 412.5l-93 190q-48 100 -148 105z" />
<glyph unicode="z" horiz-adv-x="1007" d="M59 0l531 920q-358 0 -443 -244h-26l10 270h815l-497 -919q87 0 159.5 22.5t116 53t78 74t49 73t25.5 61.5h26l-18 -311h-826z" />
<glyph unicode="{" horiz-adv-x="722" d="M100 561v23q7 2 24 6.5t24 7t22 9.5t22 14t18.5 20.5t17.5 30t14 41t11.5 54t6 69.5t2.5 88v239q0 171 91.5 252.5t264.5 89.5l3 -20q-69 -12 -96 -85.5t-27 -236.5v-295q0 -162 -80 -228.5t-242 -66.5q82 0 137.5 -11.5t99.5 -40.5t64.5 -83.5t20.5 -136.5v-295 q0 -160 28.5 -235.5t94.5 -85.5l-3 -21q-356 17 -356 342v240q0 45 -2.5 82t-6.5 65t-11.5 50.5t-13.5 37.5t-17.5 27.5t-19 19t-21.5 12.5t-22 8.5t-24.5 6.5t-23.5 6z" />
<glyph unicode="|" horiz-adv-x="493" d="M150 -336v1841h192v-1841h-192z" />
<glyph unicode="}" horiz-adv-x="729" d="M106 -315q66 10 94.5 85.5t28.5 235.5v295q0 82 20.5 136.5t64.5 83.5t99.5 40.5t137.5 11.5q-162 0 -242 66.5t-80 228.5v295q0 163 -27 236.5t-96 85.5l3 20q173 -8 264.5 -89.5t91.5 -252.5v-239q0 -48 2.5 -88t6 -69.5t11.5 -54t14 -41t17.5 -30t18.5 -20.5t22 -14 t22 -9.5t24 -7t24 -6.5v-23q-7 -2 -23.5 -6t-24.5 -6.5t-22 -8.5t-21.5 -12.5t-19 -19t-17.5 -27.5t-13.5 -37.5t-11.5 -50.5t-6.5 -65t-2.5 -82v-240q0 -325 -356 -342z" />
<glyph unicode="~" horiz-adv-x="1273" d="M127 422q33 77 73.5 134t80 86t79.5 46.5t73.5 19.5t59.5 0.5t41 -6.5l15 -4l246 -92q41 -17 106.5 -24t137 11.5t96.5 70.5l18 -9q-33 -75 -73.5 -131t-79.5 -85t-78.5 -47t-72.5 -21t-59 -2.5t-40 4.5l-15 4l-246 92q-41 16 -106.5 24t-138 -9.5t-97.5 -69.5z" />
<glyph horiz-adv-x="0" />
<glyph unicode="&#xa1;" horiz-adv-x="692" d="M182 999q0 73 52 125t124 52t123 -52t51 -125q0 -72 -51 -123t-123 -51t-124 51t-52 123zM190 -358l76 1024h183l71 -1024h-330z" />
<glyph unicode="&#xa2;" d="M152 477q0 96 32.5 181t94.5 152.5t163 109t228 45.5v249h26v-249q103 0 177 -32.5t114 -74.5q27 -27 37 -67.5t0 -79.5q-19 -57 -72 -85.5t-110 -9.5q-57 17 -84.5 70.5t-7.5 110.5q18 57 69 82q14 6 -1 23q-31 36 -122 36v-764q80 -25 179 3.5t129 90.5l22 -12 q-5 -41 -29 -83.5t-63 -82.5t-101.5 -69.5t-136.5 -38.5v-224h-26v224q-238 0 -378 139t-140 356zM481 510q0 -257 189 -330v756q-78 -19 -133.5 -126.5t-55.5 -299.5z" />
<glyph unicode="&#xa3;" horiz-adv-x="1396" d="M67 209q5 43 30 87.5t78 71t137 29.5t206 -37l70 -22q-3 59 -105 227q-43 72 -108 176h-187v27h174q-46 105 -65 199t-11 166.5t33.5 134.5t68 105.5t93.5 76t109 49t115 22t111.5 -2.5t98.5 -27q90 -38 135 -82t68 -100q15 -40 4 -87.5t-45 -82.5q-47 -49 -115.5 -49.5 t-117.5 47.5q-51 47 -51.5 115.5t47.5 117.5q45 45 114 45q26 0 9 19q-23 24 -58 32q-92 19 -167.5 13.5t-116 -59t-48 -135.5t37 -216.5t139.5 -300.5h319v-27h-303q7 -9 25.5 -36.5t21.5 -34.5q43 -75 57.5 -153t4.5 -141t-39 -118l102 -33q79 -25 153 -27t126 25t57 82 l29 -4q7 -71 -10 -128.5t-46.5 -89t-60 -53.5t-52.5 -29l-22 -7q-87 -26 -211 2.5t-233 89.5q-124 -104 -357 -104q-16 0 -40 4t-65 17t-77.5 46t-54.5 82q-12 35 -7 78zM121 137q6 -36 26 -62t41.5 -38.5t50 -19.5t42.5 -8t28 -1q87 0 153 39.5t101 99.5q-131 83 -192 109 q-86 36 -143.5 21.5t-85.5 -55t-21 -85.5z" />
<glyph unicode="&#xa4;" horiz-adv-x="1253" d="M35 242l182 180q-90 129 -90 285q0 160 90 286l-182 181l119 118l180 -180q129 90 289 90q158 0 284 -90l183 180l118 -118l-182 -181q90 -126 90 -286q0 -156 -90 -285l182 -180l-118 -121l-183 182q-126 -90 -284 -90q-160 0 -289 90l-180 -182zM346 707 q0 -114 81 -194.5t196 -80.5q114 0 194 80.5t80 194.5t-80 195t-194 81q-115 0 -196 -81t-81 -195z" />
<glyph unicode="&#xa5;" horiz-adv-x="1480" d="M-31 1417v25h635v-25h-2q-25 0 -38 -1.5t-28 -13.5t-13.5 -35t19 -69.5t56.5 -113.5l293 -490q120 244 149 307q10 20 22.5 62.5t19 104.5t-2.5 116t-52 92.5t-120 38.5v27h604v-27q-31 0 -64 -9t-80.5 -38t-94 -75t-103.5 -127t-110 -187l-152 -309h330v-27h-330v-166 h330v-26h-330v-211q0 -213 123 -213v-27h-598v27q125 0 125 213v211h-336v26h336v88q-4 7 -22.5 39t-22.5 39h-291v27h277q-114 200 -199 346t-113 192l-28 47q-26 45 -49.5 76.5t-40 47.5t-36.5 25t-31.5 10.5t-31.5 2.5z" />
<glyph unicode="&#xa6;" horiz-adv-x="487" d="M145 381h197v-772h-197v772zM145 737v768h197v-768h-197z" />
<glyph unicode="&#xa7;" horiz-adv-x="1159" d="M114.5 506q10.5 73 71.5 148.5t170 138.5q-180 134 -159 360q7 69 30.5 122.5t54.5 87.5t75 57.5t84 34.5t88 15.5t81 3.5t70 -4q76 -8 136.5 -41t88.5 -65q24 -30 30 -71t-11 -79q-26 -55 -82.5 -75t-110.5 6q-56 25 -76.5 80.5t7.5 109.5q25 54 73 68q11 4 -1 17 q-16 19 -56 24q-115 13 -188 -41.5t-82 -151.5q-16 -148 163 -260l254 -153q78 -50 134.5 -114t82.5 -138t17 -148.5t-69 -150t-167 -137.5q180 -146 158 -355q-7 -68 -30.5 -122t-56 -88t-76.5 -57.5t-85 -34t-89.5 -15t-82 -3.5t-69.5 5q-78 8 -140.5 40.5t-87.5 63.5 q-24 30 -29 71t13 79q25 54 79.5 74.5t110.5 -5.5q54 -25 75 -80.5t-5 -109.5q-24 -52 -82 -70q-11 -3 4 -16q22 -16 64 -21q112 -12 181.5 41t80.5 150q6 75 -29 136.5t-129 121.5l-254 156q-78 50 -133.5 113t-81 136t-15 146zM291 532q14 -23 41.5 -48.5t44 -37.5 t61.5 -42t49 -33q1 0 5 -4q91 -60 237 -148q46 -27 72 -49q159 127 80 246q-12 18 -29 35.5t-41 35.5t-39 29t-45 31l-39 26q-4 1 -14 11q-44 28 -137 85.5t-105 65.5q-32 18 -51 37q-166 -123 -90 -240z" />
<glyph unicode="&#xa8;" horiz-adv-x="679" d="M16 1303q0 54 40 92.5t94 38.5t92.5 -38.5t38.5 -92.5q0 -55 -38.5 -94.5t-92.5 -39.5t-94 39.5t-40 94.5zM401 1303q0 54 40 92.5t94 38.5t93.5 -38.5t39.5 -92.5q0 -55 -39.5 -94.5t-93.5 -39.5t-94 39.5t-40 94.5z" />
<glyph unicode="&#xa9;" horiz-adv-x="1669" d="M61 754q0 157 61 300t164.5 246.5t246.5 164.5t301 61q157 0 300 -61t246.5 -164.5t164.5 -246.5t61 -300t-61 -300t-164.5 -246.5t-246.5 -164.5t-300 -61q-158 0 -301 61t-246.5 164.5t-164.5 246.5t-61 300zM219 754q0 -124 49 -238t131.5 -196.5t196.5 -131.5 t238 -49q165 0 306 82.5t223.5 224.5t82.5 308t-82.5 308t-223.5 225t-306 83q-166 0 -308 -83t-224.5 -225t-82.5 -308zM418 739q0 183 124 300.5t312 117.5q210 0 283 -61l-9 -205h-26q-10 61 -31 106t-45 69.5t-55.5 39.5t-58 19.5t-58.5 4.5q-46 0 -78.5 -17t-58.5 -59 t-38.5 -120.5t-12.5 -194.5t13.5 -195t39.5 -120.5t58 -58.5t77 -17q205 0 248 240h26l9 -203q-91 -63 -283 -63q-188 0 -312 117t-124 300z" />
<glyph unicode="&#xaa;" horiz-adv-x="677" d="M43 1036q0 52 32.5 84t72 45.5t147.5 39.5q18 5 27 7v66q0 82 -41 116t-99 7q-18 -8 -18 -17q0 -6 10 -8q26 -6 41 -30q12 -26 4 -53t-33 -40q-26 -12 -53 -3t-39 32q-17 36 4 72q19 39 72 67q20 11 47 16.5t45 4.5h17q101 0 149.5 -57t48.5 -156v-160q0 -3 0.5 -8.5 t3 -19t7.5 -23.5t16 -18t26 -7q17 1 23 21l20 -8q-8 -33 -43.5 -55.5t-87.5 -22.5q-4 0 -11.5 0.5t-26.5 5t-34 12t-29 24t-17 38.5q-11 -35 -53 -57.5t-99 -22.5q-13 0 -29.5 3.5t-41.5 12.5t-41.5 33t-16.5 59zM207 1063q0 -3 0.5 -7.5t3.5 -15.5t8.5 -20t17 -16t27.5 -7 q38 0 58 50v139q-66 -16 -90.5 -47t-24.5 -76z" />
<glyph unicode="&#xab;" horiz-adv-x="1363" d="M178 545l529 489v-90l-246 -399l246 -387v-90zM651 545l531 489v-90l-246 -399l246 -387v-90z" />
<glyph unicode="&#xac;" horiz-adv-x="1366" d="M84 633v209h1200v-707h-211v498h-989z" />
<glyph unicode="&#xad;" horiz-adv-x="909" d="M131 401v238h645v-238h-645z" />
<glyph unicode="&#xae;" horiz-adv-x="1677" d="M63 754q0 157 61.5 300t165 246.5t246.5 164.5t300 61t300 -61t246.5 -164.5t164.5 -246.5t61 -300t-61 -300t-164.5 -246.5t-246.5 -164.5t-300 -61t-300 61t-246.5 164.5t-165 246.5t-61.5 300zM223 754q0 -124 48.5 -238t130.5 -196t196 -130.5t238 -48.5 q166 0 307 82t223 223.5t82 307.5t-82 307.5t-223 224t-307 82.5t-307.5 -82.5t-223.5 -224t-82 -307.5zM479 375v26q37 0 52.5 24t15.5 91v518q0 51 -16 70.5t-52 19.5v23h291q73 0 126 -4t106 -17t86.5 -35.5t54 -61t20.5 -91.5q0 -183 -235 -199q39 2 69.5 -7t60 -33.5 t54 -72.5t43.5 -120q15 -55 51 -79t68 -26v-26h-160q-93 1 -117.5 33t-58.5 179q-5 22 -8 34q-11 45 -46.5 70.5t-65.5 28.5l-30 3h-53v-207q0 -65 15.5 -90t52.5 -25v-26h-324zM735 750h35q89 0 116 11q45 20 54 99q4 30 4 74q0 31 -2.5 55.5t-5.5 43t-11.5 32.5 t-14.5 23.5t-20 15.5t-22.5 9t-28.5 4.5t-32 2t-37 0.5h-35v-370z" />
<glyph unicode="&#xaf;" horiz-adv-x="737" d="M-33 1186v174h805v-174h-805z" />
<glyph unicode="&#xb0;" horiz-adv-x="780" d="M117 1243q0 112 77.5 189t188.5 77q110 0 188 -77t78 -189q0 -108 -78.5 -185t-187.5 -77q-110 0 -188 76.5t-78 185.5zM227 1243q0 -64 46.5 -108.5t111.5 -44.5q63 0 108.5 44.5t45.5 108.5q0 63 -45.5 108.5t-108.5 45.5q-65 0 -111.5 -45.5t-46.5 -108.5z" />
<glyph unicode="&#xb1;" horiz-adv-x="1245" d="M84 -10v184h1063v-184h-1063zM84 602v186h438v297h185v-297h440v-186h-440v-321h-185v321h-438z" />
<glyph unicode="&#xb2;" horiz-adv-x="532" d="M45 776l201 281q84 131 37 209q-29 49 -91 52q-61 2 -92 -42q-15 -21 -18 -49h-25q-7 51 9 93.5t46.5 68t65 39.5t66.5 14q70 0 119 -48t49 -112q0 -46 -24.5 -89.5t-78.5 -104t-65 -74.5l-74 -105h176q55 0 84 54h27l-51 -187h-361z" />
<glyph unicode="&#xb3;" horiz-adv-x="565" d="M76 907q14 28 42.5 39t57.5 -2q28 -12 38.5 -41t-1.5 -57q-15 -31 -43 -39q-9 -2 1 -9q19 -14 77 -14q55 0 81 50t15 118q-4 23 -11 41t-23 43t-48.5 40.5t-77.5 19.5v22q65 15 92.5 55.5t19.5 80t-38 61.5q-31 27 -79 16.5t-64 -55.5l-21 2q-1 76 53.5 119t114.5 43 q57 0 101.5 -30.5t62 -75t-1.5 -99t-78 -96.5q68 -13 109 -59t43 -97q1 -62 -22.5 -107.5t-63.5 -68.5t-80.5 -33t-83.5 -10q-103 0 -162 65q-29 36 -10 78z" />
<glyph unicode="&#xb4;" horiz-adv-x="872" d="M178 1143l402 334l280 -88l-561 -246h-121z" />
<glyph unicode="&#xb5;" horiz-adv-x="1198" d="M31 899v25l415 41v-666q0 -88 37.5 -129t124.5 -41q43 0 85 37t63 96v473v22v41.5t-1.5 31t-5.5 25t-10.5 16.5t-17.5 14t-26 8t-36 6v25l398 41v-783q0 -72 20 -93.5t86 -29.5v-26l-350 -51q-24 -4 -38.5 5.5t-16.5 20.5l-2 12v181q-19 -68 -76 -120t-118.5 -75.5 t-115.5 -23.5v-316q0 -74 21 -99.5t86 -31.5v-24l-356 -54q-26 -4 -41 5.5t-17 21.5l-2 12v1241q0 93 -6 112q-11 32 -56 43q-17 4 -44 7z" />
<glyph unicode="&#xb6;" horiz-adv-x="1474" d="M76 999q0 439 528 443h2h195v-1985h-471v27q35 0 67 5.5t71.5 24.5t68 50t48 88t19.5 133v782q-91 0 -162.5 9.5t-143 37.5t-118 74.5t-75.5 125t-29 185.5zM967 -543v1985h362v-29q-73 0 -120.5 -89t-47.5 -202v-1337q0 -126 41.5 -213.5t112.5 -87.5v-27h-348z" />
<glyph unicode="&#xb7;" horiz-adv-x="579" d="M160 612q0 52 38 90.5t91 38.5q54 0 91.5 -38t37.5 -91q0 -54 -37.5 -91.5t-91.5 -37.5q-53 0 -91 37.5t-38 91.5z" />
<glyph unicode="&#xb8;" horiz-adv-x="573" d="M113 -356q4 28 29.5 42.5t54.5 6.5q28 -6 43.5 -29t9.5 -51q-5 -26 -27 -37q-9 -4 4 -12q14 -8 47 -8q44 0 68.5 30t24.5 72q0 17 -8.5 39.5t-27.5 48.5t-59 39t-94 4l76 203h27l-43 -121q132 30 204 -27t62 -149q-6 -49 -29.5 -83t-58.5 -50.5t-68 -23.5t-67 -7 q-95 0 -144 43q-14 11 -21 30.5t-3 39.5z" />
<glyph unicode="&#xb9;" horiz-adv-x="479" d="M82 1298l184 144h62v-561q0 -76 57 -76v-27h-272v27q69 0 69 76v374q0 33 -20 37.5t-40 -6.5l-20 -12z" />
<glyph unicode="&#xba;" horiz-adv-x="704" d="M70 1098q0 71 15.5 131.5t48 110.5t89.5 79t133 29t133 -29t89 -79t47.5 -110.5t15.5 -131.5q0 -70 -15.5 -128t-47.5 -105.5t-89 -74t-133 -26.5t-133 26.5t-89.5 74t-48 105.5t-15.5 128zM264 1098q0 -123 9 -189.5t28.5 -92t54.5 -25.5q36 0 55 26t27 91t8 190 q0 185 -19.5 254t-70.5 69q-53 0 -72.5 -68.5t-19.5 -254.5z" />
<glyph unicode="&#xbb;" horiz-adv-x="1339" d="M170 68v90l246 387l-246 399v90l530 -489zM645 68v90l246 387l-246 399v90l529 -489z" />
<glyph unicode="&#xbc;" horiz-adv-x="1355" d="M27 74l1140 1380h170l-1142 -1380h-168zM113 1362l198 164h68v-647q0 -48 15 -66t44 -18v-27h-293v27q36 0 55 18.5t19 65.5v442q0 22 -9 32t-22 8t-26 -7t-22 -11l-9 -6zM668 209v18l368 525l51 -9v-460h101v-74h-101v-47q0 -49 4 -77t15 -40.5t20.5 -15t30.5 -2.5v-27 h-311v27q27 0 39 5.5t21 34.5t9 89v53h-247zM760.5 300.5q-1.5 -13.5 4 -15.5t19.5 -2h131v249l-135 -192q-18 -26 -19.5 -39.5z" />
<glyph unicode="&#xbd;" horiz-adv-x="1347" d="M33 74l1141 1380h169l-1142 -1380h-168zM119 1362l198 164h68v-647q0 -48 15 -66t44 -18v-27h-292v27q36 0 54.5 18.5t18.5 65.5v442q0 22 -9 32t-22 8t-26 -7t-22 -11l-9 -6zM807 0l225 319q92 144 41 229q-32 54 -101 58q-68 4 -108 -43q-18 -22 -24 -51h-25 q-9 59 10 108t54 78t73 45t72 17q78 3 135.5 -51t57.5 -127q0 -41 -21 -88t-41.5 -75t-65 -81t-55.5 -68q-12 -15 -32 -43t-34 -49l-14 -20h187q30 0 59 15t47 44h21l-60 -217h-401z" />
<glyph unicode="&#xbe;" horiz-adv-x="1343" d="M29 74l1140 1380h170l-1142 -1380h-168zM74 924q15 32 47.5 44.5t64.5 -1.5q32 -15 45 -48.5t-2 -64.5q-16 -30 -39 -37q-11 -4 -1 -13q17 -16 81 -16q67 0 93.5 54t13.5 135q-5 29 -12 48.5t-25.5 49t-55 47t-89.5 21.5v24q57 14 90 44.5t38.5 63.5t-6 64.5t-36.5 49.5 q-24 18 -56 19.5t-61 -16t-41 -51.5l-27 5q-1 86 59.5 134t129.5 48q52 0 96.5 -22t68.5 -59.5t30 -81t-19.5 -91.5t-79.5 -86q76 -13 122 -65t48 -113q1 -72 -25.5 -123.5t-71.5 -77t-90 -36.5t-94 -11q-121 0 -186 74q-30 39 -10 88zM670 209v18l368 525l52 -9v-460h100 v-74h-100v-47q0 -64 9 -94t21 -35.5t39 -5.5v-27h-311v27q20 0 30.5 3t21 14.5t14.5 38.5t4 73v53h-248zM762.5 300.5q-1.5 -13.5 4 -15.5t19.5 -2h132v249l-136 -192q-18 -26 -19.5 -39.5z" />
<glyph unicode="&#xbf;" horiz-adv-x="1267" d="M207 -205q-3 86 17 159t53 121.5t77 86.5t84.5 58t79.5 30q89 23 141.5 81t45.5 146l34 6q1 -6 5.5 -31.5t6 -39.5t2.5 -41t-4 -47.5t-14 -46.5t-27 -51.5t-44 -49.5q-67 -65 -90.5 -153.5t-12.5 -223.5q7 -77 40.5 -138.5t83 -94.5t111 -42.5t124.5 17.5q49 19 53 61 q3 26 -13 31h-4q-54 0 -102 48q-43 47 -40.5 110.5t46.5 106.5q45 42 109.5 37.5t107.5 -50.5q49 -51 37 -151q-5 -55 -54 -117t-130 -98q-120 -54 -249 -58t-231 34t-170 117.5t-73 182.5zM524 795q0 73 52 124.5t124 51.5q74 0 125.5 -51.5t51.5 -124.5t-51.5 -125 t-125.5 -52q-72 0 -124 52t-52 125z" />
<glyph unicode="&#xc0;" horiz-adv-x="1499" d="M35 0h547v25q-68 -2 -116.5 21.5t-72 62t-36 83t-11 88t5.5 74.5t10 45h445l63 -145q2 -5 6 -13t12.5 -32t14 -45.5t6.5 -48t-5.5 -45.5t-27 -32t-53.5 -13v-25h652v25l-15 1q-16 1 -18.5 2t-17 3.5t-20 7.5t-19 12.5t-22 19.5t-21 27.5t-23.5 37t-23 48.5 q-27 64 -536 1258h-23l-385 -989q-51 -121 -96.5 -206.5t-75 -127t-61.5 -64t-45.5 -25.5t-38.5 -5v-25zM352 1751l281 88l401 -334h-121zM369 426l202 530l226 -530h-428z" />
<glyph unicode="&#xc1;" horiz-adv-x="1499" d="M35 0v25q25 2 38.5 5t45.5 25.5t61.5 64t75 127t96.5 206.5l385 989h23l536 -1258q12 -27 23 -48.5t23.5 -37t21 -27.5t22 -19.5t19 -12.5t20 -7.5t17 -3.5t18.5 -2l15 -1v-25h-652v25q45 0 66.5 23.5t20 57.5t-9.5 67.5t-19 56.5l-11 24l-63 145h-445q-6 -14 -10 -45 t-5.5 -74.5t11 -88t36 -83t72 -62t116.5 -21.5v-25h-547zM369 426h428l-226 530zM489 1505l402 334l280 -88l-561 -246h-121z" />
<glyph unicode="&#xc2;" horiz-adv-x="1499" d="M35 0h547v25q-68 -2 -116.5 21.5t-72 62t-36 83t-11 88t5.5 74.5t10 45h445l63 -145q2 -5 6 -13t12.5 -32t14 -45.5t6.5 -48t-5.5 -45.5t-27 -32t-53.5 -13v-25h652v25l-15 1q-16 1 -18.5 2t-17 3.5t-20 7.5t-19 12.5t-22 19.5t-21 27.5t-23.5 37t-23 48.5 q-27 64 -536 1258h-23l-385 -989q-51 -121 -96.5 -206.5t-75 -127t-61.5 -64t-45.5 -25.5t-38.5 -5v-25zM369 426l202 530l226 -530h-428zM424 1505l328 389l327 -389h-80l-247 162l-248 -162h-80z" />
<glyph unicode="&#xc3;" horiz-adv-x="1499" d="M35 0v25q25 2 38.5 5t45.5 25.5t61.5 64t75 127t96.5 206.5l385 989h23l536 -1258q12 -27 23 -48.5t23.5 -37t21 -27.5t22 -19.5t19 -12.5t20 -7.5t17 -3.5t18.5 -2l15 -1v-25h-652v25q45 0 66.5 23.5t20 57.5t-9.5 67.5t-19 56.5l-11 24l-63 145h-445q-6 -14 -10 -45 t-5.5 -74.5t11 -88t36 -83t72 -62t116.5 -21.5v-25h-547zM240 1550q32 77 72.5 134t79.5 86.5t78.5 47.5t72.5 20.5t59 1t40 -5.5l15 -5l244 -92q42 -17 108 -23.5t137.5 12.5t96.5 70l19 -10q-33 -75 -73.5 -131t-79.5 -85t-78.5 -47.5t-72.5 -21.5t-59 -2.5t-41 4.5l-14 4 l-246 92q-41 16 -106 23.5t-136.5 -10t-95.5 -68.5zM369 426h428l-226 530z" />
<glyph unicode="&#xc4;" horiz-adv-x="1499" d="M35 0v25q25 2 38.5 5t45.5 25.5t61.5 64t75 127t96.5 206.5l385 989h23l536 -1258q12 -27 23 -48.5t23.5 -37t21 -27.5t22 -19.5t19 -12.5t20 -7.5t17 -3.5t18.5 -2l15 -1v-25h-652v25q45 0 66.5 23.5t20 57.5t-9.5 67.5t-19 56.5l-11 24l-63 145h-445q-6 -14 -10 -45 t-5.5 -74.5t11 -88t36 -83t72 -62t116.5 -21.5v-25h-547zM369 426h428l-226 530zM422 1706q0 54 39.5 92.5t93.5 38.5t92.5 -38.5t38.5 -92.5q0 -55 -38.5 -94t-92.5 -39t-93.5 39t-39.5 94zM807 1706q0 54 39.5 92.5t93.5 38.5t93.5 -38.5t39.5 -92.5q0 -55 -39.5 -94 t-93.5 -39t-93.5 39t-39.5 94z" />
<glyph unicode="&#xc5;" horiz-adv-x="1499" d="M35 0h547v25q-68 -2 -116.5 21.5t-72 62t-36 83t-11 88t5.5 74.5t10 45h445l63 -145q2 -5 6 -13t12.5 -32t14 -45.5t6.5 -48t-5.5 -45.5t-27 -32t-53.5 -13v-25h652v25l-15 1q-16 1 -18.5 2t-17 3.5t-20 7.5t-19 12.5t-22 19.5t-21 27.5t-23.5 37t-23 48.5 q-27 64 -536 1258h-23l-385 -989q-51 -121 -96.5 -206.5t-75 -127t-61.5 -64t-45.5 -25.5t-38.5 -5v-25zM369 426l202 530l226 -530h-428zM532 1802q0 89 62.5 150t150.5 61q90 0 153 -61t63 -150q0 -88 -63.5 -149.5t-152.5 -61.5q-88 0 -150.5 61.5t-62.5 149.5zM645 1802 q0 -41 29.5 -71.5t70.5 -30.5q43 0 73 30t30 72q0 43 -30 73t-73 30q-41 0 -70.5 -30t-29.5 -73z" />
<glyph unicode="&#xc6;" horiz-adv-x="2064" d="M4 0v25q23 2 43 8t59 33t81 72.5t105.5 133t135.5 207.5l481 836q-36 100 -133 100v27h1141v-406h-27q-4 61 -25.5 113t-54.5 88t-75 65.5t-87.5 47.5t-91 31.5t-86 19.5t-71.5 9.5t-49 3.5l-19 1h-53v-676h100h14.5t34.5 4.5t50 12t53.5 24.5t52.5 40t39.5 61t22.5 86 h26v-482h-26q-5 48 -22.5 86t-39.5 61t-52.5 40t-53.5 24.5t-50 12t-34.5 4.5h-14.5h-100v-686h53q11 0 31 0.5t77.5 7t110.5 19.5t119.5 42.5t116 69.5t87.5 106.5t46 149.5h27v-422h-1153v27q137 0 137 252v167h-484q-46 -83 -64 -153.5t-10 -119t35 -82.5t67.5 -50 t90.5 -16v-25h-561zM459 473h471v686q0 71 -10 115z" />
<glyph unicode="&#xc7;" horiz-adv-x="1433" d="M82 721q0 214 101 383.5t276.5 262.5t392.5 93q372 0 504 -108l-25 -369h-24q-26 103 -63 182t-80 129t-95.5 82t-104.5 45t-112 13q-119 0 -189 -60t-107.5 -217.5t-37.5 -435.5q0 -209 20.5 -348.5t64.5 -219.5t103 -112.5t146 -32.5q74 0 144 27t132.5 80.5 t109.5 142.5t69 203h24l25 -367q-163 -112 -527 -112l-36 -107q132 30 204 -27t62 -149q-6 -49 -30 -83.5t-58.5 -51.5t-67.5 -24t-67 -7q-99 0 -144 45q-13 9 -20 28.5t-4 39.5q6 28 30.5 42.5t53.5 8.5q28 -6 43 -29.5t10 -52.5q-9 -28 -27 -37q-9 -5 5 -11q14 -7 46 -7 q44 0 68.5 29t24.5 71q0 13 -4.5 30t-18 39.5t-33.5 39t-54.5 24.5t-78.5 0l70 189q-154 7 -287 65t-229 154t-150.5 230.5t-54.5 289.5z" />
<glyph unicode="&#xc8;" horiz-adv-x="1349" d="M55 0h1176v424h-27q-7 -66 -32 -121.5t-62 -94t-82.5 -69.5t-94.5 -49.5t-97.5 -32t-91.5 -19t-76 -8.5t-52 -3h-20h-74v688h121q6 0 15.5 -0.5t37 -5t53.5 -12t58 -24.5t56.5 -40.5t43 -61t23.5 -84.5h26v482h-26q-5 -47 -23 -85t-44 -61.5t-55.5 -40.5t-58.5 -24.5 t-53 -11.5t-38 -4l-15 -1h-121v674h74q12 0 32 -1t78.5 -8.5t111.5 -20.5t119.5 -41.5t115 -67t84.5 -101t41 -139.5h26v406h-1149v-27q43 0 70.5 -39t38 -93.5t10.5 -123.5v-878q0 -113 -29 -183.5t-90 -70.5v-27zM268 1751l281 88l401 -334h-121z" />
<glyph unicode="&#xc9;" horiz-adv-x="1349" d="M55 0v27q61 0 90 70.5t29 183.5v878q0 69 -10.5 123.5t-38 93.5t-70.5 39v27h1149v-406h-26q-5 77 -40 139.5t-86.5 101t-113 67t-121.5 41.5t-109.5 20.5t-80.5 8.5l-31 1h-74v-674h121q6 0 15.5 0.5t37 4.5t53.5 11.5t58 24.5t56.5 40.5t43 61.5t23.5 85h26v-482h-26 q-6 64 -38 111t-73 68.5t-81 33.5t-68 14l-27 1h-121v-688h74h19.5t51.5 3t77.5 8.5t90.5 19t98 32t94 49.5t83.5 69.5t61 94t32.5 121.5h27v-424h-1176zM375 1505l401 334l281 -88l-561 -246h-121z" />
<glyph unicode="&#xca;" horiz-adv-x="1349" d="M55 0h1176v424h-27q-7 -66 -32 -121.5t-62 -94t-82.5 -69.5t-94.5 -49.5t-97.5 -32t-91.5 -19t-76 -8.5t-52 -3h-20h-74v688h121q6 0 15.5 -0.5t37 -5t53.5 -12t58 -24.5t56.5 -40.5t43 -61t23.5 -84.5h26v482h-26q-5 -47 -23 -85t-44 -61.5t-55.5 -40.5t-58.5 -24.5 t-53 -11.5t-38 -4l-15 -1h-121v674h74q12 0 32 -1t78.5 -8.5t111.5 -20.5t119.5 -41.5t115 -67t84.5 -101t41 -139.5h26v406h-1149v-27q43 0 70.5 -39t38 -93.5t10.5 -123.5v-878q0 -113 -29 -183.5t-90 -70.5v-27zM354 1505l328 389l328 -389h-80l-248 162l-248 -162h-80z " />
<glyph unicode="&#xcb;" horiz-adv-x="1349" d="M55 0v27q61 0 90 70.5t29 183.5v878q0 69 -10.5 123.5t-38 93.5t-70.5 39v27h1149v-406h-26q-5 77 -40 139.5t-86.5 101t-113 67t-121.5 41.5t-109.5 20.5t-80.5 8.5l-31 1h-74v-674h121q6 0 15.5 0.5t37 4.5t53.5 11.5t58 24.5t56.5 40.5t43 61.5t23.5 85h26v-482h-26 q-6 64 -38 111t-73 68.5t-81 33.5t-68 14l-27 1h-121v-688h74h19.5t51.5 3t77.5 8.5t90.5 19t98 32t94 49.5t83.5 69.5t61 94t32.5 121.5h27v-424h-1176zM340 1706q0 54 39.5 92.5t93.5 38.5t92.5 -38.5t38.5 -92.5q0 -55 -38.5 -94t-92.5 -39t-93.5 39t-39.5 94zM725 1706 q0 54 39.5 92.5t93.5 38.5t93.5 -38.5t39.5 -92.5q0 -55 -39.5 -94t-93.5 -39t-93.5 39t-39.5 94z" />
<glyph unicode="&#xcc;" horiz-adv-x="815" d="M2 1751l281 88l401 -334h-121zM80 0h661v27q-72 0 -112.5 47.5t-40.5 165.5v993q0 107 39 144.5t114 37.5v27h-661v-27q76 0 114.5 -37.5t38.5 -144.5v-993q0 -118 -40 -165.5t-113 -47.5v-27z" />
<glyph unicode="&#xcd;" horiz-adv-x="815" d="M80 0v27q73 0 113 47.5t40 165.5v993q0 107 -38.5 144.5t-114.5 37.5v27h661v-27q-75 0 -114 -37.5t-39 -144.5v-993q0 -118 40.5 -165.5t112.5 -47.5v-27h-661zM111 1505l401 334l281 -88l-562 -246h-120z" />
<glyph unicode="&#xce;" horiz-adv-x="815" d="M80 0h661v27q-72 0 -112.5 47.5t-40.5 165.5v993q0 107 39 144.5t114 37.5v27h-661v-27q76 0 114.5 -37.5t38.5 -144.5v-993q0 -118 -40 -165.5t-113 -47.5v-27zM86 1505l328 389l327 -389h-79l-248 162l-248 -162h-80z" />
<glyph unicode="&#xcf;" horiz-adv-x="815" d="M80 0v27q73 0 113 47.5t40 165.5v993q0 107 -38.5 144.5t-114.5 37.5v27h661v-27q-75 0 -114 -37.5t-39 -144.5v-993q0 -118 40.5 -165.5t112.5 -47.5v-27h-661zM86 1706q0 54 39.5 92.5t93.5 38.5t92.5 -38.5t38.5 -92.5q0 -55 -38.5 -94t-92.5 -39t-93.5 39t-39.5 94z M471 1706q0 54 39.5 92.5t93.5 38.5t93.5 -38.5t39.5 -92.5q0 -55 -39.5 -94t-93.5 -39t-93.5 39t-39.5 94z" />
<glyph unicode="&#xd0;" horiz-adv-x="1636" d="M63 709v26h160v424q0 103 -36.5 179.5t-100.5 76.5v27h573q93 0 177.5 -8.5t174 -31t164.5 -57.5t143 -92t114.5 -131t74 -178t27.5 -229t-27.5 -228t-74 -175.5t-114.5 -128.5t-142.5 -90t-165 -55.5t-174 -29.5t-177.5 -8h-573v27q64 0 100.5 72.5t36.5 181.5v428h-160 zM569 27h90q56 0 94.5 3.5t88.5 19t83.5 42.5t68.5 78t56 122.5t34.5 179t13.5 243.5q0 135 -13 242t-34 180t-55 125t-68.5 81.5t-83 46t-89 21t-96.5 4.5h-90v-680h285v-26h-285v-682z" />
<glyph unicode="&#xd1;" horiz-adv-x="1720" d="M12 1415v27h578l762 -1012v522q0 37 -5 85t-23.5 118t-47.5 125.5t-84 95.5t-127 39v27h621v-27q-67 0 -120.5 -26.5t-85.5 -72.5t-54 -96t-31.5 -106.5t-13 -93.5t-3.5 -68v-952h-168l-833 1112v-620q0 -28 1 -52.5t7 -75t16.5 -91t32.5 -88.5t52 -81t78 -55t108 -22 v-27h-637v27q61 0 111 22t81.5 55.5t56 80t36.5 89.5t19.5 90.5t9 75.5t1.5 52v651l-88 119q-23 29 -45.5 52.5t-39.5 39t-36.5 27t-31 17.5t-29 9.5t-24.5 4.5t-24 2t-20 1zM352 1591q32 77 72.5 133.5t79.5 85t78.5 45.5t73 18t59.5 -1t41 -7l14 -5l244 -93 q41 -16 108 -20.5t138 17.5t96 73l18 -10q-33 -75 -73.5 -130t-79.5 -83.5t-78.5 -45.5t-72.5 -19t-59 -0.5t-41 5.5l-14 5l-245 92q-28 11 -74.5 16.5t-99.5 2.5t-99 -24.5t-65 -60.5z" />
<glyph unicode="&#xd2;" horiz-adv-x="1615" d="M84 711q0 -153 51 -286t143 -231.5t230 -155t303 -56.5t303 56.5t230 155t143 231.5t51 286q0 152 -51 288t-143 238.5t-230 162.5t-303 60t-303 -60t-230 -162.5t-143 -238.5t-51 -288zM432 1751l281 88l401 -334h-121zM506 711q0 174 8.5 291.5t28 204.5t56 135t87 70 t125.5 22q74 0 124.5 -22t86 -70t54.5 -135t27.5 -204.5t8.5 -291.5q0 -145 -5.5 -248t-19 -184t-35 -131t-56 -82.5t-79 -45t-106.5 -12.5q-76 0 -126 20t-86.5 64.5t-56 128.5t-28 199.5t-8.5 290.5z" />
<glyph unicode="&#xd3;" horiz-adv-x="1615" d="M84 711q0 152 51 288t143 238.5t230 162.5t303 60t303 -60t230 -162.5t143 -238.5t51 -288q0 -153 -51 -286t-143 -231.5t-230 -155t-303 -56.5t-303 56.5t-230 155t-143 231.5t-51 286zM506 711q0 -175 8.5 -290.5t28 -199.5t56 -128.5t86.5 -64.5t126 -20 q62 0 106.5 12.5t79 45t56 82.5t35 131t19 184t5.5 248q0 174 -8.5 291.5t-27.5 204.5t-54.5 135t-86 70t-124.5 22q-75 0 -125.5 -22t-87 -70t-56 -135t-28 -204.5t-8.5 -291.5zM520 1505l402 334l280 -88l-561 -246h-121z" />
<glyph unicode="&#xd4;" horiz-adv-x="1615" d="M84 711q0 -153 51 -286t143 -231.5t230 -155t303 -56.5t303 56.5t230 155t143 231.5t51 286q0 152 -51 288t-143 238.5t-230 162.5t-303 60t-303 -60t-230 -162.5t-143 -238.5t-51 -288zM498 1505l327 389l328 -389h-80l-248 162l-247 -162h-80zM506 711q0 174 8.5 291.5 t28 204.5t56 135t87 70t125.5 22q74 0 124.5 -22t86 -70t54.5 -135t27.5 -204.5t8.5 -291.5q0 -145 -5.5 -248t-19 -184t-35 -131t-56 -82.5t-79 -45t-106.5 -12.5q-76 0 -126 20t-86.5 64.5t-56 128.5t-28 199.5t-8.5 290.5z" />
<glyph unicode="&#xd5;" horiz-adv-x="1615" d="M84 711q0 152 51 288t143 238.5t230 162.5t303 60t303 -60t230 -162.5t143 -238.5t51 -288q0 -153 -51 -286t-143 -231.5t-230 -155t-303 -56.5t-303 56.5t-230 155t-143 231.5t-51 286zM311 1591q32 77 72.5 133.5t79.5 85t78.5 45.5t73 18t59.5 -1t40 -7l15 -5l244 -93 q41 -16 108 -20.5t138 17.5t96 73l18 -10q-33 -75 -73.5 -130t-79.5 -83.5t-78.5 -45.5t-72.5 -19t-59 -0.5t-40 5.5l-15 5l-245 92q-28 11 -74.5 16.5t-99.5 2.5t-99 -24.5t-65 -60.5zM506 711q0 -175 8.5 -290.5t28 -199.5t56 -128.5t86.5 -64.5t126 -20q62 0 106.5 12.5 t79 45t56 82.5t35 131t19 184t5.5 248q0 174 -8.5 291.5t-27.5 204.5t-54.5 135t-86 70t-124.5 22q-75 0 -125.5 -22t-87 -70t-56 -135t-28 -204.5t-8.5 -291.5z" />
<glyph unicode="&#xd6;" horiz-adv-x="1615" d="M84 711q0 152 51 288t143 238.5t230 162.5t303 60t303 -60t230 -162.5t143 -238.5t51 -288q0 -153 -51 -286t-143 -231.5t-230 -155t-303 -56.5t-303 56.5t-230 155t-143 231.5t-51 286zM487 1706q0 54 40 92.5t94 38.5t92.5 -38.5t38.5 -92.5q0 -55 -38.5 -94t-92.5 -39 t-94 39t-40 94zM506 711q0 -175 8.5 -290.5t28 -199.5t56 -128.5t86.5 -64.5t126 -20q62 0 106.5 12.5t79 45t56 82.5t35 131t19 184t5.5 248q0 174 -8.5 291.5t-27.5 204.5t-54.5 135t-86 70t-124.5 22q-75 0 -125.5 -22t-87 -70t-56 -135t-28 -204.5t-8.5 -291.5z M872 1706q0 54 40 92.5t94 38.5t93.5 -38.5t39.5 -92.5q0 -55 -39.5 -94t-93.5 -39t-94 39t-40 94z" />
<glyph unicode="&#xd7;" horiz-adv-x="1284" d="M121 156l364 364l-364 365l168 168l364 -365l365 365l166 -168l-365 -365l365 -364l-166 -168l-365 364l-364 -364z" />
<glyph unicode="&#xd8;" horiz-adv-x="1619" d="M86 711q0 152 51 288t143 238.5t230 162.5t303 60q198 0 361 -88l90 154h32l-98 -168q161 -99 251.5 -271.5t90.5 -375.5q0 -153 -51 -286t-143 -231.5t-230 -155t-303 -56.5q-202 0 -364 84l-80 -138h-33l88 152q-161 93 -249.5 259.5t-88.5 371.5zM508 711 q0 -299 27 -439l538 930q-27 126 -88.5 179t-171.5 53q-75 0 -125.5 -22t-87 -70t-56 -135t-28 -204.5t-8.5 -291.5zM545 233q29 -126 90 -175.5t178 -49.5q62 0 106.5 12.5t79 45t56 82.5t35 131t19 184t5.5 248q0 284 -31 448z" />
<glyph unicode="&#xd9;" horiz-adv-x="1556" d="M55 1415q67 0 95 -42.5t28 -137.5v-752q0 -121 43 -218.5t117 -158t168.5 -92.5t200.5 -32q83 0 158 16.5t143 54t116.5 93t77.5 138.5t29 185v571q0 23 1.5 47.5t8.5 63t18.5 72.5t33.5 70.5t51.5 62.5t75 42.5t100.5 16.5l-2 27h-578v-27q57 0 102.5 -21.5t73 -58 t46.5 -76t27.5 -85.5t11.5 -76.5t3 -57.5v-571q0 -164 -95.5 -264.5t-238.5 -100.5q-151 0 -242 94t-91 271v766q0 104 33 142t104 38v27h-619v-27zM403 1751l281 88l401 -334h-120z" />
<glyph unicode="&#xda;" horiz-adv-x="1556" d="M55 1415v27h619v-27q-71 0 -104 -38t-33 -142v-766q0 -177 91 -271t242 -94q143 0 238.5 100.5t95.5 264.5v571q0 27 -3 57.5t-11.5 76.5t-27.5 85.5t-46.5 76t-73 58t-102.5 21.5v27h578l2 -27q-55 0 -100.5 -16.5t-75 -42.5t-51.5 -62.5t-33.5 -70.5t-18.5 -72.5 t-8.5 -63t-1.5 -47.5v-571q0 -102 -29 -185t-77.5 -138.5t-116.5 -93t-143 -54t-158 -16.5q-106 0 -200.5 32t-168.5 92.5t-117 158t-43 218.5v752q0 95 -28 137.5t-95 42.5zM530 1505l402 334l280 -88l-561 -246h-121z" />
<glyph unicode="&#xdb;" horiz-adv-x="1556" d="M55 1415q67 0 95 -42.5t28 -137.5v-752q0 -121 43 -218.5t117 -158t168.5 -92.5t200.5 -32q83 0 158 16.5t143 54t116.5 93t77.5 138.5t29 185v571q0 23 1.5 47.5t8.5 63t18.5 72.5t33.5 70.5t51.5 62.5t75 42.5t100.5 16.5l-2 27h-578v-27q57 0 102.5 -21.5t73 -58 t46.5 -76t27.5 -85.5t11.5 -76.5t3 -57.5v-571q0 -164 -95.5 -264.5t-238.5 -100.5q-151 0 -242 94t-91 271v766q0 104 33 142t104 38v27h-619v-27zM489 1505l328 389l328 -389h-80l-248 162l-248 -162h-80z" />
<glyph unicode="&#xdc;" horiz-adv-x="1556" d="M55 1415v27h619v-27q-71 0 -104 -38t-33 -142v-766q0 -177 91 -271t242 -94q143 0 238.5 100.5t95.5 264.5v571q0 27 -3 57.5t-11.5 76.5t-27.5 85.5t-46.5 76t-73 58t-102.5 21.5v27h578l2 -27q-55 0 -100.5 -16.5t-75 -42.5t-51.5 -62.5t-33.5 -70.5t-18.5 -72.5 t-8.5 -63t-1.5 -47.5v-571q0 -102 -29 -185t-77.5 -138.5t-116.5 -93t-143 -54t-158 -16.5q-106 0 -200.5 32t-168.5 92.5t-117 158t-43 218.5v752q0 95 -28 137.5t-95 42.5zM408 1706q0 58 42.5 98.5t102.5 40.5q59 0 100 -40.5t41 -98.5q0 -60 -41.5 -102.5t-99.5 -42.5 q-60 0 -102.5 42.5t-42.5 102.5zM840 1706q0 58 41 98.5t100 40.5t101 -40.5t42 -98.5q0 -60 -42 -102.5t-101 -42.5q-58 0 -99.5 42.5t-41.5 102.5z" />
<glyph unicode="&#xdd;" horiz-adv-x="1613" d="M39 1417v25h635v-25h-2q-25 0 -38 -1.5t-28.5 -13.5t-14 -35t19.5 -69.5t57 -113.5l295 -490q118 244 147 307q10 20 22.5 62.5t19 104.5t-2.5 116t-52 92.5t-120 38.5v27h604v-27q-31 0 -64 -9t-80.5 -38t-94.5 -75t-104 -127t-110 -187l-151 -309v-430q0 -213 123 -213 v-27h-598v27q125 0 125 213v325q-134 236 -234 408.5t-133 226.5l-33 55q-26 45 -49.5 76.5t-40 47.5t-36 25t-31 10.5t-31.5 2.5zM555 1505l401 334l281 -88l-561 -246h-121z" />
<glyph unicode="&#xde;" horiz-adv-x="1411" d="M63 0v27q73 0 113.5 48t40.5 165v993q0 108 -38.5 145t-115.5 37v27h662v-27q-36 0 -61.5 -7t-47 -25.5t-32.5 -55.5t-11 -94v-47h37q96 0 171 -3.5t156 -14.5t141 -30t116 -50t91 -74t56 -104t21 -138q0 -76 -21 -136t-56 -102t-91 -73t-116 -49t-141 -29t-156 -14.5 t-171 -3.5h-37v-125q0 -117 40.5 -165t111.5 -48v-27h-662zM573 391h37q58 0 87.5 1t71.5 5.5t61.5 14.5t45.5 28t37 45.5t23 68t16 94t4 124.5q0 83 -8 143.5t-17.5 102.5t-36 69t-46 41.5t-65 21.5t-75.5 8t-94 1h-4h-37v-768z" />
<glyph unicode="&#xdf;" horiz-adv-x="1402" d="M43 0v25q100 17 100 215v759q0 264 138 397.5t372 133.5q53 0 97 -2.5t96.5 -11.5t93.5 -24t81 -42t66.5 -63t43 -88.5t16.5 -118.5q0 -81 -31 -143t-73 -94t-93 -52.5t-82.5 -25.5t-50.5 -5q37 0 79.5 -5t96 -19t102.5 -35.5t97 -57t83.5 -81t57 -110.5t21.5 -142 q0 -218 -132 -323t-411 -105q-140 0 -197 69q-25 28 -35 67.5t-1 74.5q13 53 60.5 78t102.5 10q50 -15 75.5 -62t10.5 -98q-16 -56 -59 -78q-18 -8 -14 -20q6 -15 57 -15q45 0 77.5 20.5t51.5 54t30.5 87.5t15 109.5t3.5 130.5q0 95 -24 171.5t-61.5 123t-86 78t-93.5 43.5 t-89 12v26q44 0 76 13.5t59 48t41 101t14 165.5q0 66 -8 117.5t-19 83.5t-30 55t-32 33t-34 15.5t-28 6t-21 0.5q-50 0 -86.5 -40.5t-52 -98.5t-24 -115.5t-8.5 -98.5l-1 -40v-1110h-438z" />
<glyph unicode="&#xe0;" d="M84 190q0 -54 22.5 -95t52.5 -62t68.5 -33.5t61.5 -15t41 -2.5q107 0 185.5 49.5t100.5 124.5q6 -49 31 -84.5t57.5 -52t63.5 -26t52 -10.5l22 -1q94 0 164 43t88 104l-23 12q-5 -16 -20 -24.5t-27 -9.5l-12 -1q-27 -1 -47.5 14t-30 36t-15 42.5t-5.5 36.5l-1 15v305 q0 191 -92.5 300.5t-285.5 109.5q-12 1 -32 0.5t-72 -11t-93 -32.5q-43 -22 -76 -49.5t-43 -39.5t-29 -38q-22 -26 -24.5 -64.5t14.5 -73.5q25 -47 77 -63.5t99 8.5q47 26 64 77.5t-8 98.5q-27 50 -76 62q-15 4 -19.5 12t0 17t14.5 17.5t23 14.5q106 54 183 -18.5t77 -231.5 v-129q-255 -62 -324 -87q-134 -47 -177 -121q-29 -49 -29 -124zM203 1354l280 88l402 -334h-121zM397 242q0 42 8.5 76.5t30.5 70.5t67 63t111 42v-297q-37 -91 -110 -91q-30 0 -52 14t-32 34t-16 40t-6 34z" />
<glyph unicode="&#xe1;" d="M84 190q0 60 22 104.5t49.5 72.5t102.5 56t128 42t179 45q32 8 49 12v129q0 159 -77 231.5t-183 18.5q-13 -6 -23 -14.5t-14.5 -17.5t0 -17t19.5 -12q49 -12 76 -62q25 -47 8 -98.5t-64 -77.5q-47 -25 -99 -8.5t-77 63.5q-17 35 -14.5 73.5t24.5 64.5q19 26 29 38 t43 39.5t76 49.5q41 22 90 32.5t78 10.5h29q193 0 285.5 -109.5t92.5 -300.5v-305q0 -6 0.5 -16t6 -35t15 -44t30 -34.5t47.5 -14.5q5 0 13.5 1t24.5 9.5t21 24.5l23 -12q-18 -61 -88 -104t-164 -43q-4 0 -11.5 0.5t-29.5 4t-42 9.5t-45.5 19t-44.5 30.5t-34 46t-19 64.5 q-22 -75 -100.5 -124.5t-185.5 -49.5q-18 0 -41 2.5t-61.5 15t-68.5 33.5t-52.5 62t-22.5 95zM303 1108l402 334l280 -88l-561 -246h-121zM397 242q0 -6 0.5 -15t6.5 -32.5t16 -41.5t32 -32.5t52 -14.5q73 0 110 91v297q-66 -15 -111 -42t-67 -63t-30.5 -70.5t-8.5 -76.5z " />
<glyph unicode="&#xe2;" d="M84 190q0 -54 22.5 -95t52.5 -62t68.5 -33.5t61.5 -15t41 -2.5q107 0 185.5 49.5t100.5 124.5q6 -49 31 -84.5t57.5 -52t63.5 -26t52 -10.5l22 -1q94 0 164 43t88 104l-23 12q-5 -16 -20 -24.5t-27 -9.5l-12 -1q-27 -1 -47.5 14t-30 36t-15 42.5t-5.5 36.5l-1 15v305 q0 191 -92.5 300.5t-285.5 109.5q-12 1 -32 0.5t-72 -11t-93 -32.5q-43 -22 -76 -49.5t-43 -39.5t-29 -38q-22 -26 -24.5 -64.5t14.5 -73.5q25 -47 77 -63.5t99 8.5q47 26 64 77.5t-8 98.5q-27 50 -76 62q-15 4 -19.5 12t0 17t14.5 17.5t23 14.5q106 54 183 -18.5t77 -231.5 v-129q-255 -62 -324 -87q-134 -47 -177 -121q-29 -49 -29 -124zM272 1059l328 389l328 -389h-80l-248 162l-248 -162h-80zM397 242q0 42 8.5 76.5t30.5 70.5t67 63t111 42v-297q-37 -91 -110 -91q-30 0 -52 14t-32 34t-16 40t-6 34z" />
<glyph unicode="&#xe3;" d="M66 1126q32 77 72.5 133.5t79.5 85t78.5 45.5t72.5 18t59 -1t40 -7l15 -5l244 -92q41 -16 108 -20.5t138 17t96 72.5l18 -10q-33 -75 -73.5 -130t-79.5 -83.5t-78.5 -45.5t-72 -19t-58.5 -0.5t-41 6.5l-14 4l-246 92q-28 11 -74.5 16.5t-99.5 2.5t-99 -24.5t-65 -60.5z M84 190q0 60 22 104.5t49.5 72.5t102.5 56t128 42t179 45q32 8 49 12v129q0 159 -77 231.5t-183 18.5q-13 -6 -23 -14.5t-14.5 -17.5t0 -17t19.5 -12q49 -12 76 -62q25 -47 8 -98.5t-64 -77.5q-47 -25 -99 -8.5t-77 63.5q-17 35 -14.5 73.5t24.5 64.5q19 26 29 38t43 39.5 t76 49.5q41 22 90 32.5t78 10.5h29q193 0 285.5 -109.5t92.5 -300.5v-305q0 -6 0.5 -16t6 -35t15 -44t30 -34.5t47.5 -14.5q5 0 13.5 1t24.5 9.5t21 24.5l23 -12q-18 -61 -88 -104t-164 -43q-4 0 -11.5 0.5t-29.5 4t-42 9.5t-45.5 19t-44.5 30.5t-34 46t-19 64.5 q-22 -75 -100.5 -124.5t-185.5 -49.5q-18 0 -41 2.5t-61.5 15t-68.5 33.5t-52.5 62t-22.5 95zM397 242q0 -6 0.5 -15t6.5 -32.5t16 -41.5t32 -32.5t52 -14.5q73 0 110 91v297q-66 -15 -111 -42t-67 -63t-30.5 -70.5t-8.5 -76.5z" />
<glyph unicode="&#xe4;" d="M84 190q0 60 22 104.5t49.5 72.5t102.5 56t128 42t179 45q32 8 49 12v129q0 159 -77 231.5t-183 18.5q-13 -6 -23 -14.5t-14.5 -17.5t0 -17t19.5 -12q49 -12 76 -62q25 -47 8 -98.5t-64 -77.5q-47 -25 -99 -8.5t-77 63.5q-17 35 -14.5 73.5t24.5 64.5q19 26 29 38 t43 39.5t76 49.5q41 22 90 32.5t78 10.5h29q193 0 285.5 -109.5t92.5 -300.5v-305q0 -6 0.5 -16t6 -35t15 -44t30 -34.5t47.5 -14.5q5 0 13.5 1t24.5 9.5t21 24.5l23 -12q-18 -61 -88 -104t-164 -43q-4 0 -11.5 0.5t-29.5 4t-42 9.5t-45.5 19t-44.5 30.5t-34 46t-19 64.5 q-22 -75 -100.5 -124.5t-185.5 -49.5q-18 0 -41 2.5t-61.5 15t-68.5 33.5t-52.5 62t-22.5 95zM252 1253q0 54 39 92.5t94 38.5q54 0 92.5 -38.5t38.5 -92.5q0 -55 -38.5 -94t-92.5 -39q-55 0 -94 39t-39 94zM397 242q0 -6 0.5 -15t6.5 -32.5t16 -41.5t32 -32.5t52 -14.5 q73 0 110 91v297q-66 -15 -111 -42t-67 -63t-30.5 -70.5t-8.5 -76.5zM637 1253q0 54 39 92.5t94 38.5q54 0 92.5 -38.5t38.5 -92.5q0 -55 -38.5 -94t-92.5 -39q-56 0 -94.5 39t-38.5 94z" />
<glyph unicode="&#xe5;" d="M84 190q0 60 22 104.5t49.5 72.5t102.5 56t128 42t179 45q32 8 49 12v129q0 159 -77 231.5t-183 18.5q-13 -6 -23 -14.5t-14.5 -17.5t0 -17t19.5 -12q49 -12 76 -62q25 -47 8 -98.5t-64 -77.5q-47 -25 -99 -8.5t-77 63.5q-17 35 -14.5 73.5t24.5 64.5q19 26 29 38 t43 39.5t76 49.5q41 22 90 32.5t78 10.5h29q193 0 285.5 -109.5t92.5 -300.5v-305q0 -6 0.5 -16t6 -35t15 -44t30 -34.5t47.5 -14.5q5 0 13.5 1t24.5 9.5t21 24.5l23 -12q-18 -61 -88 -104t-164 -43q-4 0 -11.5 0.5t-29.5 4t-42 9.5t-45.5 19t-44.5 30.5t-34 46t-19 64.5 q-22 -75 -100.5 -124.5t-185.5 -49.5q-18 0 -41 2.5t-61.5 15t-68.5 33.5t-52.5 62t-22.5 95zM362 1307q0 88 62.5 150.5t150.5 62.5q89 0 151 -62.5t62 -150.5t-62 -150.5t-151 -62.5q-88 0 -150.5 62.5t-62.5 150.5zM397 242q0 -6 0.5 -15t6.5 -32.5t16 -41.5t32 -32.5 t52 -14.5q73 0 110 91v297q-66 -15 -111 -42t-67 -63t-30.5 -70.5t-8.5 -76.5zM475 1307q0 -43 29.5 -73t70.5 -30q43 0 72 30t29 73q0 41 -29 70.5t-72 29.5q-41 0 -70.5 -29.5t-29.5 -70.5z" />
<glyph unicode="&#xe6;" horiz-adv-x="1503" d="M80 190q0 52 10.5 91t43.5 70t63.5 51.5t101 43.5t124 37.5t163.5 40.5v125q0 160 -72 232.5t-178 17.5q-28 -13 -35 -30t21 -27q47 -15 71 -64q26 -47 10 -99t-65 -77q-47 -25 -98 -8.5t-76 63.5q-18 34 -15.5 72t23.5 66q17 23 28.5 36.5t44 39.5t74.5 49q41 22 86 33 t70 11l25 1q160 0 258 -113q71 58 132 85.5t140 27.5q133 0 216 -44.5t127 -149.5t44 -279h-534q4 -187 56 -272.5t163 -106.5q85 -15 162 33.5t100 132.5l29 -11q-7 -42 -22 -79.5t-44 -76.5t-69 -67t-102 -45.5t-138 -17.5q-115 0 -216.5 54t-154.5 142q-28 -80 -120 -138 t-218 -58q-5 0 -13 0.5t-32 4.5t-45.5 11t-48 22.5t-45.5 36.5t-32 55.5t-13 77.5zM377 240q0 -6 0.5 -15t5.5 -32.5t14.5 -41.5t30.5 -32.5t51 -14.5q51 0 89 32t61 73q-36 65 -43 164v123q-83 -22 -146 -98t-63 -158zM883 518h272q0 70 -1.5 121t-6 102t-13 84.5t-22 60.5 t-33 39.5t-45.5 12.5q-44 0 -75 -36.5t-47 -100.5t-22.5 -133t-6.5 -150z" />
<glyph unicode="&#xe7;" horiz-adv-x="1044" d="M90 477q0 99 34 185.5t99.5 155t171.5 108t240 39.5q103 0 176 -32.5t115 -74.5q27 -27 37 -67.5t0 -79.5q-19 -57 -72.5 -84.5t-110.5 -10.5q-57 19 -84 71.5t-8 109.5q19 60 70 82q14 5 -2 23q-33 36 -115 36q-38 0 -75.5 -24t-71 -72t-54 -134t-20.5 -198 q0 -160 70.5 -247t193.5 -99q77 -8 153.5 22.5t104.5 81.5l23 -12q-5 -45 -33.5 -91.5t-77 -88t-125.5 -68t-168 -26.5h-26l-37 -107q133 30 204.5 -27t61.5 -149q-6 -49 -29.5 -83t-58.5 -50.5t-68 -23.5t-67 -7q-89 0 -144 43q-13 11 -20.5 31t-3.5 39q6 28 30.5 42 t53.5 7q29 -6 44 -29t9 -51q-5 -26 -27 -37q-8 -4 5 -12q15 -8 49 -8q42 0 66 30t24 72q0 17 -8.5 39.5t-27 48.5t-59 39t-94.5 4l72 191q-180 20 -300 162.5t-120 330.5z" />
<glyph unicode="&#xe8;" horiz-adv-x="1085" d="M74 469q0 -128 60.5 -239.5t169 -179.5t239.5 -68q95 0 174.5 25.5t130.5 67.5t82.5 90t42.5 99l-27 10q-32 -95 -124 -138t-179 -23q-54 12 -95.5 36.5t-75.5 68t-53 112.5t-22 162h604q0 129 -30.5 222t-88.5 147t-134.5 79t-176.5 25q-101 0 -190 -33t-158 -94.5 t-109 -157t-40 -211.5zM164 1354l280 88l402 -334h-121zM397 518q0 101 20 196t61 159.5t93 64.5q76 0 117 -112t41 -308h-332z" />
<glyph unicode="&#xe9;" horiz-adv-x="1085" d="M74 469q0 116 40 211.5t109 157t158 94.5t190 33q100 0 176.5 -25t134.5 -79t88.5 -147t30.5 -222h-604q3 -93 22 -162t53 -112.5t75.5 -68t95.5 -36.5q87 -20 179 23t124 138l27 -10q-11 -51 -42.5 -99t-82.5 -90t-130.5 -67.5t-174.5 -25.5q-131 0 -239.5 68 t-169 179.5t-60.5 239.5zM291 1108l401 334l281 -88l-561 -246h-121zM397 518h332q0 196 -41 308t-117 112q-52 0 -93 -64.5t-61 -159.5t-20 -196z" />
<glyph unicode="&#xea;" horiz-adv-x="1085" d="M74 469q0 -128 60.5 -239.5t169 -179.5t239.5 -68q95 0 174.5 25.5t130.5 67.5t82.5 90t42.5 99l-27 10q-32 -95 -124 -138t-179 -23q-54 12 -95.5 36.5t-75.5 68t-53 112.5t-22 162h604q0 129 -30.5 222t-88.5 147t-134.5 79t-176.5 25q-101 0 -190 -33t-158 -94.5 t-109 -157t-40 -211.5zM252 1059l328 389l327 -389h-80l-247 162l-248 -162h-80zM397 518q0 101 20 196t61 159.5t93 64.5q76 0 117 -112t41 -308h-332z" />
<glyph unicode="&#xeb;" horiz-adv-x="1085" d="M74 469q0 116 40 211.5t109 157t158 94.5t190 33q100 0 176.5 -25t134.5 -79t88.5 -147t30.5 -222h-604q3 -93 22 -162t53 -112.5t75.5 -68t95.5 -36.5q87 -20 179 23t124 138l27 -10q-11 -51 -42.5 -99t-82.5 -90t-130.5 -67.5t-174.5 -25.5q-131 0 -239.5 68 t-169 179.5t-60.5 239.5zM223 1253q0 54 39 92.5t94 38.5q54 0 92.5 -38.5t38.5 -92.5q0 -55 -38.5 -94t-92.5 -39q-56 0 -94.5 39t-38.5 94zM397 518h332q0 196 -41 308t-117 112q-52 0 -93 -64.5t-61 -159.5t-20 -196zM608 1253q0 54 39 92.5t94 38.5q54 0 92.5 -38.5 t38.5 -92.5q0 -55 -38.5 -94t-92.5 -39q-55 0 -94 39t-39 94z" />
<glyph unicode="&#xec;" horiz-adv-x="620" d="M-100 1354l280 88l402 -334h-121zM53 854q63 -28 85 -55.5t22 -81.5v-477q0 -96 -14.5 -147t-67.5 -68v-25h467v25q-51 14 -67.5 66t-16.5 149v725l-408 -84v-27z" />
<glyph unicode="&#xed;" horiz-adv-x="620" d="M49 1108l402 334l280 -88l-561 -246h-121zM53 854v27l408 84v-725q0 -97 16.5 -149t67.5 -66v-25h-467v25q53 17 67.5 68t14.5 147v477q0 54 -22 81.5t-85 55.5z" />
<glyph unicode="&#xee;" horiz-adv-x="620" d="M-6 1059l328 389l327 -389h-80l-247 162l-248 -162h-80zM53 854q63 -28 85 -55.5t22 -81.5v-477q0 -96 -14.5 -147t-67.5 -68v-25h467v25q-51 14 -67.5 66t-16.5 149v725l-408 -84v-27z" />
<glyph unicode="&#xef;" horiz-adv-x="620" d="M-25 1253q0 54 39.5 92.5t94.5 38.5q54 0 92.5 -38.5t38.5 -92.5q0 -55 -38.5 -94t-92.5 -39q-56 0 -95 39t-39 94zM55 854v27l406 84v-725q0 -97 16.5 -149t67.5 -66v-25h-465v25q28 9 45 28t24.5 52t9 59.5t1.5 75.5v477q0 54 -21 81.5t-84 55.5zM360 1253 q0 54 39.5 92.5t94.5 38.5q54 0 92.5 -38.5t38.5 -92.5q0 -55 -38.5 -94t-92.5 -39q-56 0 -95 39t-39 94z" />
<glyph unicode="&#xf0;" horiz-adv-x="1208" d="M78 446q0 71 12.5 133.5t43.5 121.5t79 101t123.5 67.5t171.5 25.5q82 0 159 -34.5t107 -104.5q-6 323 -86 487l-354 -180l-19 22l359 185q-95 164 -301 164v26q263 0 450 -114l197 102l20 -23l-190 -98q137 -97 215 -266t78 -410q0 -311 -143 -490t-408 -179 q-112 0 -205 28.5t-162.5 84.5t-108 145.5t-38.5 205.5zM414 406q0 -99 4.5 -163.5t15.5 -113t32 -73.5t51 -36.5t75 -11.5q108 0 145 155.5t37 518.5q0 47 -29.5 80t-69 46t-81.5 13q-79 0 -129.5 -110.5t-50.5 -304.5z" />
<glyph unicode="&#xf1;" horiz-adv-x="1161" d="M18 854v27l408 84v-209q37 88 125.5 148.5t179.5 60.5q65 0 115.5 -14.5t93 -48.5t65.5 -97t23 -152v-411q0 -98 16.5 -151.5t67.5 -65.5v-25h-467v25q53 16 67.5 68t14.5 149v403q0 82 -39.5 127t-114.5 45q-47 0 -91.5 -38.5t-55.5 -86.5v-454q0 -97 16.5 -148 t67.5 -65v-25h-467v25q28 8 45 26.5t24.5 51.5t9 59.5t1.5 75.5v481q0 54 -21 80.5t-84 54.5zM66 1126q32 77 72.5 133.5t79.5 85t78.5 45.5t72.5 18t59 -1t40 -7l15 -5l244 -92q41 -16 108 -20.5t138 17t96 72.5l18 -10q-33 -75 -73.5 -130t-79.5 -83.5t-78.5 -45.5 t-72 -19t-58.5 -0.5t-41 6.5l-14 4l-246 92q-28 11 -75 16.5t-99.5 2.5t-99.5 -24.5t-66 -60.5z" />
<glyph unicode="&#xf2;" horiz-adv-x="1165" d="M84 473q0 -102 32.5 -190t94 -155.5t160 -106.5t221.5 -39q124 0 222 39t160 106.5t94 155.5t32 190q0 103 -32 191t-94 156t-160 106.5t-222 38.5q-123 0 -221 -38.5t-160 -106.5t-94.5 -156t-32.5 -191zM190 1354l281 88l401 -334h-120zM442 473q0 118 3.5 191.5 t12 131.5t26 86.5t43 42t65.5 13.5q33 0 56 -8t40 -30.5t27 -54t16 -87.5t8 -121t2 -164t-2 -164t-8 -121t-16 -87.5t-27 -54t-40 -30.5t-56 -8q-40 0 -65.5 13.5t-43 42t-26 86.5t-12 131.5t-3.5 191.5z" />
<glyph unicode="&#xf3;" horiz-adv-x="1165" d="M84 473q0 103 32.5 191t94.5 156t160 106.5t221 38.5q124 0 222 -38.5t160 -106.5t94 -156t32 -191q0 -102 -32 -190t-94 -155.5t-160 -106.5t-222 -39q-123 0 -221.5 39t-160 106.5t-94 155.5t-32.5 190zM315 1108l402 334l280 -88l-561 -246h-121zM442 473 q0 -118 3.5 -191.5t12 -131.5t26 -86.5t43 -42t65.5 -13.5q33 0 56 8t40 30.5t27 54t16 87.5t8 121t2 164t-2 164t-8 121t-16 87.5t-27 54t-40 30.5t-56 8q-40 0 -65.5 -13.5t-43 -42t-26 -86.5t-12 -131.5t-3.5 -191.5z" />
<glyph unicode="&#xf4;" horiz-adv-x="1165" d="M84 473q0 -102 32.5 -190t94 -155.5t160 -106.5t221.5 -39q124 0 222 39t160 106.5t94 155.5t32 190q0 103 -32 191t-94 156t-160 106.5t-222 38.5q-123 0 -221 -38.5t-160 -106.5t-94.5 -156t-32.5 -191zM274 1059l328 389l328 -389h-80l-248 162l-248 -162h-80z M442 473q0 118 3.5 191.5t12 131.5t26 86.5t43 42t65.5 13.5q33 0 56 -8t40 -30.5t27 -54t16 -87.5t8 -121t2 -164t-2 -164t-8 -121t-16 -87.5t-27 -54t-40 -30.5t-56 -8q-40 0 -65.5 13.5t-43 42t-26 86.5t-12 131.5t-3.5 191.5z" />
<glyph unicode="&#xf5;" horiz-adv-x="1165" d="M84 473q0 -102 32.5 -190t94 -155.5t160 -106.5t221.5 -39q124 0 222 39t160 106.5t94 155.5t32 190q0 103 -32 191t-94 156t-160 106.5t-222 38.5q-123 0 -221 -38.5t-160 -106.5t-94.5 -156t-32.5 -191zM86 1126q32 77 72.5 133.5t79.5 85t78.5 45.5t73 18t59.5 -1 t41 -7l14 -5l244 -92q40 -16 106 -20.5t137 17t96 72.5l21 -10q-33 -75 -74 -130t-80 -83.5t-79 -45.5t-73 -19t-59 -0.5t-41 6.5l-14 4l-244 92q-29 11 -75.5 16.5t-99.5 2.5t-99.5 -24.5t-65.5 -60.5zM442 473q0 118 3.5 191.5t12 131.5t26 86.5t43 42t65.5 13.5 q33 0 56 -8t40 -30.5t27 -54t16 -87.5t8 -121t2 -164t-2 -164t-8 -121t-16 -87.5t-27 -54t-40 -30.5t-56 -8q-40 0 -65.5 13.5t-43 42t-26 86.5t-12 131.5t-3.5 191.5z" />
<glyph unicode="&#xf6;" horiz-adv-x="1165" d="M84 473q0 103 32.5 191t94.5 156t160 106.5t221 38.5q124 0 222 -38.5t160 -106.5t94 -156t32 -191q0 -102 -32 -190t-94 -155.5t-160 -106.5t-222 -39q-123 0 -221.5 39t-160 106.5t-94 155.5t-32.5 190zM266 1253q0 54 39 92.5t94 38.5q54 0 92.5 -38.5t38.5 -92.5 q0 -55 -38.5 -94t-92.5 -39q-55 0 -94 39t-39 94zM442 473q0 -118 3.5 -191.5t12 -131.5t26 -86.5t43 -42t65.5 -13.5q33 0 56 8t40 30.5t27 54t16 87.5t8 121t2 164t-2 164t-8 121t-16 87.5t-27 54t-40 30.5t-56 8q-40 0 -65.5 -13.5t-43 -42t-26 -86.5t-12 -131.5 t-3.5 -191.5zM651 1253q0 54 39 92.5t94 38.5q54 0 92.5 -38.5t38.5 -92.5q0 -55 -38.5 -94t-92.5 -39q-56 0 -94.5 39t-38.5 94z" />
<glyph unicode="&#xf7;" horiz-adv-x="1280" d="M92 455v221h1098v-221h-1098zM492 123q0 60 43 103.5t104 43.5t105 -43.5t44 -103.5q0 -63 -43.5 -106.5t-105.5 -43.5t-104.5 43.5t-42.5 106.5zM492 1010q0 61 43 105t104 44t105 -44.5t44 -104.5q0 -62 -44 -106t-105 -44t-104 44t-43 106z" />
<glyph unicode="&#xf8;" horiz-adv-x="1165" d="M84 473q0 103 32.5 191t94.5 156t160 106.5t221 38.5q132 0 246 -52l94 162h31l-103 -172q119 -61 179.5 -174t60.5 -256q0 -102 -32 -190t-94 -155.5t-160 -106.5t-222 -39q-138 0 -244 47l-96 -166h-29l105 178q-120 60 -182 174t-62 258zM442 473q0 -164 4 -221 l285 477q-11 117 -41.5 163t-97.5 46q-40 0 -65.5 -13.5t-43 -42t-26 -86.5t-12 -131.5t-3.5 -191.5zM453 207q10 -114 40.5 -156.5t98.5 -42.5q33 0 56 8t40 30.5t27 54t16 87.5t8 121t2 164q0 137 -8 213z" />
<glyph unicode="&#xf9;" horiz-adv-x="1202" d="M35 899q30 -4 48.5 -7.5t32.5 -13t20 -16t9.5 -26t4 -34t0.5 -49.5v-12v-446q0 -89 22.5 -152t64.5 -97t92 -49t115 -15q110 0 201.5 64t116.5 151v-174q0 -2 0.5 -5t4 -10.5t9 -13t17 -9t26.5 -1.5l348 53v24q-66 8 -85 29.5t-19 93.5v781l-397 -41v-25q19 -2 32 -5 t24 -7t17 -9.5t11 -13t7 -17.5t3.5 -23t1.5 -29v-35v-25v-481q-23 -60 -66.5 -91.5t-89.5 -31.5q-83 0 -118 41t-35 129v664l-418 -41v-25zM190 1354l281 88l401 -334h-120z" />
<glyph unicode="&#xfa;" horiz-adv-x="1202" d="M35 899v25l418 41v-664q0 -88 35 -129t118 -41q46 0 89.5 31.5t66.5 91.5v481q0 95 -5 114q-9 32 -50 43q-16 4 -41 7v25l397 41v-781q0 -72 19 -93.5t85 -29.5v-24l-348 -53q-24 -4 -38.5 6t-16.5 22l-2 11v174q-25 -87 -116.5 -151t-201.5 -64q-65 0 -115 15t-92 49 t-64.5 97t-22.5 152v446q0 89 -8 109q-11 30 -60 41q-18 4 -47 8zM323 1108l402 334l280 -88l-561 -246h-121z" />
<glyph unicode="&#xfb;" horiz-adv-x="1202" d="M35 899q30 -4 48.5 -7.5t32.5 -13t20 -16t9.5 -26t4 -34t0.5 -49.5v-12v-446q0 -89 22.5 -152t64.5 -97t92 -49t115 -15q110 0 201.5 64t116.5 151v-174q0 -2 0.5 -5t4 -10.5t9 -13t17 -9t26.5 -1.5l348 53v24q-66 8 -85 29.5t-19 93.5v781l-397 -41v-25q19 -2 32 -5 t24 -7t17 -9.5t11 -13t7 -17.5t3.5 -23t1.5 -29v-35v-25v-481q-23 -60 -66.5 -91.5t-89.5 -31.5q-83 0 -118 41t-35 129v664l-418 -41v-25zM281 1059l327 389l328 -389h-80l-248 162l-248 -162h-79z" />
<glyph unicode="&#xfc;" horiz-adv-x="1202" d="M35 899v25l418 41v-664q0 -88 35 -129t118 -41q46 0 89.5 31.5t66.5 91.5v481q0 95 -5 114q-9 32 -50 43q-16 4 -41 7v25l397 41v-781q0 -72 19 -93.5t85 -29.5v-24l-348 -53q-24 -4 -38.5 6t-16.5 22l-2 11v174q-25 -87 -116.5 -151t-201.5 -64q-65 0 -115 15t-92 49 t-64.5 97t-22.5 152v446q0 89 -8 109q-11 30 -60 41q-18 4 -47 8zM274 1251q0 54 39.5 92.5t94.5 38.5q54 0 92.5 -38.5t38.5 -92.5q0 -55 -38.5 -94t-92.5 -39q-56 0 -95 39t-39 94zM659 1251q0 54 39.5 92.5t94.5 38.5q54 0 92.5 -38.5t38.5 -92.5q0 -55 -38.5 -94 t-92.5 -39q-56 0 -95 39t-39 94z" />
<glyph unicode="&#xfd;" horiz-adv-x="1167" d="M0 922v24h563v-24q-34 0 -52 -15.5t-19 -37.5t3 -44t11 -37l6 -16l213 -434l96 262q2 7 6 18.5t11.5 45t10 64t-2 67.5t-20 63.5t-49.5 45t-85 18.5v24h441v-24q-40 0 -69.5 -11t-64 -45t-72 -100t-81.5 -172l-285 -780q-66 -199 -162 -277q-31 -25 -83.5 -31.5 t-92.5 11.5q-61 28 -84 89.5t4 121.5q28 60 88.5 82.5t120.5 -3.5q60 -27 80 -90q6 -21 26 -18q43 8 78 121q1 1 1 2l38 106q-28 64 -135 286.5t-200 412.5l-93 190q-48 100 -147 105zM227 1108l402 334l280 -88l-561 -246h-121z" />
<glyph unicode="&#xfe;" horiz-adv-x="1298" d="M29 1391v24l405 84v-694q44 80 132 120t200 40q192 0 313 -136.5t121 -351.5q0 -108 -28 -193t-75.5 -141t-114 -93t-141 -52.5t-159.5 -15.5q-152 0 -248 55v-348q0 -95 17 -143.5t67 -61.5v-27h-465v27q53 16 66.5 62.5t13.5 142.5v1577q0 54 -20 78t-84 47zM434 289 q10 -141 65.5 -211t139.5 -70q209 0 209 445q0 218 -54 328t-169 110q-87 0 -134 -66.5t-57 -171.5v-364z" />
<glyph unicode="&#xff;" horiz-adv-x="1167" d="M2 922v24h563v-24q-34 0 -52 -15.5t-19 -37.5t3 -44t11 -37l6 -16l213 -434l96 262q2 7 6 18.5t11.5 45t10 64t-2 67.5t-20 63.5t-49.5 45t-85 18.5v24h441v-24q-40 0 -69.5 -11t-64 -45t-72 -100t-81.5 -172l-285 -780q-66 -199 -162 -277q-31 -25 -83.5 -31.5 t-92.5 11.5q-61 28 -84 89.5t4 121.5q28 60 88.5 82.5t120.5 -3.5q60 -27 80 -90q6 -21 26 -18q43 8 78 121q1 1 1 2l39 106q-28 64 -135 286.5t-200 412.5l-93 190q-48 100 -148 105zM264 1255q0 54 39 92.5t94 38.5q54 0 92.5 -38.5t38.5 -92.5q0 -56 -38.5 -95.5 t-92.5 -39.5q-55 0 -94 39.5t-39 95.5zM649 1255q0 54 39 92.5t94 38.5q54 0 92.5 -38.5t38.5 -92.5q0 -56 -38.5 -95.5t-92.5 -39.5q-55 0 -94 39.5t-39 95.5z" />
<glyph unicode="&#x152;" horiz-adv-x="2127" d="M88 711q0 123 27.5 234t84.5 205t137.5 163t192.5 108t244 39q58 0 141 -18h1063v-406h-26q-7 79 -39.5 142t-78.5 101.5t-100.5 67t-107 41t-96 19.5t-70.5 7l-26 1h-74v-674h98h14t32 4.5t46 12t49 24.5t48.5 40t36.5 61t20 86h27v-482h-27q-4 48 -20 86t-36.5 61 t-48.5 40t-49 24.5t-46 12t-32 4.5h-14h-98v-688h74h17.5t46.5 3t69 8.5t81 19t87.5 32t83.5 49.5t75 69.5t55 94t29 121.5h27v-424h-1085q-99 -18 -146 -18q-165 0 -297 56.5t-216 155.5t-128.5 231t-44.5 286zM510 711q0 -288 23 -435.5t78 -207.5t163 -60q45 0 76 5.5 t61.5 23t49 49t29.5 84.5t11 127q0 28 1.5 419.5t1.5 416.5q0 93 -15.5 154t-48 92.5t-71 43t-95.5 11.5q-65 0 -109 -22t-75 -70t-48 -135t-24.5 -204.5t-7.5 -291.5z" />
<glyph unicode="&#x153;" horiz-adv-x="1636" d="M84 471q0 104 29 191.5t87 156t153 107.5t218 39q182 0 312 -111q140 111 278 111q194 0 292.5 -110.5t98.5 -365.5h-524q3 -188 50.5 -270t154.5 -106q81 -19 157 26.5t111 136.5l29 -10q-68 -284 -373 -284q-147 0 -276 104q-119 -104 -310 -104q-123 0 -218 38.5 t-153 106t-87 154.5t-29 190zM442 471q0 -295 20.5 -379t108.5 -84q23 0 40 4t31 16.5t23 27.5t16 45t10.5 60t5.5 82t2.5 101t0.5 127q0 102 -1.5 164.5t-6 120.5t-13 88.5t-23 54t-35 31.5t-50.5 8q-23 0 -40 -4t-31 -17t-23 -28t-16 -46t-10.5 -61t-5.5 -82.5 t-2.5 -101.5t-0.5 -127zM1028 516h262q0 208 -27.5 315t-97.5 107q-40 0 -68 -37t-42.5 -101.5t-20.5 -133.5t-6 -150z" />
<glyph unicode="&#x178;" horiz-adv-x="1613" d="M41 1417v25h635v-25h-2q-25 0 -38 -1.5t-28.5 -13.5t-14 -35t19.5 -69.5t57 -113.5l295 -490q118 244 147 307q10 20 22.5 62.5t19 104.5t-2.5 116t-52 92.5t-120 38.5v27h604v-27q-31 0 -64 -9t-80.5 -38t-94.5 -75t-104 -127t-110 -187l-151 -309v-430q0 -213 123 -213 v-27h-598v27q125 0 125 213v325q-134 236 -234 408.5t-133 226.5l-33 55q-26 45 -49.5 76.5t-40 47.5t-36 25t-31 10.5t-31.5 2.5zM485 1706q0 54 39 92.5t94 38.5q54 0 93 -38.5t39 -92.5q0 -55 -39 -94t-93 -39q-56 0 -94.5 38.5t-38.5 94.5zM870 1706q0 54 39.5 92.5 t94.5 38.5q54 0 92.5 -38.5t38.5 -92.5q0 -55 -38.5 -94t-92.5 -39q-56 0 -95 39t-39 94z" />
<glyph unicode="&#x2c6;" horiz-adv-x="655" d="M0 1087l328 392l327 -392h-77l-250 164l-248 -164h-80z" />
<glyph unicode="&#x2dc;" horiz-adv-x="946" d="M-39 1141q32 77 72.5 134t79.5 86.5t78.5 47t73 20t59.5 1t40 -5.5l15 -5l244 -92q42 -17 108 -23.5t137.5 12.5t96.5 70l18 -10q-33 -75 -73.5 -131t-79.5 -85t-78.5 -47t-72.5 -21t-59 -2.5t-40 4.5l-15 4l-246 92q-41 16 -105.5 23.5t-136 -10t-95.5 -68.5z" />
<glyph unicode="&#x2000;" horiz-adv-x="1006" />
<glyph unicode="&#x2001;" horiz-adv-x="2013" />
<glyph unicode="&#x2002;" horiz-adv-x="1006" />
<glyph unicode="&#x2003;" horiz-adv-x="2013" />
<glyph unicode="&#x2004;" horiz-adv-x="671" />
<glyph unicode="&#x2005;" horiz-adv-x="503" />
<glyph unicode="&#x2006;" horiz-adv-x="335" />
<glyph unicode="&#x2007;" horiz-adv-x="335" />
<glyph unicode="&#x2008;" horiz-adv-x="251" />
<glyph unicode="&#x2009;" horiz-adv-x="402" />
<glyph unicode="&#x200a;" horiz-adv-x="111" />
<glyph unicode="&#x2010;" horiz-adv-x="909" d="M131 401v238h645v-238h-645z" />
<glyph unicode="&#x2011;" horiz-adv-x="909" d="M131 401v238h645v-238h-645z" />
<glyph unicode="&#x2012;" horiz-adv-x="909" d="M131 401v238h645v-238h-645z" />
<glyph unicode="&#x2013;" horiz-adv-x="1148" d="M0 426v180h1149v-180h-1149z" />
<glyph unicode="&#x2014;" horiz-adv-x="2160" d="M0 426v180h2161v-180h-2161z" />
<glyph unicode="&#x2018;" horiz-adv-x="583" d="M126.5 1017q-10.5 58 6.5 118.5t40 109t52 92.5q71 99 183 162l18 -24q-52 -41 -86.5 -98.5t-36 -91t11.5 -42.5q80 -7 129 -53q57 -56 58 -135.5t-56 -136.5q-56 -56 -134 -56t-134 56q-41 41 -51.5 99z" />
<glyph unicode="&#x2019;" horiz-adv-x="591" d="M112 1309.5q-1 79.5 56 136.5q56 56 134 56t134 -56q41 -41 51.5 -99t-6.5 -118.5t-40 -109.5t-52 -93q-72 -100 -182 -162l-19 25q52 41 86.5 98.5t36 90.5t-11.5 42q-79 7 -129 54q-57 56 -58 135.5z" />
<glyph unicode="&#x201a;" horiz-adv-x="587" d="M118 174.5q-1 79.5 56 136.5q56 55 134 55t134 -55q41 -41 51.5 -99t-6.5 -118.5t-40 -109.5t-52 -93q-71 -98 -182 -161l-18 24q52 41 86.5 98.5t35.5 91t-12 42.5q-80 7 -129 53q-57 56 -58 135.5z" />
<glyph unicode="&#x201c;" horiz-adv-x="1128" d="M105 1027.5q-10 58.5 7 118.5t40.5 109.5t52.5 92.5q65 96 182 161l19 -24q-53 -41 -87.5 -98.5t-35.5 -91t12 -42.5q81 -7 129 -53q57 -55 57.5 -135t-55.5 -137q-56 -56 -135 -56t-135 56q-41 41 -51 99.5zM644.5 1027q-10.5 58 6.5 118.5t40 109.5t52 93 q70 97 183 161l18 -24q-52 -41 -86.5 -98.5t-35.5 -91t12 -42.5q80 -7 129 -53q57 -56 58 -135.5t-56 -136.5q-55 -56 -134 -56t-135 56q-41 41 -51.5 99z" />
<glyph unicode="&#x201d;" horiz-adv-x="1134" d="M112 1309.5q-1 79.5 56 136.5q56 56 134 56t134 -56q41 -41 51.5 -99t-6.5 -118.5t-40 -109.5t-52 -93q-72 -100 -182 -162l-19 25q52 41 86.5 98.5t36 90.5t-11.5 42q-79 7 -129 54q-57 56 -58 135.5zM651.5 1309q-0.5 80 55.5 137q55 56 135 56t135 -56 q41 -41 51 -99.5t-7 -118.5t-40.5 -109.5t-52.5 -92.5q-66 -97 -183 -162l-18 25q53 41 87.5 98.5t35.5 90.5t-12 42q-79 7 -129 54q-57 55 -57.5 135z" />
<glyph unicode="&#x201e;" horiz-adv-x="1138" d="M118 174.5q-1 79.5 56 136.5q56 55 134 55t134 -55q41 -41 51.5 -99t-6.5 -118.5t-40 -109.5t-52 -93q-71 -98 -182 -161l-18 24q52 41 86.5 98.5t35.5 91t-12 42.5q-80 7 -129 53q-57 56 -58 135.5zM657.5 174q-0.5 80 55.5 137q55 55 135 55t135 -55q41 -41 51 -99.5 t-7 -118.5t-40.5 -109.5t-52.5 -92.5q-65 -96 -182 -161l-19 24q53 41 87.5 98.5t35.5 91t-12 42.5q-81 7 -129 53q-57 55 -57.5 135z" />
<glyph unicode="&#x2022;" horiz-adv-x="1058" d="M258 698q0 115 79.5 194t192.5 79q115 0 195 -79t80 -194q0 -112 -80.5 -191t-194.5 -79q-113 0 -192.5 79t-79.5 191z" />
<glyph unicode="&#x2026;" horiz-adv-x="1941" d="M176 176q0 80 57 136.5t136 56.5q78 0 134 -57t56 -136q0 -81 -55.5 -136.5t-134.5 -55.5q-80 0 -136.5 55.5t-56.5 136.5zM762 176q0 80 56.5 136.5t137.5 56.5q78 0 134.5 -57t56.5 -136q0 -81 -56 -136.5t-135 -55.5q-82 0 -138 55t-56 137zM1370 176q0 80 57 136.5 t138 56.5q78 0 134 -57t56 -136q0 -81 -55.5 -136.5t-134.5 -55.5q-82 0 -138.5 55.5t-56.5 136.5z" />
<glyph unicode="&#x202f;" horiz-adv-x="402" />
<glyph unicode="&#x2039;" horiz-adv-x="745" d="M102 545l529 489v-90l-246 -399l246 -387v-90z" />
<glyph unicode="&#x203a;" horiz-adv-x="739" d="M98 68v90l246 387l-246 399v90l531 -489z" />
<glyph unicode="&#x205f;" horiz-adv-x="503" />
<glyph unicode="&#x20ac;" horiz-adv-x="1329" d="M37 594l16 27h197q-6 49 -6 100q0 47 6 100h-213l16 27h199q15 138 60 248t120.5 192.5t189.5 127t259 44.5q78 0 133.5 -6t94.5 -20.5t60 -26.5t52 -35l-11 -293h-26q-19 195 -95 275t-208 80q-65 0 -108.5 -19t-72.5 -57t-45.5 -111t-23.5 -164.5t-10 -234.5h421 l-18 -27h-406v-100v-100h392l-19 -27h-370q3 -143 10.5 -234.5t23.5 -164.5t45.5 -111t73 -57t107.5 -19q125 0 203 82.5t100 271.5h26l11 -292q-61 -43 -137 -65.5t-203 -22.5q-286 0 -443 164.5t-186 447.5h-215z" />
<glyph unicode="&#x2122;" horiz-adv-x="1511" d="M27 1270v172h573v-172h-27q-1 45 -24 76.5t-55.5 45t-55 18.5t-35.5 5h-16v-448q0 -86 53 -86v-27h-254v27q54 0 54 86v448h-19q-13 0 -35.5 -5t-54.5 -18.5t-54.5 -45t-23.5 -76.5h-26zM647 854v27q37 0 62.5 22t36 57.5t14.5 63t4 55.5v295q-25 41 -80 41v27h223 l199 -402l158 402h194v-27q-28 0 -39.5 -15.5t-11.5 -53.5v-394q0 -41 14 -56t45 -15v-27h-254v27q30 0 41 14.5t11 56.5v408l-201 -512h-31l-241 491v-260q0 -29 3.5 -55.5t13 -62.5t34.5 -58t61 -22v-27h-256z" />
<glyph unicode="&#x25fc;" horiz-adv-x="942" d="M0 0v942h942v-942h-942z" />
<glyph unicode="&#xfb01;" horiz-adv-x="1267" d="M39 946h133v23q0 124 27 220.5t74 159t116 103t149 57.5t177 17q112 0 217 -41.5t139 -104.5q22 -39 22.5 -90.5t-22.5 -93.5q-32 -57 -97.5 -74t-123.5 15q-58 34 -74.5 97.5t17.5 123.5q32 60 94 72q26 7 1 26q-40 33 -132 41l-41 2q-36 0 -68.5 -14.5t-64.5 -51 t-55 -92t-37.5 -144.5t-14.5 -202v-49h244q64 0 161.5 8t162.5 16l65 7v-746q0 -98 16.5 -150.5t67.5 -64.5v-16h-467v16q28 8 45 27t24.5 52t9 60t1.5 76v523q0 166 -88 166h-242v-689q0 -97 16.5 -149t67.5 -66v-16h-467v16q28 8 45 27t24.5 52t9 60t1.5 76v689h-131z" />
<glyph unicode="&#xfb02;" horiz-adv-x="1224" d="M14 946h136v164q0 92 23 165.5t59 119t84 76.5t94.5 43t93.5 12q27 0 59.5 -3.5t84.5 -19.5t87 -43l375 68v-1297q0 -96 16.5 -144.5t67.5 -61.5v-25h-467v25q53 16 66.5 63t13.5 143v1063q0 25 -2 42t-8.5 38t-22 36t-39.5 24q-36 13 -68.5 14.5t-65.5 -10t-59.5 -44.5 t-47 -84t-32 -133.5t-11.5 -189.5v-41h219l-2 -26h-217v-689q0 -96 16.5 -144t67.5 -62v-25h-467v25q53 17 67.5 64.5t14.5 141.5v689h-134z" />
</font>
</defs>
</svg>
