<?xml version="1.0" standalone="no"?>
<!DOCTYPE svg PUBLIC "-//W3C//DTD SVG 1.1//EN" "http://www.w3.org/Graphics/SVG/1.1/DTD/svg11.dtd" >
<svg xmlns="http://www.w3.org/2000/svg" xmlns:xlink="http://www.w3.org/1999/xlink" version="1.1">
<metadata></metadata>
<defs>
<font id="butlerblack" horiz-adv-x="1560" >
<font-face units-per-em="2048" ascent="1505" descent="-543" />
<missing-glyph horiz-adv-x="573" />
<glyph horiz-adv-x="0" />
<glyph horiz-adv-x="682" />
<glyph unicode=" "  horiz-adv-x="573" />
<glyph unicode="&#x09;" horiz-adv-x="573" />
<glyph unicode="&#xa0;" horiz-adv-x="573" />
<glyph unicode="!" horiz-adv-x="774" d="M186 180q0 -83 57.5 -140.5t139.5 -57.5t139.5 57.5t57.5 140.5q0 82 -57.5 139.5t-139.5 57.5t-139.5 -57.5t-57.5 -139.5zM190 1528h394l-82 -996h-236z" />
<glyph unicode="&#x22;" horiz-adv-x="1232" d="M207 1442h340l-58 -670h-221zM682 1442h342l-59 -670h-222z" />
<glyph unicode="#" horiz-adv-x="1599" d="M90 410v243h287l65 285h-223v244h279l82 346h237l-80 -346h277l82 346h237l-82 -346h217v-244h-272l-68 -285h211v-243h-266l-94 -410h-238l95 410h-279l-94 -410h-238l94 410h-229zM614 653h277l67 285h-278z" />
<glyph unicode="$" horiz-adv-x="1196" d="M43 86v393h18q11 -46 36 -102t70 -122t101.5 -120.5t137 -92.5t169.5 -42v487l-262 166q-218 136 -268.5 312t80.5 340q5 6 14.5 16.5t47.5 37.5t84.5 47t128 37t175.5 17v250h19v-250q94 -1 176.5 -11t133 -24t87.5 -27t53 -22l15 -10v-344h-19q-11 38 -21.5 69.5 t-30.5 76t-42.5 79t-57.5 72t-76 62.5t-97 42t-121 19v-447l276 -182q202 -133 253.5 -314.5t-64.5 -348.5q-5 -7 -14.5 -18t-47.5 -40t-86 -51.5t-133 -40.5t-184 -18v-250h-19v250q-108 1 -202.5 12t-152 26.5t-100 30t-60.5 25.5zM383 1245.5q6 -53.5 50.5 -113.5 t121.5 -110l20 -14v434q-65 0 -112.5 -26.5t-66.5 -71.5t-13 -98.5zM594 0q64 0 111.5 29.5t66.5 79t14.5 107.5t-45.5 122.5t-112 116.5l-35 22v-477z" />
<glyph unicode="%" horiz-adv-x="2295" d="M289 1016q0 162 89 268.5t259 106.5q114 0 194 -52.5t116 -135t36 -187.5q0 -159 -88.5 -260t-257.5 -101q-171 0 -259.5 101t-88.5 260zM494 0l1126 1442h205l-1129 -1442h-202zM532 1016q0 -76 1 -123t5 -89t11 -64t19 -38.5t28.5 -22t40.5 -5.5q25 0 41 5t28 22.5 t18 38t9.5 65t4.5 88.5t1 123q0 220 -17.5 288t-84.5 68q-69 0 -87 -67.5t-18 -288.5zM1311 414q0 162 89 267t259 105q114 0 194 -51.5t117 -134t37 -186.5q0 -160 -89 -260.5t-259 -100.5q-171 0 -259.5 100t-88.5 261zM1554 414q0 -76 1 -123.5t5.5 -89.5t11 -64 t18.5 -38.5t28.5 -21.5t40.5 -5q70 0 86 60t16 282q0 218 -17.5 286t-84.5 68q-69 0 -87 -67t-18 -287z" />
<glyph unicode="&#x26;" horiz-adv-x="1679" d="M147.5 276q-12.5 69 7.5 128.5t53 111t84.5 97.5t93.5 76.5t89 58.5l29 16l-66 96q-84 111 -108.5 230.5t8.5 214.5t125 156t227 61q59 0 115 -18t103 -52t75.5 -91t28.5 -128q0 -42 -13 -87.5t-60 -109.5t-124 -116l270 -404q57 113 122.5 168.5t148.5 81.5q38 14 89 7 t87 -36q53 -44 58.5 -113.5t-40.5 -125.5q-44 -53 -113.5 -58.5t-125.5 39.5q-58 51 -58 113q-1 31 -39 20q-48 -14 -90 -71q-16 -20 -26 -43q113 -173 147 -215q58 -76 95 -100.5t87 -24.5q48 0 77.5 25.5t29.5 80.5l20 -2q2 -128 -69 -204t-215 -76q-79 0 -133.5 15 t-104.5 56q-58 47 -135 156q-17 -58 -63 -105.5t-107 -77t-134.5 -40.5t-143 -0.5t-134.5 49t-108 102.5q-47 70 -59.5 139zM434 635.5q-16 -61.5 7.5 -152t93.5 -178.5q37 -48 83.5 -85.5t96.5 -59t96.5 -6.5t75.5 71l-369 520l-29 -18q-39 -30 -55 -91.5zM631 1279 q-8 -69 51 -159l123 -184q164 108 164 299q0 83 -55.5 140t-131.5 57q-55 0 -99 -42t-52 -111z" />
<glyph unicode="'" horiz-adv-x="638" d="M154 1442h340l-58 -670h-221z" />
<glyph unicode="(" horiz-adv-x="761" d="M160 520q1 7 3 49t5 83.5t17 109.5t36 133t65 147.5t100.5 159t146 162.5t198.5 162l29 -27q-74 -88 -127 -221.5t-75 -261.5t-33.5 -244t-10.5 -187v-71q2 -4 -0.5 -38t2.5 -100.5t10.5 -144t24 -168.5t43 -173.5t67 -159t95.5 -125.5l-29 -27q-108 61 -196.5 135.5 t-145.5 145t-100 149.5t-64.5 142.5t-36 131.5t-17.5 109.5t-5 83t-2 45.5z" />
<glyph unicode=")" horiz-adv-x="757" d="M0 1501l29 27q110 -76 198.5 -162t146 -162.5t100.5 -159t65 -147.5t36 -133t17 -109.5t5 -83.5t3 -49q0 -4 -2 -45.5t-5 -83t-17.5 -109.5t-36 -131.5t-64.5 -142.5t-100 -149.5t-145.5 -145t-196.5 -135.5l-29 27q73 67 125 185t74 239t33 232.5t10 182.5v70 q-2 5 0.5 38.5t-2.5 102t-11 148.5t-24.5 177t-43.5 187t-68 179t-97 153z" />
<glyph unicode="*" horiz-adv-x="1159" d="M131 1020l86 262l307 -192l-88 352h277l-90 -352l311 192l86 -262l-365 -27l281 -233l-225 -162l-138 338l-135 -338l-223 162l279 233z" />
<glyph unicode="+" horiz-adv-x="1464" d="M115 498v272h479v498h272v-498h480v-272h-480v-498h-272v498h-479z" />
<glyph unicode="," horiz-adv-x="659" d="M118.5 194q-0.5 88 61.5 152q63 62 150.5 62t148.5 -62q45 -45 55.5 -109.5t-9 -130t-45.5 -118.5t-58 -97q-54 -83 -193 -163l-14 20q51 41 86 99t37 92.5t-12 44.5q-89 7 -144 59q-63 63 -63.5 151z" />
<glyph unicode="-" horiz-adv-x="909" d="M131 379v283h645v-283h-645z" />
<glyph unicode="." horiz-adv-x="661" d="M127 193q0 88 62 150.5t151 62.5q86 0 147.5 -62.5t61.5 -150.5q0 -89 -61 -150t-148 -61q-89 0 -151 61t-62 150z" />
<glyph unicode="/" horiz-adv-x="952" d="M29 -43l630 1528h259l-631 -1528h-258z" />
<glyph unicode="0" horiz-adv-x="1515" d="M72 709q0 156 39.5 290t117.5 238t205.5 163.5t292.5 59.5q132 0 240.5 -39t184.5 -107.5t128 -164t76 -206t24 -234.5q0 -155 -39.5 -285t-117.5 -230t-204.5 -156t-291.5 -56t-292.5 56t-205.5 156t-117.5 230t-39.5 285zM559 709q0 -458 24.5 -583.5t143.5 -125.5 q40 0 66.5 11.5t45.5 49.5t29.5 81.5t16 135t7 182t1.5 249.5q0 457 -26.5 595t-139.5 138q-118 0 -143 -134t-25 -599z" />
<glyph unicode="1" horiz-adv-x="866" d="M92 1122l387 338h191v-1284q0 -36 1 -56.5t5 -43.5t11.5 -34t22 -18.5t35.5 -7.5v-16h-534v16q25 0 42 8t26.5 20.5t15 34.5t7 43t1.5 54v891q0 54 -20.5 78t-50.5 20t-59.5 -16t-50.5 -27l-20 -14z" />
<glyph unicode="2" horiz-adv-x="1083" d="M66 0l411 547q191 283 138 459q-30 102 -133 139q-96 34 -193 -4q-94 -37 -123 -121q-16 -49 -6 -107l-33 -18q-33 61 -41 128.5t7 129.5t53 118.5t92.5 98t130 66t161.5 24.5q153 0 272.5 -113t119.5 -253q0 -89 -44 -179.5t-113.5 -167t-140 -140.5t-140.5 -126 t-97 -96l-51 -66h442q58 0 115.5 29.5t89.5 87.5h16l-118 -436h-815z" />
<glyph unicode="3" horiz-adv-x="1148" d="M71.5 246.5q2.5 53.5 32.5 93.5q41 61 114.5 73.5t131.5 -30.5q60 -44 73 -116t-30 -132q-46 -61 -112 -69q-13 0 -7 -14q13 -28 79 -43q40 -9 93 -9q115 0 166.5 110.5t20.5 284.5q-6 34 -12 59t-18 61.5t-27 62.5t-39.5 54.5t-54.5 46.5t-73.5 30t-95.5 12v18 q96 16 154.5 72.5t70.5 123t-8 132t-69 100.5q-45 32 -111 35t-120 -28t-62 -89l-18 -4q-15 41 -10.5 84.5t18.5 85.5t47.5 80t77 66.5t106 45.5t135.5 17q95 0 175 -37.5t129 -97t69.5 -135t7 -150t-69.5 -144t-149 -114.5q160 -6 263.5 -110.5t103.5 -231.5 q0 -84 -20 -152t-53 -115t-82 -82t-100 -55.5t-114.5 -33t-117.5 -16.5t-117 -4q-134 0 -221 42.5t-138 131.5q-21 37 -18.5 90.5z" />
<glyph unicode="4" horiz-adv-x="1142" d="M59 401v35l750 1024l94 -18v-897h172v-144h-172v-120v-70.5t1.5 -55.5t2 -44.5t4 -33t6 -24.5t9 -16.5t11.5 -11t15.5 -5t19 -2.5h23.5v-18h-553v18q25 0 37 1t25 10.5t17 22.5t8.5 45t5 69t0.5 104v131h-476zM198 549q8 -4 33 -4h304v512l-291 -398q-69 -96 -46 -110z " />
<glyph unicode="5" horiz-adv-x="1181" d="M98 272q19 72 85 112.5t141 23.5q72 -17 112 -82t23 -140q-18 -78 -78 -112q-16 -8 -7 -28q18 -41 121 -46h21q66 0 120.5 31t85.5 82.5t42.5 117t-10.5 134.5q-6 22 -16.5 43.5t-28.5 47t-44 47.5t-61 43.5t-83 36t-105.5 23.5t-133.5 8t-163 -12l162 840h759l-98 -342 h-711l-34 -187q226 35 393.5 11t276.5 -97.5t160.5 -177t43.5 -227.5q-5 -93 -38 -168t-84.5 -125t-122 -83.5t-147.5 -48.5t-163 -15q-229 0 -358 104q-36 31 -53 82.5t-7 103.5z" />
<glyph unicode="6" horiz-adv-x="1255" d="M86 651q0 379 169.5 594t473.5 215q65 0 122.5 -14.5t93 -33.5t65 -44t41 -39.5t18.5 -25.5q26 -39 25 -95.5t-31 -99.5q-39 -67 -115 -84t-143 25q-66 39 -82.5 116.5t25.5 141.5q46 73 114 82q11 3 -1 17q-32 35 -132 36q-114 0 -170 -166t-57 -549q9 64 87.5 117 t180.5 53q99 0 173 -26t118 -67.5t71 -102.5t36.5 -121.5t9.5 -133.5q0 -116 -38.5 -205.5t-109.5 -145.5t-167 -84.5t-214 -28.5q-276 0 -419.5 178t-143.5 491zM502 676q5 -347 8 -406q12 -187 62 -240q30 -30 77 -30q86 0 115 47q28 44 31 189v170q0 220 -31 312.5 t-107 92.5q-54 0 -98 -35t-57 -100z" />
<glyph unicode="7" horiz-adv-x="1169" d="M94 977l86 465h924l-201 -346q-50 -102 -85.5 -230.5t-52 -232t-25.5 -239t-10 -199t-1 -165.5v-30h-393q14 113 33 201t57 197.5t94.5 212t147.5 227t213 258.5h-562q-58 0 -117 -30.5t-89 -88.5h-19z" />
<glyph unicode="8" horiz-adv-x="1177" d="M80 348q0 73 26.5 132.5t70 98t81.5 60.5t80 37q-117 81 -175.5 172.5t-58.5 222.5q0 79 32.5 149t93 123.5t154.5 85t210 31.5q220 0 324 -82t104 -221q0 -51 -22 -93.5t-50 -67.5t-67.5 -45t-61.5 -27t-45 -13q176 -79 260 -208.5t84 -278.5q0 -210 -126 -326 t-396 -116q-267 0 -392.5 90.5t-125.5 275.5zM344 365q0 -365 254 -365q93 0 153.5 53.5t73.5 134.5q13 83 -30 169t-138 143l-256 139q-37 -34 -47 -94.5t-10 -179.5zM410 1276q-10 -74 28.5 -144.5t128.5 -113.5l189 -96q67 50 67 235q0 75 -19.5 132t-52.5 89.5t-72.5 48 t-84.5 15.5q-73 0 -123 -48t-61 -118z" />
<glyph unicode="9" horiz-adv-x="1241" d="M78 997q0 230 142.5 346.5t385.5 116.5q148 0 257 -46.5t175.5 -134.5t98.5 -209t32 -277q0 -114 -7 -204t-25.5 -176.5t-49.5 -150.5t-80 -119t-116 -89t-158.5 -53t-206.5 -19q-65 0 -122.5 14.5t-93.5 34.5t-65 44.5t-41.5 40t-17.5 25.5q-25 39 -25 95.5t29 99.5 q41 67 117.5 84t143.5 -25q65 -41 81.5 -117t-24.5 -141q-50 -74 -115 -82q-12 -3 -1 -17q25 -34 116 -38h18q57 0 96 13.5t64 43.5t39 73t20 108.5t7.5 142.5t1.5 182v162q-9 -63 -83 -120.5t-157 -57.5q-108 0 -188 26t-127 67t-75 102.5t-37 121t-9 133.5zM461 1038 q0 -209 27 -307t94 -98q75 0 116 35t56 106q-5 357 -15 454q-17 165 -75 201q-21 13 -50 13q-96 0 -124.5 -80t-28.5 -324z" />
<glyph unicode=":" horiz-adv-x="638" d="M109 193q0 88 62 150.5t151 62.5q86 0 147 -62.5t61 -150.5q0 -89 -60.5 -150t-147.5 -61q-89 0 -151 61t-62 150zM109 791q0 88 62 150.5t151 62.5q86 0 147 -62.5t61 -150.5t-61 -149.5t-147 -61.5q-89 0 -151 61.5t-62 149.5z" />
<glyph unicode=";" horiz-adv-x="624" d="M102 791q0 89 62 151t151 62q87 0 148 -62t61 -151q0 -88 -61.5 -149.5t-147.5 -61.5q-89 0 -151 61.5t-62 149.5zM104.5 190q-0.5 88 61.5 152q63 62 150.5 62t148.5 -62q45 -45 55.5 -109.5t-9 -130t-45.5 -118.5t-58 -97q-54 -83 -193 -163l-14 20q51 41 86 99.5 t36.5 93t-12.5 43.5q-88 7 -143 59q-63 63 -63.5 151z" />
<glyph unicode="&#x3c;" horiz-adv-x="1228" d="M94 500v88l1039 532v-274l-621 -301l621 -305v-273z" />
<glyph unicode="=" horiz-adv-x="1255" d="M115 193v245h1046v-245h-1046zM115 653v246h1046v-246h-1046z" />
<glyph unicode="&#x3e;" horiz-adv-x="1228" d="M96 -33v273l621 305l-621 301v274l1039 -532v-88z" />
<glyph unicode="?" horiz-adv-x="1271" d="M160 1171q-2 62 52.5 134.5t145.5 113.5q121 54 253.5 59.5t239.5 -32t178.5 -120t76.5 -193.5q3 -85 -18.5 -159t-56.5 -123.5t-81.5 -88.5t-88 -59.5t-81.5 -30.5q-218 -57 -205 -213l-18 -2q-1 7 -12 49.5t-14 71t12.5 76.5t56.5 91q65 69 86 164t8 224q-5 68 -33 129 t-72.5 101t-101 54.5t-118.5 -10.5q-50 -20 -63 -67q-9 -33 8 -39q4 -2 8 -1q60 9 116 -38q53 -47 58.5 -117t-37.5 -123q-44 -52 -115 -55t-125 43q-63 53 -59 161zM403 160q0 -74 53.5 -126t127.5 -52t127 52t53 126q0 75 -53 127.5t-127 52.5t-127.5 -52.5t-53.5 -127.5z " />
<glyph unicode="@" horiz-adv-x="2017" d="M80 387q10 177 70 328.5t160.5 263.5t234.5 188t298 110t345 23q87 -6 167.5 -22t159.5 -47t144.5 -75t120.5 -107t90 -140.5t49 -179t2 -219.5q-13 -123 -58.5 -220t-104.5 -154t-131 -94t-132.5 -49.5t-114.5 -10.5q-117 4 -172 53t-47 117q-14 -20 -30 -39.5t-53 -54 t-89.5 -55.5t-111.5 -21q-67 0 -118 40.5t-76.5 101.5t-35.5 127t-2 122q8 52 24 106t52 123.5t84 122t125.5 89t171.5 36.5q34 0 64.5 -9.5t50.5 -23t35 -28t21.5 -24t6.5 -11.5l10 53l252 -6q-109 -526 -125 -600q-1 -7 -4.5 -20t-5 -20t-1.5 -16t3.5 -14t12.5 -8.5 t24 -3.5q28 0 63.5 14t75.5 47t74 80t58 121.5t28 163.5q1 67 0 128.5t-14.5 117t-35.5 103.5t-63 88.5t-97 71.5t-137 53t-184 32q-151 15 -283.5 -17t-229 -98t-170 -157.5t-115.5 -193.5t-56 -210q-1 -8 -3 -23t-4 -61.5t0.5 -92t14.5 -108.5t33 -119t61.5 -115.5 t94.5 -105t137 -81.5t185 -50q87 -11 163.5 -6t139 21t107.5 33t70 31l25 13l11 -12q-7 -7 -20 -18.5t-64 -40t-113 -50.5t-168.5 -38.5t-228.5 -14.5q-66 1 -135 13.5t-143 40.5t-141 69t-125.5 103t-100 138t-62.5 178.5t-14 219.5zM938 300.5q-1 -60.5 17.5 -98t44 -54.5 t59.5 -19q40 -4 69.5 21t39.5 52l10 27q34 144 71 365q32 203 -59 207q-40 2 -77 -27.5t-66 -82t-51 -112.5t-38 -128q-19 -90 -20 -150.5z" />
<glyph unicode="A" d="M41 0v16q25 2 43.5 6.5t53 26t67 59.5t77 112t89.5 177l413 1045h11l553 -1256q21 -47 44.5 -80t40 -49.5t39 -26t31.5 -11t29 -3.5v-16h-717v16q46 0 67 24q19 22 19 53q-1 3 -1 7q-2 36 -11.5 71.5t-20.5 60.5l-12 24l-65 141h-402q-13 -29 -15 -75v-12q0 -41 12 -88 q14 -53 41.5 -99t80.5 -76.5t123 -30.5v-16h-590zM395 416h387l-204 461z" />
<glyph unicode="B" horiz-adv-x="1538" d="M76 0v18q42 0 69.5 38t38.5 94.5t11 130.5v878q0 51 -6 96t-19.5 84.5t-37.5 62.5t-56 23v17h620q80 0 126 -1t122 -8t121.5 -20.5t101.5 -40t86.5 -64t52 -96t21.5 -133.5q0 -62 -23 -114.5t-58 -86.5t-81.5 -60.5t-90.5 -41t-87 -23.5t-68 -11.5t-38 -2.5q37 0 72.5 -2 t92.5 -10.5t105 -23.5t100 -43t88.5 -66t60 -96.5t23.5 -130.5q0 -58 -14 -106.5t-36 -84t-60.5 -63.5t-75 -46.5t-93.5 -31.5t-101.5 -19.5t-113 -10.5t-114.5 -4.5t-119 -0.5h-620zM616 18h29h7q58 0 86.5 2t74.5 11t69.5 31.5t49.5 60.5t36.5 101.5t10.5 150.5 q0 56 -7 102t-17.5 80t-29 60.5t-35.5 43.5t-42.5 29.5t-45 18.5t-49 9.5t-47.5 4t-47 0.5h-43v-705zM616 741h60q38 0 66.5 5.5t61.5 27t54 58t35 103t14 157.5q0 89 -19.5 154t-46 98t-66.5 52t-68.5 23t-65.5 4h-25v-682z" />
<glyph unicode="C" horiz-adv-x="1478" d="M82 721q0 169 67.5 310t182 234t263.5 144t314 51q180 0 308 -29.5t172 -64.5l-21 -414h-16q-13 88 -36.5 160.5t-52 122.5t-64.5 88t-71.5 60t-76 36t-74 18.5t-68.5 4.5q-118 0 -186 -63t-102.5 -221t-34.5 -437q0 -210 19 -350t60.5 -222t99.5 -115.5t144 -33.5 q46 0 93 11.5t102.5 45t101.5 85.5t86 142.5t60 207.5h16l21 -414q-48 -32 -189.5 -64t-290.5 -32q-165 0 -314 51t-263.5 144t-182 234t-67.5 310z" />
<glyph unicode="D" horiz-adv-x="1671" d="M76 0v18q42 0 70 38t39.5 95t11.5 130v878q0 50 -6.5 95.5t-20 85t-38 62.5t-56.5 23v17h606q93 0 178 -8.5t176 -31t167.5 -57.5t146 -92t117.5 -131t76 -178t28 -229t-28.5 -228t-76 -175.5t-117 -128.5t-145.5 -90t-167.5 -55.5t-176 -29.5t-178.5 -8h-606zM592 18h90 q42 0 69.5 1.5t62 7t56.5 16t48 28.5t42.5 45t34 65t27.5 89t19 116t12.5 147t3.5 182q0 140 -8 245.5t-21.5 181t-39 127t-52.5 82t-70 46.5t-83 21t-101 5h-90v-1405z" />
<glyph unicode="E" horiz-adv-x="1398" d="M55 0v18q41 0 68.5 37.5t39 95t11.5 130.5v878q0 51 -6 96t-19.5 84.5t-37.5 62.5t-56 23v17h1170v-420h-19q0 81 -31 147.5t-80 107t-109 70.5t-119.5 44t-108.5 22t-80 9l-31 1h-74v-686h166h13.5t31 4.5t45 12.5t48 26t47.5 42.5t36 65t21 91.5h18v-502h-18 q-6 69 -34.5 119t-59 72.5t-70 35.5t-53.5 14t-25 1h-166v-701h74q1 2 20 -0.5t54 2t78 7.5t92 17t97.5 30.5t92.5 47t78 67.5t54 92t20 120h18v-401h-1196z" />
<glyph unicode="F" horiz-adv-x="1290" d="M51 0v18q41 0 68.5 37.5t39 95t11.5 130.5v878q0 51 -6 96t-19.5 84.5t-37.5 62.5t-56 23v17h1190v-420h-18q0 81 -32 147.5t-83 107t-112.5 70.5t-123 44t-112.5 22t-83 9l-32 1h-74v-686h183h13.5t31 4.5t44.5 12.5t48 26t48 42.5t36.5 65t21.5 91.5h19v-502h-19 q-7 69 -35.5 119t-59 72.5t-70 35.5t-53.5 14t-25 1h-183v-467q0 -51 11 -92t28.5 -65t39 -41t42.5 -23.5t38.5 -10t28.5 -2.5h11v-18h-719z" />
<glyph unicode="G" horiz-adv-x="1579" d="M80 721q0 214 104 383.5t283 262.5t399 93q206 0 313 -24.5t205 -89.5l-38 -404h-17q0 98 -19.5 177t-48.5 130t-72.5 89t-83.5 57t-89.5 30.5t-81.5 14t-68 2.5q-60 0 -102 -13.5t-74.5 -48.5t-52 -86.5t-32 -136t-17 -187t-4.5 -249.5q0 -176 7.5 -292.5t25.5 -203.5 t51 -134t80.5 -69t117.5 -22q119 0 170 63.5t51 212.5q0 85 -5.5 132.5t-24 73t-42.5 32t-71 6.5v19h578v-19q-98 0 -114.5 -45.5t-16.5 -300.5v-76q-76 -54 -218 -85t-307 -31q-219 0 -398.5 93.5t-283.5 263t-104 382.5z" />
<glyph unicode="H" horiz-adv-x="1550" d="M53 0v18q92 0 92 165v7v7v1052q0 176 -92 176v17h531v-17q-12 0 -21.5 -8.5t-15 -23.5t-8.5 -31t-4 -36t-1 -33t0.5 -28t0.5 -16v-551h495v551v11v19v24t-1.5 27.5t-3.5 27.5t-6 26t-9 21t-12.5 15t-16.5 5v17h528v-17q-26 0 -44.5 -17.5t-27 -38t-13 -51t-5 -42.5 t-0.5 -27v-1052q0 -112 32 -151q22 -28 58 -28v-18h-528v18q49 0 49 179v483h-495v-483v-14.5v-21.5t0.5 -24.5t2 -28t3.5 -26.5t6 -25t9 -20t12 -14.5t16 -4.5v-18h-531z" />
<glyph unicode="I" horiz-adv-x="829" d="M80 0v18q37 0 58 6t40 27t27 64.5t8 115.5v1012q0 45 -3 76t-12.5 51t-17.5 31.5t-27 16.5t-32.5 6t-40.5 1v17h676v-17q-32 0 -47.5 -1.5t-35.5 -10.5t-28.5 -28t-15 -54t-6.5 -88v-1012q0 -72 8 -115.5t27 -64.5t40 -27t58 -6v-18h-676z" />
<glyph unicode="J" horiz-adv-x="864" d="M-59 -326q70 25 127.5 74.5t106.5 130.5t76.5 207.5t27.5 286.5v676q0 271 -9 321q-8 44 -34 52q-11 3 -43 3v17h593v-17h-8q-57 0 -70 -10q-16 -13 -18 -77v-40v-925q0 -142 -46 -258.5t-118.5 -193t-173.5 -132.5t-198.5 -85.5t-206.5 -45.5z" />
<glyph unicode="K" horiz-adv-x="1732" d="M82 0h580v18h-12h-33.5t-22 4.5t-16 11.5t-8 23.5t-5 36.5t-0.5 56v1134q0 37 0.5 59.5t5.5 39.5t8.5 24.5t17.5 12t23 5t34 0.5h14v17h-586v-17q23 0 36 -1t23.5 -7.5t14.5 -11.5t7 -23.5t3 -32.5v-49v-16v-1134v-9v-41t-1.5 -30t-2 -23t-6 -13.5t-8 -9.5t-13.5 -4 t-17 -2.5t-24 0.5h-12v-18zM625 618l348 369q42 46 66.5 106.5t26.5 116.5q0 10 1 20q1 44 -9 86q-12 50 -40 79.5t-66 29.5v17h676v-17q-99 0 -291.5 -139t-431.5 -397l541 -721q38 -51 68.5 -82t56.5 -44.5t41 -17.5t41 -6v-18h-365q-61 0 -94.5 2t-73 15.5t-62 30t-62 60 t-72 89t-93.5 133.5z" />
<glyph unicode="L" horiz-adv-x="1304" d="M70 1425v17h612v-17q-28 0 -38.5 -0.5t-26.5 -4.5t-20.5 -12t-10.5 -25t-7 -41t-1 -62v-1262q44 0 88 3.5t102.5 14.5t110 29.5t103.5 51t88.5 76t59.5 108t23 143.5h18v-444h-1085v18q60 0 72 28t12 130v17v1114q0 61 -7 84.5t-21.5 28.5t-58.5 5h-13z" />
<glyph unicode="M" horiz-adv-x="2107" d="M20 0v18q79 0 140 43.5t96.5 119t53.5 167t18 195.5v702q-97 171 -203 178v19h584l495 -942l355 942h499v-19q-25 0 -40.5 -1.5t-27 -9.5t-17 -14.5t-8 -26.5t-3 -35t-0.5 -50v-4.5v-4.5v-5v-1082q0 -106 21.5 -139t95.5 -33v-18h-625v18q70 0 87.5 32t17.5 140v1196 l-531 -1404h-18l-664 1232v-671q0 -83 9.5 -156.5t32.5 -142t58 -118t89.5 -79t123.5 -29.5v-18h-639z" />
<glyph unicode="N" horiz-adv-x="1728" d="M16 1425v17h654l696 -1006v547q0 61 -8.5 119.5t-29.5 118t-53.5 104t-84.5 72.5t-117 28v17h621v-17q-73 0 -129.5 -28t-89.5 -72t-54.5 -104.5t-29 -118t-7.5 -119.5v-983h-225l-772 1100v-639q0 -45 1.5 -77t8 -81.5t18 -85t34.5 -76t55 -65.5t81 -41.5t111 -16.5v-18 h-651v18q81 0 142 31.5t94.5 77t54.5 109t27 116t6 109.5v663l-97 138q-33 44 -66.5 75.5t-54.5 47t-51 25.5t-39.5 11t-36.5 3q-5 1 -8 1z" />
<glyph unicode="O" horiz-adv-x="1662" d="M84 711q0 203 91.5 373t264 273t391.5 103q165 0 306.5 -60t237.5 -162t150 -238.5t54 -288.5t-54 -286t-150.5 -232t-237 -154.5t-306.5 -56.5t-306.5 56.5t-236.5 154.5t-150 232t-54 286zM578 711q0 -98 0.5 -157.5t2.5 -132t5.5 -113.5t10.5 -90t16 -74.5t23.5 -54.5 t32.5 -42.5t42 -26t53.5 -16.5t66.5 -4q46 0 80 6t61 27t44.5 42t30 70.5t19 92t10.5 126.5t4.5 153.5t0.5 193.5t-1 194t-4.5 155.5t-10 129.5t-19 95.5t-30 74.5t-44 45.5t-61 29.5t-80.5 7q-62 0 -103.5 -13t-70.5 -54.5t-44.5 -85t-23.5 -142t-9.5 -185.5t-1.5 -251z " />
<glyph unicode="P" horiz-adv-x="1454" d="M51 1425q65 0 86 -38t21 -138v-1054q0 -109 -16.5 -143t-78.5 -34v-18h674v18h-41.5t-33.5 3.5t-30 10t-22.5 19t-18.5 31.5t-11.5 46.5t-8.5 65.5t-2 87v340q78 0 136 1.5t130.5 6t126 13t113 23.5t102 35.5t83.5 51.5t65.5 70t39.5 91t15 115q0 81 -24.5 144.5 t-63.5 106.5t-103.5 74t-127.5 48t-153.5 26.5t-164 12t-174.5 2.5h-518v-17zM569 639v784h35q59 0 85 -0.5t66 -5.5t54.5 -14t37.5 -29t29.5 -47t15.5 -70.5t11 -97.5t2 -131q0 -78 -1 -129t-10 -96t-14 -69.5t-29 -45.5t-39 -29t-58.5 -13.5t-73 -6t-98.5 -0.5h-13z" />
<glyph unicode="Q" horiz-adv-x="1646" d="M84 711q0 203 91.5 373t264 273t391.5 103q165 0 306.5 -60t237.5 -162t150 -238.5t54 -288.5t-54 -286t-150.5 -232t-237 -154.5t-306.5 -56.5t-306.5 56.5t-236.5 154.5t-150 232t-54 286zM252 -289l10 -14q31 18 52 27q19 7 58 7q6 0 14 -1q50 -1 114 -25l176 -74 q112 -47 186 -74t152 -47q75 -18 130 -18h6q57 1 113.5 19.5t108.5 58.5l256 221l-10 14q-2 -1 -18 -11t-22.5 -13.5t-25 -12t-31.5 -11.5t-35.5 -6.5t-43 -1.5t-48.5 7t-57 15l-350 118q-8 3 -22 7t-59 11.5t-92 9.5h-20q-42 0 -98 -6q-69 -8 -137 -28.5t-150 -64.5 t-157 -107zM578 711q0 -98 0.5 -157.5t2.5 -132t5.5 -113.5t10.5 -90t16 -74.5t23.5 -54.5t32.5 -42.5t42 -26t53.5 -16.5t66.5 -4q46 0 80 6t61 27t44.5 42t30 70.5t19 92t10.5 126.5t4.5 153.5t0.5 193.5t-1 194t-4.5 155.5t-10 129.5t-19 95.5t-30 74.5t-44 45.5 t-61 29.5t-80.5 7q-62 0 -103.5 -13t-70.5 -54.5t-44.5 -85t-23.5 -142t-9.5 -185.5t-1.5 -251z" />
<glyph unicode="R" horiz-adv-x="1583" d="M41 0v18q26 0 38.5 1t27.5 8t20.5 19t11 37t7 59.5t1.5 88.5v1012q0 101 -21 141.5t-85 40.5v17h582q95 0 172 -3.5t159.5 -14t145 -28.5t120.5 -47.5t95.5 -70t59.5 -98t22 -129.5q0 -88 -31.5 -156t-80 -107.5t-114.5 -65t-127 -34t-126 -8.5q77 0 129 -8.5t103 -33 t87.5 -71t70.5 -122t64 -185.5q28 -106 91.5 -172t111.5 -70v-18h-408q-75 0 -117 40.5t-69.5 138t-52.5 294.5q-8 57 -38.5 98t-69.5 58.5t-76.5 27t-63.5 9.5h-25h-96v-435q0 -55 0.5 -86t5 -58t9 -38.5t17 -19.5t25.5 -9.5t37 -1.5v-18h-612zM559 684h64h8q61 0 87.5 0.5 t65.5 6t51.5 12.5t33.5 27t25.5 43t12 66t8 90.5t0.5 121.5q0 96 -3 157.5t-18.5 105t-27.5 64t-51 32t-66 12.5t-94 1h-32h-64v-739z" />
<glyph unicode="S" horiz-adv-x="1267" d="M72 86v393h18q11 -46 36.5 -103.5t73 -125t106 -122t142 -91.5t175.5 -37q80 0 131.5 46t61.5 112q2 13 1 27q0 57 -32 123q-40 82 -128 147l-315 198q-218 136 -268 312q-14 49 -15 97q0 125 95 243q5 6 14.5 16.5t47 37.5t83.5 47t127.5 37t175.5 17q98 0 184 -9.5 t138.5 -23.5t91.5 -28t55 -23l16 -10v-344h-18q-11 38 -21.5 70t-31.5 77t-45 80.5t-60.5 73t-79.5 62.5t-102 41t-127 16q-65 0 -112.5 -26.5t-65.5 -71.5q-14 -33 -14 -71q0 -13 2 -27q6 -54 50.5 -114t121.5 -110l315 -209q202 -133 253 -315q16 -55 15 -109 q0 -123 -80 -239q-2 -4 -7 -10t-23.5 -23.5t-41 -33t-61.5 -35t-84 -33.5t-110 -23.5t-137 -9.5q-111 0 -208.5 10.5t-157.5 26t-104.5 31t-62.5 26.5z" />
<glyph unicode="T" d="M41 981v461h1464v-461h-16q-3 68 -37.5 136t-88 122t-116.5 96t-126.5 65t-114.5 23h-23v-1192q0 -116 17.5 -164.5t74.5 -48.5v-18h-604v18q57 0 74.5 48.5t17.5 164.5v1192h-22q-65 0 -147 -36.5t-155.5 -95t-125.5 -142.5t-56 -168h-16z" />
<glyph unicode="U" horiz-adv-x="1507" d="M25 1423v19h585v-19q-60 0 -72 -27.5t-12 -134.5v-18v-794q0 -176 85 -260.5t237 -84.5q158 0 244 97t86 248v532q0 55 -7 111t-24.5 117t-44.5 107.5t-71.5 76.5t-100.5 30v19h536l2 -19q-66 0 -116 -30.5t-79 -76t-47 -108t-24 -116.5t-6 -111v-532 q0 -210 -139.5 -338.5t-401.5 -128.5q-85 0 -164 17.5t-149.5 56t-122.5 93.5t-82.5 136t-30.5 178v780v31q0 39 -0.5 56t-4 40t-12 31.5t-24.5 15t-40 6.5z" />
<glyph unicode="V" horiz-adv-x="1652" d="M23 1425v17h682v-17q-39 0 -57 -24.5t-14.5 -59.5t12.5 -69.5t20 -59.5l10 -24l317 -707l211 520q24 59 25 131v6q0 68 -20 132q-21 66 -80 110.5t-146 44.5v17h621v-17q-191 0 -379 -424l-404 -1001h-59l-578 1260q-22 48 -40.5 79.5t-31 48t-30.5 25t-26.5 9.5t-32.5 3 z" />
<glyph unicode="W" horiz-adv-x="2336" d="M29 1425v17h639v-17q-37 0 -53 -24.5t-13 -59.5t11 -69.5t18 -59.5l10 -24l309 -703l164 457l-137 318q-21 48 -38.5 79.5t-29 48t-29 25t-25.5 9.5t-30 3v17h639v-17q-37 0 -53 -24.5t-13 -59.5t11.5 -69.5t18.5 -59.5l10 -24l307 -705l184 518q16 43 19 99q1 11 1 24 q1 44 -9 89q-12 57 -37 104.5t-71 77.5t-106 30v17h582v-17q-179 0 -356 -424l-359 -1001h-73q-288 673 -396 918l-327 -918h-74l-543 1260q-21 48 -38.5 79.5t-29 48t-28.5 25t-25 9.5t-30 3z" />
<glyph unicode="X" horiz-adv-x="1712" d="M29 1425v17h723v-17q-27 0 -47 -8.5t-31 -27.5t-0.5 -55t45.5 -85l264 -370q44 59 107 149q22 29 43 75.5t33 102.5q8 39 8 75q0 15 -2 31q-5 48 -43 80.5t-109 32.5v17h567v-17q-60 -7 -99 -25q-164 -74 -386 -384l-111 -154l451 -647q80 -106 135 -151t98 -48v-16h-696 v16q49 0 49 44q0 31 -25 85q-17 36 -36 66l-234 340l-106 -150q-33 -47 -49 -112q-13 -52 -14 -102q0 -13 1 -25q4 -62 45 -104t115 -42v-16h-631v16q53 4 71 9q182 48 449 387l109 153l-459 658q-86 112 -138.5 154.5t-96.5 47.5z" />
<glyph unicode="Y" horiz-adv-x="1601" d="M18 1427v15h617v-15h-1h-1h-1q-50 0 -58 -11q-4 -5 -4 -13q0 -30 43 -109q21 -39 57 -100l299 -508q102 203 159 328q15 32 26.5 80.5t11.5 106.5t-15.5 107.5t-61 83t-116.5 33.5v17h594v-17q-99 0 -208 -104t-214 -315l-166 -336v-439q0 -17 -0.5 -43.5t-0.5 -40 t0.5 -33t2 -29.5t5 -23.5t8.5 -19.5t13 -12.5t19 -9t25 -2.5v-18h-551v18q37 0 54 23t20 50q1 19 1 61v37v42v334l-399 701q-44 77 -70.5 110.5t-41 40t-46.5 10.5z" />
<glyph unicode="Z" horiz-adv-x="1376" d="M51 0l783 1423h-97q-266 0 -431.5 -105.5t-190.5 -289.5h-17l27 414h1178l-728 -1424h21q124 0 219 13t177.5 44.5t138.5 83.5t92.5 131.5t48.5 186.5h16l-31 -477h-1206z" />
<glyph unicode="[" horiz-adv-x="770" d="M231 -299v1804h502v-18q-42 0 -66 -1.5t-57 -11t-50.5 -27t-30.5 -52t-13 -84.5v-1434q0 -43 13.5 -73.5t31.5 -46.5t50.5 -24.5t57.5 -10t64 -1.5v-20h-502z" />
<glyph unicode="\" horiz-adv-x="987" d="M29 1505h278l637 -1546h-278z" />
<glyph unicode="]" horiz-adv-x="770" d="M23 -279q39 0 64 1.5t57.5 10t50.5 24.5t31.5 46.5t13.5 73.5v1434q0 36 -7 63.5t-16 45.5t-28 30.5t-33.5 19t-41.5 9.5t-43 3.5t-48 0.5v22h501v-1804h-501v20z" />
<glyph unicode="^" horiz-adv-x="1241" d="M182 770l385 672h109l379 -672h-103l-331 289l-326 -289h-113z" />
<glyph unicode="_" horiz-adv-x="1146" d="M0 -100h1147v-207h-1147v207z" />
<glyph unicode="`" horiz-adv-x="1005" d="M70 1372l331 103l459 -334h-168z" />
<glyph unicode="a" horiz-adv-x="1161" d="M84 190q0 44 12 79t27.5 60.5t56 49.5t70.5 39t101 35t117 31.5t146 35.5v131q0 159 -78 235q-45 43 -99 43q-40 0 -85 -24q-18 -10 -18 -20q0 -16 43 -31q47 -16 74 -78q12 -28 12 -56t-12 -55q-23 -54 -80 -79q-27 -11 -54 -11q-29 1 -57 13q-55 24 -78 78 q-10 27 -10 55q0 13 2 27q7 42 33 69q58 62 137 105q41 22 89 32.5t76 10.5h28q197 0 307 -112.5t110 -297.5v-305q0 -6 0.5 -16t6 -35.5t15 -44.5t30 -34t47.5 -14q6 0 14.5 1t25.5 9.5t21 24.5l12 -10q-22 -67 -94.5 -108t-169.5 -41q-5 0 -13 0.5t-32 4t-46.5 10t-50 20 t-48 32.5t-36.5 49t-20 68q-21 -81 -95.5 -132.5t-180.5 -51.5q-27 0 -57 4.5t-66.5 18.5t-65 36t-48 60.5t-19.5 88.5zM449 227q0 -9 4 -32.5t11.5 -41.5t24 -32.5t39.5 -14.5q49 0 86 78v316q-35 -8 -62 -22t-44 -28t-29 -37.5t-18 -39.5t-8.5 -45.5t-3 -42.5t-0.5 -43 v-15z" />
<glyph unicode="b" horiz-adv-x="1357" d="M29 1425v17l450 86v-719q46 79 129.5 117.5t222.5 38.5q103 0 186.5 -38.5t136.5 -104.5t81.5 -151.5t28.5 -181.5q0 -118 -31 -208.5t-81 -146t-121 -90.5t-143.5 -48.5t-156.5 -13.5q-216 0 -313 90q-19 -12 -54.5 -26t-74.5 -24t-74.5 -16.5t-58.5 -5.5t-23 10v1284 q0 54 -21 81t-83 50zM479 360q0 -180 40 -270t130 -90q92 0 147.5 113.5t55.5 347.5q0 126 -20 222t-67 158t-118 62q-168 0 -168 -325v-218z" />
<glyph unicode="c" horiz-adv-x="1054" d="M92 477q0 107 33.5 195t100.5 154t175 102.5t250 36.5q109 0 189 -37.5t125 -87.5q26 -27 34 -71q3 -18 3 -35q0 -26 -7 -50q-19 -60 -77 -86q-31 -14 -62 -15q-27 0 -55 11q-61 20 -87 77q-14 31 -14 61q0 27 11 54q24 61 77 82q15 5 4 26q-20 39 -90 49l-40 3 q-168 0 -168 -442q0 -166 68.5 -253t197.5 -87q77 0 131 28t76 80l14 -6q0 -49 -26.5 -98.5t-75 -91t-126 -68t-169.5 -26.5q-204 0 -348 141t-144 354z" />
<glyph unicode="d" horiz-adv-x="1363" d="M96 467q0 125 38.5 221t108 156t162.5 90.5t205 30.5q209 0 275 -91v420q0 54 -21 81t-84 50v17l451 86v-1344q0 -74 20.5 -99.5t83.5 -33.5v-16l-393 -51q-25 -4 -39.5 5t-16.5 20l-1 11v183q-16 -69 -70.5 -120.5t-124.5 -76t-145 -24.5q-216 0 -332.5 123t-116.5 362z M512 514q0 -201 47 -302t156 -101q56 0 106 42t64 91v411q0 136 -55.5 213.5t-137.5 77.5q-32 0 -57.5 -11.5t-49 -41t-39 -77t-25 -124t-9.5 -178.5z" />
<glyph unicode="e" horiz-adv-x="1099" d="M76 471q0 101 29.5 184.5t79.5 140t117 95.5t139.5 56.5t150.5 17.5q70 0 128 -11.5t114.5 -43.5t95 -83.5t62.5 -136t24 -196.5h-557q0 -113 16.5 -192.5t50 -125.5t73 -69.5t95.5 -36.5q22 -5 44 -5q62 0 124 41q84 55 113 177l18 -4q-22 -123 -136 -210t-296 -87 q-132 0 -243.5 64t-176.5 177t-65 248zM459 512h260q0 209 -27 321.5t-92 112.5q-44 0 -77.5 -68.5t-48.5 -165t-15 -200.5z" />
<glyph unicode="f" horiz-adv-x="794" d="M25 928v18h133q0 117 17 208.5t49.5 154t74.5 105t98.5 66t114 33t127.5 9.5q73 0 134.5 -33t92.5 -90q17 -30 17 -68q0 -5 -1 -11q-2 -44 -24 -79q-31 -46 -87 -57q-16 -4 -30 -4q-39 0 -73 22q-48 31 -60 86q-3 15 -3 29q0 39 24 76q26 44 82 57q25 7 24 25 q-2 23 -43 29l-20 1q-41 0 -70 -13.5t-47 -51.5t-28.5 -71.5t-14.5 -110t-5 -127.5t-1 -161v-8v-7.5v-8.5h219v-18h-219v-697q0 -97 16.5 -149t67.5 -66v-16h-512v16q28 8 45 27t24.5 52t9 60t1.5 76v697h-133z" />
<glyph unicode="g" horiz-adv-x="1214" d="M34 -315q-1 9 -1 18q0 34 11 63q13 35 34 65.5t52 54.5t57.5 40t54.5 29q-115 57 -115 176q0 7 0.5 18.5t10 45t26.5 64t56 65.5t93 59q-60 21 -102.5 55.5t-62.5 74.5t-28.5 74.5t-8.5 69.5q0 308 424 308q235 0 342 -93q86 107 170 121q14 3 29 3q20 0 41 -6 q37 -10 63 -36q33 -36 33 -82q0 -4 -1 -9q-3 -52 -43 -89q-35 -31 -81 -31h-10q-53 4 -89 43q-33 38 -33 75q0 8 2 16q2 11 -11 12q-26 0 -60 -27q71 -71 71 -205q0 -38 -8.5 -74.5t-36.5 -80t-72 -76t-123.5 -54.5t-182.5 -22q-117 0 -199 27q-15 -9 -28.5 -20.5t-25 -25.5 t-12 -27t9 -24t39.5 -17.5t78 -6.5h287q55 0 92 -3t96.5 -24.5t92.5 -60.5t53 -118q12 -47 12 -105q0 -40 -6 -86q-1 -6 -3 -17.5t-15 -45.5t-33.5 -67.5t-63.5 -78.5t-100 -84q-82 -56 -201 -84q-107 -25 -208 -25h-22q-110 3 -200.5 38t-118.5 97q-22 48 -25 93zM246 -266 q44 -36 96.5 -59t96.5 -33l44 -11q108 -13 189 -13q52 0 94 6q105 13 135 46q19 21 22 54.5t-3 57.5l-7 23q-1 4 -4 11t-17 25.5t-32 32t-52.5 25t-76.5 11.5h-278q-110 0 -195 35q-59 -67 -59 -119q0 -54 47 -92zM453 657q0 -170 17 -230t65 -60q31 0 48 25t25 87t8 178 q0 180 -14 234.5t-67 54.5q-55 0 -68.5 -54t-13.5 -235z" />
<glyph unicode="h" horiz-adv-x="1216" d="M25 1425v17l456 86v-772q38 89 115.5 149t163.5 60q52 0 98 -9t90.5 -31t76.5 -57t51.5 -90.5t19.5 -126.5v-418q0 -97 17 -151t67 -66v-16h-512v16q53 16 67.5 68t14.5 149v410q0 89 -34 131t-105 41h-3q-35 0 -70.5 -25.5t-56.5 -62.5v-496q0 -97 16.5 -149t67.5 -66 v-16h-512v16q28 8 45 27t24.5 52t9 60t1.5 76v1063q0 54 -22.5 81t-85.5 50z" />
<glyph unicode="i" horiz-adv-x="667" d="M53 862v17l455 86v-734q0 -97 16.5 -149t67.5 -66v-16h-512v16q28 8 45 27t24.5 52t9 60t1.5 76v500q0 54 -22 81t-85 50zM117 1212q0 82 56 138.5t138 56.5t139.5 -56.5t57.5 -138.5q0 -81 -57.5 -137.5t-139.5 -56.5t-138 56t-56 138z" />
<glyph unicode="j" horiz-adv-x="643" d="M37 -451q35 9 61 64t37.5 128t18 144.5t7.5 120.5l1 49v656q0 54 -21 86t-82 65v17l449 86v-863q0 -111 -30.5 -202.5t-76.5 -150.5t-111.5 -105t-125 -70t-127.5 -41v16zM119 1217q0 82 56 138t138 56t139.5 -56.5t57.5 -137.5q0 -82 -57.5 -138.5t-139.5 -56.5 t-138 56.5t-56 138.5z" />
<glyph unicode="k" horiz-adv-x="1339" d="M18 1425v17l457 86v-1297q0 -97 16.5 -149t67.5 -66v-16h-512v16q28 8 45 26.5t24.5 51.5t9 60t1.5 77v1063q0 54 -22.5 81t-86.5 50zM512 420l240 246q45 47 65 109q10 31 10 59q1 28 -9 50q-20 46 -81 46v16h557v-16q-95 0 -266.5 -91.5t-302.5 -226.5l344 -438 q113 -156 238 -156v-18h-379q-42 0 -70 5.5t-51.5 17.5t-47 39.5t-48.5 62t-65 94.5q-10 15 -15 23z" />
<glyph unicode="l" horiz-adv-x="641" d="M39 1425v17l457 86v-1297q0 -97 16.5 -149t67.5 -66v-16h-512v16q23 7 38.5 22t23.5 32t12 47.5t4.5 52t0.5 61.5v1063q0 54 -22.5 81t-85.5 50z" />
<glyph unicode="m" horiz-adv-x="1697" d="M16 862v17l455 86v-195q38 85 103.5 140t144.5 55q259 0 295 -211q35 94 104 152.5t156 58.5q66 0 117 -14.5t94 -48.5t66.5 -97t23.5 -152v-420q0 -97 17 -151t67 -66v-16h-512v16q53 16 67.5 68t14.5 149v412q0 91 -20 131.5t-72 40.5q-70 0 -121 -92q4 -35 4 -72v-420 q0 -97 17 -151t67 -66v-16h-512v16q53 16 67.5 68t14.5 149v412q0 92 -19.5 132t-72.5 40q-62 0 -111 -78v-508q0 -97 16.5 -149t67.5 -66v-16h-512v16q28 8 45 26.5t24.5 51.5t9 60t1.5 77v500q0 54 -22 81t-85 50z" />
<glyph unicode="n" horiz-adv-x="1214" d="M16 862v17l455 86v-199q41 85 116 142t156 57q66 0 122.5 -15t106.5 -48.5t78.5 -97t28.5 -151.5v-420q0 -97 17 -151t67 -66v-16h-512v16q53 16 67.5 68t14.5 149v412q0 88 -34 130t-107 42q-32 0 -65 -23t-56 -57v-506q0 -97 16.5 -149t67.5 -66v-16h-512v16 q28 8 45 26.5t24.5 51.5t9 60t1.5 77v500q0 54 -22 81t-85 50z" />
<glyph unicode="o" horiz-adv-x="1218" d="M84 473q0 104 31.5 191.5t94 155.5t165.5 106.5t237 38.5t237 -38.5t166 -106.5t94.5 -155.5t31.5 -191.5q0 -103 -31.5 -190.5t-94.5 -155.5t-166 -106.5t-237 -38.5t-237 38.5t-165.5 107t-94 155.5t-31.5 190zM498 473q0 -303 17 -388t97 -85q79 0 96 86t17 387 t-17 387t-96 86q-80 0 -97 -85t-17 -388z" />
<glyph unicode="p" horiz-adv-x="1355" d="M31 862v17l454 86v-160q91 160 353 160q102 0 185.5 -38.5t136.5 -104.5t81.5 -151.5t28.5 -181.5q0 -118 -31 -208.5t-81 -146t-121 -90.5t-143.5 -48.5t-156.5 -13.5q-160 0 -252 47v-340q0 -97 16.5 -148t67.5 -65v-19h-512v19q28 8 45 26.5t24.5 51.5t9 59.5 t1.5 75.5v1042q0 54 -21.5 81t-84.5 50zM485 285q8 -142 48 -213.5t120 -71.5q92 0 148.5 113.5t56.5 347.5q0 125 -20 219.5t-67 154.5t-118 60q-153 0 -168 -256v-354z" />
<glyph unicode="q" horiz-adv-x="1347" d="M98 467q0 125 38.5 221t108 156t162.5 90.5t205 30.5q230 0 346 -72q60 38 126 57q53 14 90 14h18q41 -5 41 -28v-1247q0 -97 16.5 -148t67.5 -65v-19h-512v19q28 8 45 26.5t24.5 51.5t9 59.5t1.5 75.5v422q-33 -51 -128.5 -90t-209.5 -39q-216 0 -332.5 123t-116.5 362z M514 514q0 -101 11 -182t34 -145.5t63 -100t95 -35.5q60 0 114 43t54 101v512q-9 113 -61.5 176t-127.5 63q-40 0 -70.5 -19.5t-57 -65.5t-40.5 -133.5t-14 -213.5z" />
<glyph unicode="r" horiz-adv-x="1046" d="M25 862v17l456 86v-287q42 63 79 110t59.5 71.5t52 45.5t40 26.5t38.5 18.5q29 15 66 15q16 0 34 -3q58 -9 96 -44q60 -52 66 -132q1 -9 1 -18q0 -69 -46 -121q-52 -59 -131 -65q-8 -1 -15 -1q-70 0 -125 46q-65 62 -65 127q0 18 -26 9q-53 -19 -120 -118l-4 -6v-408 q0 -97 16.5 -149t67.5 -66v-16h-512v16q28 8 45 27t24.5 52t9 60t1.5 76v500q0 54 -22.5 81t-85.5 50z" />
<glyph unicode="s" horiz-adv-x="911" d="M82 51v268h18q30 -137 134.5 -228t211.5 -91q53 0 86 28q33 30 39 70q1 8 1 15q0 33 -21 73q-26 48 -82 86l-207 125q-145 95 -179 230q-9 36 -9 70q0 93 69 169q3 4 9.5 10.5t32.5 24t58 30.5t88.5 23.5t121.5 10.5q105 0 188 -14.5t114 -28.5l31 -15v-209h-18 q-13 66 -47.5 116t-80 77.5t-93 41t-94.5 13.5q-49 0 -83.5 -23t-43.5 -57q-2 -9 -2 -18q0 -28 20 -62q27 -46 90 -86l207 -129q91 -55 139 -143q44 -80 43 -162v-16q-5 -90 -61 -158q-3 -4 -10 -11.5t-33 -26.5t-58.5 -33.5t-90 -26.5t-124.5 -12q-69 0 -132.5 7t-103.5 17 t-70.5 20.5t-43.5 17.5z" />
<glyph unicode="t" horiz-adv-x="817" d="M23 928v18h129v275l344 43v-318h264v-18h-264v-627q0 -89 36 -129.5t123 -40.5q72 0 125 62l13 -9q-19 -84 -101.5 -143t-193.5 -59q-52 0 -98.5 8.5t-93 30.5t-80 56.5t-54 90t-20.5 127.5v633h-129z" />
<glyph unicode="u" horiz-adv-x="1255" d="M35 907v17l467 41v-664q0 -90 29 -130t104 -40q107 0 133 115v497q0 95 -5 114q-9 32 -50 43q-16 4 -41 7v17l442 41v-783q0 -73 20 -97t85 -32v-16l-394 -53q-24 -4 -38.5 6t-16.5 22l-2 11v167q-13 -86 -89.5 -147t-197.5 -61q-52 0 -97 8.5t-89 31t-75.5 57t-50.5 90 t-19 126.5v455q0 89 -8 109q-12 29 -62 40q-17 4 -45 8z" />
<glyph unicode="v" horiz-adv-x="1226" d="M6 930v16h641v-16q-38 0 -57 -17.5t-19 -43t6 -51t15 -42.5l8 -18l209 -410q57 152 92 250q11 33 17 73q3 22 4 46q0 21 -2 41q-4 46 -22 84t-59 63t-102 25v16h477v-16q-51 0 -86.5 -15t-70 -57.5t-64 -101t-73.5 -162.5l-232 -612h-113l-403 821q-63 116 -166 127z" />
<glyph unicode="w" horiz-adv-x="1732" d="M33 930v16h553v-16q-25 0 -34.5 -17.5t-5 -43t12.5 -51t17 -42.5l8 -18l190 -406l82 240l-96 211q-40 80 -57.5 102t-45.5 25v16h512v-16q-27 0 -38.5 -17.5t-8 -43t10.5 -51t15 -42.5l9 -18l191 -408q55 148 88 246q14 40 16 94v12q0 48 -11 97q-12 55 -52.5 93 t-104.5 38v16h440v-16q-89 0 -141.5 -67.5t-130.5 -268.5l-215 -612h-102l-269 591l-198 -591h-107l-375 821q-58 117 -153 127z" />
<glyph unicode="x" horiz-adv-x="1349" d="M23 930v16h700v-16q-30 0 -49.5 -20t-16 -58.5t38.5 -83.5l111 -137l63 94q2 3 4.5 7.5t10 18.5t13 27.5t10 32t4 34.5t-7 32t-20.5 27.5t-40 18.5t-62 7v16h510v-16q-120 0 -230 -55t-169 -148l-74 -113l355 -493q25 -33 49 -55t47 -31.5t35.5 -13t31.5 -5.5v-16h-626 v16q36 0 36 29q0 28 -33 83q-24 40 -34 50l-131 180l-72 -98q-4 -5 -9.5 -14t-17.5 -34t-18 -48t-3 -51.5t19.5 -48.5t57 -34t102.5 -14v-16h-551v16q102 0 210 68t192 186l78 103l-336 467q-13 14 -25.5 25.5t-25.5 20t-22.5 15t-22.5 11t-19.5 7.5t-19 5t-16 3t-15.5 2z " />
<glyph unicode="y" horiz-adv-x="1261" d="M23 930v16h641v-16q-38 0 -57 -17.5t-19 -43t5.5 -51t14.5 -42.5l8 -18l209 -406l84 248q2 7 5 19t8.5 46t6.5 65v8q0 28 -7 62q-7 38 -25 65t-54.5 46t-88.5 19v16h477v-16q-106 0 -161.5 -65.5t-141.5 -270.5l-256 -735q-75 -246 -170 -324q-34 -28 -94 -34 q-13 -1 -26 -1q-43 0 -77 15q-66 31 -91 98q-12 32 -12 63q0 35 15 70q31 66 99 92q31 11 62 11q36 0 71 -15q69 -31 90 -96q6 -23 24 -25h2l80 126q5 16 10 34l-467 930q-63 117 -165 127z" />
<glyph unicode="z" horiz-adv-x="1083" d="M59 0l529 928q-192 0 -303 -70t-150 -182h-16l10 270h881l-496 -928q87 0 160.5 23.5t118.5 55.5t80.5 76t51.5 75t27 63h17l-19 -311h-891z" />
<glyph unicode="{" horiz-adv-x="784" d="M100 569v9q8 3 27.5 9.5t27 10t24 12t24 19t19.5 28t17 41t11.5 55.5t9 75t2.5 96v239q0 177 98 259.5t310 82.5l2 -8q-72 0 -97.5 -80.5t-25.5 -253.5v-295q0 -165 -86.5 -230t-286.5 -65q103 0 169 -11t114 -41t69 -83.5t21 -136.5v-295q0 -167 28 -250.5t95 -83.5 l-2 -8q-204 0 -306 83.5t-102 258.5v240q0 45 -2.5 82t-6 65t-10.5 50.5t-13.5 38t-17.5 28t-18.5 19.5t-21.5 14t-22.5 10t-24.5 8t-25 8z" />
<glyph unicode="|" horiz-adv-x="512" d="M150 -336v1841h227v-1841h-227z" />
<glyph unicode="}" horiz-adv-x="770" d="M106 -330q68 0 95.5 83t27.5 251v295q0 83 21 136.5t69.5 83.5t114.5 41t168 11q-199 0 -286 65t-87 230v295q0 175 -25 254.5t-98 79.5l3 8q213 0 310 -82t97 -260v-239q0 -48 2.5 -88t6 -69.5t11 -54.5t13 -41.5t17 -30t19 -21t22 -15t22 -10.5t24.5 -8.5t25 -8.5v-8 q-9 -3 -25 -8t-24.5 -8t-22.5 -10t-21.5 -14t-18.5 -19.5t-17.5 -28t-13.5 -38t-10.5 -50.5t-6 -65t-2.5 -82v-240q0 -175 -102 -258.5t-305 -83.5z" />
<glyph unicode="~" horiz-adv-x="1327" d="M129 422q35 81 78 140t84 88.5t83 47t77 19t62 -1t43 -7.5l15 -6l244 -94q31 -14 81 -26.5t109.5 -19.5t111 7.5t71.5 53.5l8 -2q-36 -77 -79.5 -134t-85 -87t-83 -48.5t-76.5 -21t-62 -2t-42 5.5l-16 4l-244 96q-33 13 -80.5 25t-108.5 20t-112 -6t-70 -53z" />
<glyph horiz-adv-x="0" />
<glyph unicode="&#xa1;" horiz-adv-x="733" d="M178 -358l82 976h236l75 -976h-393zM180 967q0 83 58.5 140.5t140.5 57.5q80 0 137 -57.5t57 -140.5q0 -82 -57 -139.5t-137 -57.5q-82 0 -140.5 57.5t-58.5 139.5z" />
<glyph unicode="&#xa2;" horiz-adv-x="1191" d="M152 477q0 105 32 192t96.5 153t169.5 103.5t242 39.5v249h19v-249q109 0 188.5 -37.5t124.5 -87.5q26 -28 34.5 -71.5t-3.5 -84.5q-20 -60 -78 -86.5t-117 -3.5q-60 20 -86.5 77t-3.5 115q23 60 78 82q15 5 6 26q-17 38 -94 49q-23 3 -49 3v-762q39 -18 88 -21.5t94.5 7 t82.5 37.5t50 65l14 -6q0 -96 -89.5 -182t-239.5 -102v-224h-19v224q-153 0 -273.5 54.5t-193.5 168.5t-73 272zM553 504q0 -240 139 -311v753q-139 -39 -139 -442z" />
<glyph unicode="&#xa3;" horiz-adv-x="1443" d="M73 239.5q11 58.5 59 110t144.5 63t247.5 -33.5l64 -23q-5 28 -109 213q-76 133 -104 174h-185v19h175q-55 124 -73 232t-2 186.5t55.5 142t97 103t123.5 64.5t134 31t130.5 -1.5t111.5 -28.5q90 -38 137.5 -85t73.5 -108q16 -44 3.5 -97t-48.5 -91q-52 -54 -128 -54.5 t-130 52.5q-55 54 -56 129t52 129q55 55 125 55q29 0 14 21q-19 24 -53 33q-197 49 -274 -47q-97 -121 35 -430q46 -108 120 -236h268v-19h-256q29 -42 41 -69q43 -82 58.5 -165.5t7.5 -144t-31 -106.5l53 -18q64 -20 121 -29.5t112 -6.5t87.5 32.5t32.5 85.5h22 q9 -58 5 -104t-19 -80.5t-34 -59t-40.5 -40.5t-39.5 -25.5t-30 -12.5l-12 -4q-93 -27 -238 -6.5t-241 73.5q-151 -81 -342 -81q-17 0 -43 4t-71.5 17t-85.5 46t-58 82q-18 50 -7 108.5zM135 135q2 -32 16 -56t35.5 -38t42.5 -23t46 -12.5t37 -4.5t24 -1q73 0 136 40t93 91 q-129 84 -192 113q-78 31 -131.5 18t-81.5 -48.5t-25 -78.5z" />
<glyph unicode="&#xa4;" horiz-adv-x="1253" d="M37 242l180 180q-90 134 -90 285q0 155 90 286l-180 181l119 118l180 -180q129 90 287 90t284 -90l183 180l118 -118l-182 -181q90 -126 90 -286q0 -156 -90 -285l182 -180l-118 -121l-183 182q-126 -90 -284 -90t-287 90l-180 -182zM389 707q0 -95 68.5 -163.5 t165.5 -68.5q95 0 163 68.5t68 163.5q0 97 -68 165t-163 68q-97 0 -165.5 -68t-68.5 -165z" />
<glyph unicode="&#xa5;" horiz-adv-x="1458" d="M-53 1427v15h616v-15q-51 0 -60 -10q-16 -18 33 -113q22 -41 62 -110l297 -508q105 203 162 328q15 32 26.5 80.5t11 106.5t-16 107.5t-61 83t-116.5 33.5v17h594v-17q-99 0 -208 -104t-214 -315l-166 -334h322v-19h-322v-184h322v-18h-322v-220q0 -17 -0.5 -43.5 t-0.5 -40t0.5 -33t2 -29.5t5 -23.5t8.5 -19.5t13 -12.5t19 -9t25 -2.5v-18h-551v18q37 0 54.5 23.5t20 51t1.5 99.5v39v220h-291v18h291v96q-9 18 -27.5 50t-21.5 38h-242v19h231l-340 594q-34 59 -54.5 90t-39 46.5t-28.5 18.5t-35 6z" />
<glyph unicode="&#xa6;" horiz-adv-x="514" d="M145 381h228v-772h-228v772zM145 737v768h228v-768h-228z" />
<glyph unicode="&#xa7;" horiz-adv-x="1202" d="M130.5 508q11.5 73 72.5 142.5t168 121.5q-106 63 -153 152.5t-34 218.5q7 71 32 127.5t59 91.5t80.5 59t90 35t94.5 15.5t86 3.5t72 -5q76 -7 140 -44.5t92 -73.5q27 -31 32.5 -76.5t-12.5 -85.5q-29 -59 -89 -81t-120 5q-59 28 -81 88t6 119q32 63 86 80q11 3 1 20 q-17 27 -59 33q-114 9 -184.5 -48t-79.5 -155q-8 -71 32.5 -132t137.5 -122l254 -149q84 -53 142.5 -120.5t82 -142t12.5 -147.5t-72 -142.5t-167 -121.5q104 -73 150.5 -159t35.5 -212q-7 -71 -32.5 -127t-59.5 -91t-81 -58.5t-90 -34.5t-94 -14.5t-85.5 -2.5t-71.5 5 q-76 7 -141 43t-92 71q-26 31 -32 76.5t11 85.5q29 59 89 81t120 -5q59 -28 81 -88t-5 -119q-28 -61 -84 -80q-12 -3 -1 -19q15 -22 56 -28q115 -9 186.5 45.5t80.5 151.5q8 71 -32.5 132t-137.5 122l-254 149q-84 53 -143 120.5t-83 142t-12.5 147.5zM304.5 615.5 q3.5 -23.5 10 -41.5t24.5 -39.5t32.5 -35.5t41 -33.5t42 -30t43 -28t37.5 -24.5q36 -24 111.5 -72t129.5 -83t62 -42q30 26 48.5 51.5t26 47.5t4.5 45.5t-10 41.5t-24.5 39.5t-32.5 36t-40.5 33.5t-41.5 29.5t-42.5 28t-37.5 24.5q-36 24 -111.5 72t-129.5 83t-62 42 q-30 -26 -48.5 -51.5t-27 -47.5t-5 -45.5z" />
<glyph unicode="&#xa8;" horiz-adv-x="765" d="M47 1341q0 58 43 100t103 42q57 0 99 -42t42 -100q0 -60 -42 -102.5t-99 -42.5q-60 0 -103 42.5t-43 102.5zM432 1341q0 58 43 100t103 42q57 0 99 -42t42 -100q0 -60 -42 -102.5t-99 -42.5q-60 0 -103 42.5t-43 102.5z" />
<glyph unicode="&#xa9;" horiz-adv-x="1669" d="M61 756q0 157 61 300t164.5 246.5t246.5 164.5t301 61q157 0 300 -61t246.5 -164.5t164.5 -246.5t61 -300t-61 -300t-164.5 -246.5t-246.5 -164.5t-300 -61q-158 0 -301 61t-246.5 164.5t-164.5 246.5t-61 300zM219 756q0 -124 49 -238t131.5 -196t196 -130.5 t238.5 -48.5q165 0 306 82t223.5 223.5t82.5 307.5t-82.5 307.5t-223.5 224t-306 82.5q-166 0 -308 -82.5t-224.5 -224t-82.5 -307.5zM410 748q0 127 66 224t171.5 146t231.5 49q104 0 176 -16.5t96 -36.5l-6 -235h-19q-12 86 -40 143.5t-65.5 83t-70 34.5t-71.5 9 q-67 0 -105.5 -33.5t-58 -121.5t-19.5 -246q0 -157 20.5 -245.5t58.5 -121.5t104 -33q35 0 68 10t70 36.5t66 83t43 138.5h19l6 -233q-26 -19 -105 -36t-167 -17q-126 0 -231.5 49t-171.5 145.5t-66 223.5z" />
<glyph unicode="&#xaa;" horiz-adv-x="671" d="M39 1038q0 20 3.5 36t14 29.5t19.5 23.5t31.5 20t37.5 16.5t49 16t55.5 14.5t67.5 16v70q0 83 -39 120.5t-96 8.5q-24 -15 11 -25q25 -6 38 -38q12 -31 0 -60t-41 -41q-31 -11 -59.5 1.5t-40.5 41.5q-15 41 12 80q23 31 66 53q18 10 45 16t45 7h18q104 0 162 -59t58 -156 v-160q0 -3 0.5 -8.5t3 -18.5t7.5 -23.5t16 -18.5t26 -7q18 3 24 21l17 -6q-10 -36 -49.5 -58t-91.5 -22q-5 0 -12.5 0.5t-28 5t-37 12.5t-31.5 25t-18 41q-12 -39 -51.5 -61.5t-96.5 -22.5q-19 0 -39.5 4.5t-43.5 15.5t-37.5 34.5t-14.5 55.5zM229 1063q0 -3 0.5 -7.5 t2.5 -15.5t6 -20t13 -16t21 -7q26 0 45 47v148q-25 -5 -42.5 -16t-26.5 -22t-13.5 -29.5t-5 -29.5t-0.5 -32z" />
<glyph unicode="&#xab;" horiz-adv-x="1476" d="M178 545l586 489v-100l-242 -389l242 -377v-100zM709 545l585 489v-100l-239 -389l239 -377v-100z" />
<glyph unicode="&#xac;" horiz-adv-x="1417" d="M84 606v250h1241v-758h-252v508h-989z" />
<glyph unicode="&#xad;" horiz-adv-x="909" d="M131 379v283h645v-283h-645z" />
<glyph unicode="&#xae;" horiz-adv-x="1677" d="M63 756q0 157 61.5 300t165 246.5t246.5 164.5t300 61t300 -61t246.5 -164.5t164.5 -246.5t61 -300t-61 -300t-164.5 -246.5t-246.5 -164.5t-300 -61t-300 61t-246.5 164.5t-165 246.5t-61.5 300zM223 756q0 -124 48.5 -238t130.5 -196t196 -130.5t238 -48.5 q166 0 307 82t223 223.5t82 307.5t-82 307.5t-223 224t-307 82.5t-307.5 -82.5t-223.5 -224t-82 -307.5zM459 373v18q26 0 36.5 6t15.5 29.5t5 79.5v530q0 54 -11.5 76.5t-45.5 22.5v8h311q92 0 158 -7.5t128.5 -28.5t95 -64.5t32.5 -108.5q0 -58 -24.5 -99.5t-65.5 -62 t-81.5 -29t-84.5 -8.5q51 0 83.5 -7.5t63 -30t52.5 -67.5t42 -118q16 -57 49 -88t60 -33v-18h-217q-58 0 -83.5 49.5t-45.5 202.5q-3 27 -19.5 47.5t-37.5 29.5t-41 14.5t-34 5.5l-14 1h-51v-217q0 -79 8 -97t43 -18v-18h-327zM735 741h35q91 0 113 10q32 14 39 71 q4 33 4 104q0 38 -1 65.5t-6 49t-8.5 35t-15 23.5t-19 14.5t-28 7t-33.5 3t-43 0.5h-2h-35v-383z" />
<glyph unicode="&#xaf;" horiz-adv-x="737" d="M-33 1169v205h805v-205h-805z" />
<glyph unicode="&#xb0;" horiz-adv-x="780" d="M117 1243q0 112 77.5 189t188.5 77t188.5 -77t77.5 -189q0 -110 -77.5 -186t-188.5 -76t-188.5 76t-77.5 186zM258 1241q0 -52 37 -88.5t90 -36.5t90 36.5t37 88.5q0 53 -37 90t-90 37t-90 -37t-37 -90z" />
<glyph unicode="&#xb1;" horiz-adv-x="1245" d="M84 0v205h1063v-205h-1063zM84 618v207h428v271h205v-271h430v-207h-430v-321h-205v321h-428z" />
<glyph unicode="&#xb2;" horiz-adv-x="573" d="M57 776l187 250q103 151 54 231q-30 48 -94 48q-60 0 -90 -41q-22 -29 -14 -70l-16 -8q-24 42 -19 87.5t28 83t69.5 61.5t105.5 24q70 0 124 -51t54 -115q0 -49 -30.5 -102.5t-67 -89t-80.5 -76t-57 -56.5l-23 -30h193q55 0 84 53h18l-55 -199h-371z" />
<glyph unicode="&#xb3;" horiz-adv-x="591" d="M74 850q-22 43 6 82q19 28 52 33.5t61 -13.5q27 -21 32.5 -52t-14.5 -58q-17 -28 -51 -35q-8 0 -2 -8q16 -21 78 -21q52 0 74.5 50.5t8.5 129.5q-4 23 -8 39t-14.5 38.5t-24.5 36t-39.5 24t-58.5 10.5v8q57 9 84.5 48.5t20.5 81.5t-37 63q-20 14 -50 15.5t-54.5 -12 t-28.5 -38.5l-9 -2q-19 60 27.5 116t142.5 56q51 0 92.5 -23.5t60.5 -60.5t21 -78.5t-24.5 -81.5t-77.5 -65q73 -3 120.5 -50t47.5 -106q0 -207 -274 -207q-115 0 -162 80z" />
<glyph unicode="&#xb4;" horiz-adv-x="1040" d="M178 1143l459 334l332 -103l-623 -231h-168z" />
<glyph unicode="&#xb5;" horiz-adv-x="1265" d="M41 907v17l463 41v-662q0 -92 32 -131t119 -39q43 0 74.5 36.5t42.5 96.5v477q0 95 -5 114q-9 32 -50 43q-16 4 -41 7v17l442 41v-783q0 -74 21 -98.5t86 -30.5v-18l-396 -51q-24 -4 -38.5 5.5t-16.5 21.5l-2 12v182q-12 -61 -46.5 -107.5t-77 -70t-79.5 -34.5t-65 -11 v-322q0 -75 20.5 -100t85.5 -31v-16l-413 -54q-26 -4 -41 5.5t-17 21.5l-2 12v1245q0 95 -5 114q-9 32 -50 43q-16 4 -41 7z" />
<glyph unicode="&#xb6;" horiz-adv-x="1630" d="M76 977q0 461 542 465h3h245v-1985h-522v19q34 0 66.5 5.5t72 25t68 50.5t48 88.5t19.5 133.5v741q-93 0 -164.5 9.5t-145.5 38t-122.5 77.5t-79 133t-30.5 199zM1053 -543v1985h413v-21q-73 0 -120.5 -89t-47.5 -202v-1351q0 -126 41.5 -214.5t112.5 -88.5v-19h-399z " />
<glyph unicode="&#xb7;" horiz-adv-x="593" d="M164 612q0 56 40 96t95 40t95 -40t40 -96t-40 -95.5t-95 -39.5t-95 39.5t-40 95.5z" />
<glyph unicode="&#xb8;" horiz-adv-x="569" d="M113 -346q8 29 33.5 44.5t56.5 8.5q30 -6 46.5 -31t10.5 -55q-12 -37 -37 -45q-12 -6 4 -14q15 -8 43 -8q38 0 59 28t21 64q0 13 -3.5 28.5t-14 37.5t-30 35.5t-51 23t-77.5 -1.5l88 223h19l-45 -121q137 30 211.5 -25.5t64.5 -150.5q-19 -160 -231 -160q-91 0 -142 45 q-14 11 -21.5 32t-4.5 42z" />
<glyph unicode="&#xb9;" horiz-adv-x="475" d="M70 1290l176 152h86v-572q0 -40 6 -56.5t29 -16.5v-19h-244v19q27 0 35 17t8 56v396q0 32 -20.5 34t-41.5 -12l-20 -14z" />
<glyph unicode="&#xba;" horiz-adv-x="761" d="M70 1098q0 66 18.5 127t54.5 111.5t96 81t136 30.5q77 0 138 -30.5t96.5 -81t54 -111.5t18.5 -127q0 -52 -11 -99.5t-35.5 -90.5t-59.5 -75t-86.5 -50.5t-114.5 -18.5q-101 0 -172 49.5t-102 123t-31 161.5zM309 1098q0 -190 11 -253t55 -63q46 0 55.5 60t9.5 256 q0 201 -9.5 266.5t-55.5 65.5q-44 0 -55 -68.5t-11 -263.5z" />
<glyph unicode="&#xbb;" horiz-adv-x="1472" d="M170 68v100l240 377l-240 389v100l586 -489zM700 68v100l242 377l-242 389v100l586 -489z" />
<glyph unicode="&#xbc;" horiz-adv-x="1392" d="M37 76l1143 1384h204l-1144 -1384h-203zM94 1352l201 172h98v-652q0 -31 2 -46.5t10.5 -26.5t26.5 -11v-20h-278v20q31 0 40 20t9 64v451q0 23 -9.5 32.5t-23 6.5t-27 -9t-23.5 -13l-9 -7zM668 207v18l387 529l49 -11v-462h88v-74h-88v-53q0 -99 6.5 -117.5t40.5 -18.5 v-18h-285v18q15 0 21.5 2t13 7t8.5 21t3 37t1 62v60h-245zM753 282l15 -1h145v251l-139 -192q-40 -52 -21 -58z" />
<glyph unicode="&#xbd;" horiz-adv-x="1376" d="M37 76l1143 1384h204l-1144 -1384h-203zM94 1352l201 172h98v-652q0 -31 2 -46.5t10.5 -26.5t26.5 -11v-20h-278v20q31 0 40 20t9 64v451q0 23 -9.5 32.5t-23 6.5t-27 -9t-23.5 -13l-9 -7zM800 546q-1 43 17.5 81t48.5 69t74 48t92 14q80 0 141.5 -52.5t61.5 -123.5 q0 -57 -31.5 -120t-65.5 -103.5t-84 -92t-61 -65.5l-18 -25h190q30 0 59.5 16t47.5 46h8l-66 -238h-407l211 285q107 158 55 243q-32 52 -105 54q-68 1 -107 -41q-25 -28 -23 -66l-17 -10q-20 38 -21 81z" />
<glyph unicode="&#xbe;" horiz-adv-x="1343" d="M37 76l1143 1384h204l-1144 -1384h-203zM57 854q-22 49 9 94q22 32 59.5 38.5t69.5 -15.5q30 -22 36.5 -58.5t-16.5 -66.5q-19 -24 -49 -33q-11 -3 -4 -13q14 -18 80 -18q60 0 85.5 53.5t10.5 143.5q-5 32 -12.5 55.5t-24.5 51t-50 42.5t-79 15v18q66 12 97 55.5 t23.5 89.5t-42.5 70q-35 27 -86.5 16t-57.5 -55l-18 -4q-21 69 32 133t163 64q59 0 106 -27t68.5 -69t24 -89t-28 -93t-88.5 -74q84 -4 137 -58t53 -121q0 -60 -20 -104t-50 -68.5t-74 -39t-83 -19t-86 -4.5q-129 0 -185 90zM668 207v18l387 529l49 -11v-462h88v-74h-88v-53 q0 -99 6.5 -117.5t40.5 -18.5v-18h-285v18q15 0 21.5 2t13 7t8.5 21t3 37t1 62v60h-245zM753 282l15 -1h145v251l-139 -192q-40 -52 -21 -58z" />
<glyph unicode="&#xbf;" horiz-adv-x="1306" d="M207 -195q-3 85 18.5 159t56.5 123.5t81.5 88.5t87.5 59.5t81 30.5q218 57 205 213l19 2q1 -7 12 -49.5t14 -71t-12.5 -76.5t-56.5 -91q-65 -69 -86.5 -164t-8.5 -224q5 -68 33.5 -129t72.5 -101t101 -54.5t119 10.5q50 20 63 67q9 33 -8 39q-4 2 -8 1q-60 -9 -117 38 q-53 47 -58 117t38 123q44 52 115 55t125 -43q63 -53 59 -161q2 -62 -53 -134.5t-146 -113.5q-121 -54 -253.5 -59.5t-239 32t-178 120t-76.5 193.5zM549 786q0 75 53 127t127 52t127 -52t53 -127t-53 -127.5t-127 -52.5t-127 52.5t-53 127.5z" />
<glyph unicode="&#xc0;" d="M41 0v16q25 2 43.5 6.5t53 26t67 59.5t77 112t89.5 177l413 1045h11l553 -1256q21 -47 44.5 -80t40 -49.5t39 -26t31.5 -11t29 -3.5v-16h-717v16q46 0 67 24.5t18.5 60t-12 71t-20.5 60.5l-12 24l-65 141h-402q-13 -29 -15 -75.5t12 -99.5t41.5 -99t80.5 -76.5t123 -30.5 v-16h-590zM367 1737l331 102l459 -334h-168zM395 416h387l-204 461z" />
<glyph unicode="&#xc1;" d="M41 0v16q25 2 43.5 6.5t53 26t67 59.5t77 112t89.5 177l413 1045h11l553 -1256q21 -47 44.5 -80t40 -49.5t39 -26t31.5 -11t29 -3.5v-16h-717v16q46 0 67 24.5t18.5 60t-12 71t-20.5 60.5l-12 24l-65 141h-402q-13 -29 -15 -75.5t12 -99.5t41.5 -99t80.5 -76.5t123 -30.5 v-16h-590zM395 416h387l-204 461zM428 1505l459 334l332 -102l-623 -232h-168z" />
<glyph unicode="&#xc2;" d="M41 0v16q25 2 43.5 6.5t53 26t67 59.5t77 112t89.5 177l413 1045h11l553 -1256q21 -47 44.5 -80t40 -49.5t39 -26t31.5 -11t29 -3.5v-16h-717v16q46 0 67 24.5t18.5 60t-12 71t-20.5 60.5l-12 24l-65 141h-402q-13 -29 -15 -75.5t12 -99.5t41.5 -99t80.5 -76.5t123 -30.5 v-16h-590zM395 416h387l-204 461zM453 1505l338 396l337 -396h-84l-253 168l-254 -168h-84z" />
<glyph unicode="&#xc3;" d="M41 0v16q25 2 43.5 6.5t53 26t67 59.5t77 112t89.5 177l413 1045h11l553 -1256q21 -47 44.5 -80t40 -49.5t39 -26t31.5 -11t29 -3.5v-16h-717v16q46 0 67 24.5t18.5 60t-12 71t-20.5 60.5l-12 24l-65 141h-402q-13 -29 -15 -75.5t12 -99.5t41.5 -99t80.5 -76.5t123 -30.5 v-16h-590zM270 1647q35 81 78 138.5t84.5 86t83 43.5t76.5 14t62.5 -5t43.5 -10l15 -7l243 -95q42 -19 114.5 -30.5t152.5 1.5t106 64l8 -2q-36 -77 -79.5 -133t-85 -84t-83 -44t-76.5 -16.5t-62 2t-43 8.5l-15 5l-244 96q-44 17 -114 29t-150.5 0t-105.5 -63zM395 416h387 l-204 461z" />
<glyph unicode="&#xc4;" d="M41 0v16q25 2 43.5 6.5t53 26t67 59.5t77 112t89.5 177l413 1045h11l553 -1256q21 -47 44.5 -80t40 -49.5t39 -26t31.5 -11t29 -3.5v-16h-717v16q46 0 67 24.5t18.5 60t-12 71t-20.5 60.5l-12 24l-65 141h-402q-13 -29 -15 -75.5t12 -99.5t41.5 -99t80.5 -76.5t123 -30.5 v-16h-590zM395 416h387l-204 461zM446 1706q0 58 43 99.5t103 41.5q57 0 99 -41.5t42 -99.5q0 -60 -42 -102.5t-99 -42.5q-60 0 -103 42.5t-43 102.5zM831 1706q0 58 43 99.5t103 41.5q57 0 99 -41.5t42 -99.5q0 -60 -42 -102.5t-99 -42.5q-60 0 -103 42.5t-43 102.5z" />
<glyph unicode="&#xc5;" d="M41 0v16q25 2 43.5 6.5t53 26t67 59.5t77 112t89.5 177l413 1045h11l553 -1256q21 -47 44.5 -80t40 -49.5t39 -26t31.5 -11t29 -3.5v-16h-717v16q46 0 67 24.5t18.5 60t-12 71t-20.5 60.5l-12 24l-65 141h-402q-13 -29 -15 -75.5t12 -99.5t41.5 -99t80.5 -76.5t123 -30.5 v-16h-590zM395 416h387l-204 461zM580 1802q0 87 62 146t149 59q88 0 149 -59t61 -146q0 -86 -61.5 -147.5t-148.5 -61.5q-86 0 -148.5 61.5t-62.5 147.5zM711 1802q0 -34 23 -58t57 -24q33 0 56 24t23 58t-22.5 57t-56.5 23t-57 -23t-23 -57z" />
<glyph unicode="&#xc6;" horiz-adv-x="2162" d="M25 0v16q25 2 44.5 6.5t58.5 26t78 59t97.5 111.5t122.5 176l537 918q-27 112 -103 112v17h1129v-420h-19q0 82 -31 148.5t-80 107t-109 70.5t-119.5 43.5t-108.5 21.5t-80 9l-31 1h-33v-684h125h13.5t31.5 4.5t45 12.5t47.5 25.5t47.5 42t36 65t21 90.5h18v-502h-18 q-5 51 -21 91.5t-36 65.5t-47 43t-48 26t-45 12.5t-31 5t-14 0.5h-125v-703h33q1 2 20 0t54 2t78 7.5t92 17.5t97.5 30.5t92.5 47t78 67.5t54 91.5t20 119.5h18v-401h-1155v18q41 0 68.5 37.5t39 95t11.5 130.5v116h-528q-18 -29 -29.5 -75.5t-8.5 -99.5t21 -99t65 -76.5 t117 -30.5v-16h-591zM461 416h518v743q0 76 -10 125z" />
<glyph unicode="&#xc7;" horiz-adv-x="1501" d="M82 721q0 169 67.5 310t182 234t263.5 144t314 51q180 0 308 -29.5t172 -64.5l-21 -414h-16q-13 88 -36.5 160.5t-52 122.5t-64.5 88t-71.5 60t-76 36t-74 18.5t-68.5 4.5q-118 0 -186 -63t-102.5 -221t-34.5 -437q0 -210 19 -350t60.5 -222t99.5 -115.5t144 -33.5 q46 0 93 11.5t102.5 45t101.5 85.5t86 142.5t60 207.5h16l21 -414q-51 -34 -194 -65t-329 -31l-37 -101q137 30 212 -25.5t65 -150.5q-19 -160 -232 -160q-90 0 -141 45q-14 11 -21.5 32t-4.5 42q8 29 33.5 44.5t56.5 8.5q30 -6 46.5 -31t10.5 -55q-12 -37 -37 -45 q-12 -6 4 -14q15 -8 43 -8q38 0 59 28t21 64q0 13 -3.5 28.5t-14 37.5t-30 35.5t-51 23t-77.5 -1.5l80 203q-155 9 -293.5 64.5t-244 148t-167 229t-61.5 297.5z" />
<glyph unicode="&#xc8;" horiz-adv-x="1398" d="M55 0v18q41 0 68.5 37.5t39 95t11.5 130.5v878q0 51 -6 96t-19.5 84.5t-37.5 62.5t-56 23v17h1170v-420h-19q0 81 -31 147.5t-80 107t-109 70.5t-119.5 44t-108.5 22t-80 9l-31 1h-74v-686h166h13.5t31 4.5t45 12.5t48 26t47.5 42.5t36 65t21 91.5h18v-502h-18 q-6 69 -34.5 119t-59 72.5t-70 35.5t-53.5 14t-25 1h-166v-701h74q1 2 20 -0.5t54 2t78 7.5t92 17t97.5 30.5t92.5 47t78 67.5t54 92t20 120h18v-401h-1196zM236 1737l331 102l459 -334h-168z" />
<glyph unicode="&#xc9;" horiz-adv-x="1398" d="M55 0v18q41 0 68.5 37.5t39 95t11.5 130.5v878q0 51 -6 96t-19.5 84.5t-37.5 62.5t-56 23v17h1170v-420h-19q0 81 -31 147.5t-80 107t-109 70.5t-119.5 44t-108.5 22t-80 9l-31 1h-74v-686h166h13.5t31 4.5t45 12.5t48 26t47.5 42.5t36 65t21 91.5h18v-502h-18 q-6 69 -34.5 119t-59 72.5t-70 35.5t-53.5 14t-25 1h-166v-701h74q1 2 20 -0.5t54 2t78 7.5t92 17t97.5 30.5t92.5 47t78 67.5t54 92t20 120h18v-401h-1196zM260 1505l459 334l332 -102l-623 -232h-168z" />
<glyph unicode="&#xca;" horiz-adv-x="1398" d="M55 0v18q41 0 68.5 37.5t39 95t11.5 130.5v878q0 51 -6 96t-19.5 84.5t-37.5 62.5t-56 23v17h1170v-420h-19q0 81 -31 147.5t-80 107t-109 70.5t-119.5 44t-108.5 22t-80 9l-31 1h-74v-686h166h13.5t31 4.5t45 12.5t48 26t47.5 42.5t36 65t21 91.5h18v-502h-18 q-6 69 -34.5 119t-59 72.5t-70 35.5t-53.5 14t-25 1h-166v-701h74q1 2 20 -0.5t54 2t78 7.5t92 17t97.5 30.5t92.5 47t78 67.5t54 92t20 120h18v-401h-1196zM303 1505l338 396l338 -396h-84l-254 168l-254 -168h-84z" />
<glyph unicode="&#xcb;" horiz-adv-x="1398" d="M55 0v18q41 0 68.5 37.5t39 95t11.5 130.5v878q0 51 -6 96t-19.5 84.5t-37.5 62.5t-56 23v17h1170v-420h-19q0 81 -31 147.5t-80 107t-109 70.5t-119.5 44t-108.5 22t-80 9l-31 1h-74v-686h166h13.5t31 4.5t45 12.5t48 26t47.5 42.5t36 65t21 91.5h18v-502h-18 q-6 69 -34.5 119t-59 72.5t-70 35.5t-53.5 14t-25 1h-166v-701h74q1 2 20 -0.5t54 2t78 7.5t92 17t97.5 30.5t92.5 47t78 67.5t54 92t20 120h18v-401h-1196zM330 1706q0 58 42.5 99.5t102.5 41.5q57 0 99 -41.5t42 -99.5q0 -60 -42 -102.5t-99 -42.5q-60 0 -102.5 42.5 t-42.5 102.5zM715 1706q0 58 42.5 99.5t102.5 41.5q57 0 99 -41.5t42 -99.5q0 -60 -42 -102.5t-99 -42.5q-60 0 -102.5 42.5t-42.5 102.5z" />
<glyph unicode="&#xcc;" horiz-adv-x="829" d="M-6 1737l332 102l458 -334h-168zM80 0v18q37 0 58 6t40 27t27 64.5t8 115.5v1012q0 45 -3 76t-12.5 51t-17.5 31.5t-27 16.5t-32.5 6t-40.5 1v17h676v-17q-32 0 -47.5 -1.5t-35.5 -10.5t-28.5 -28t-15 -54t-6.5 -88v-1012q0 -72 8 -115.5t27 -64.5t40 -27t58 -6v-18h-676 z" />
<glyph unicode="&#xcd;" horiz-adv-x="829" d="M59 1505l459 334l332 -102l-623 -232h-168zM80 0v18q37 0 58 6t40 27t27 64.5t8 115.5v1012q0 45 -3 76t-12.5 51t-17.5 31.5t-27 16.5t-32.5 6t-40.5 1v17h676v-17q-32 0 -47.5 -1.5t-35.5 -10.5t-28.5 -28t-15 -54t-6.5 -88v-1012q0 -72 8 -115.5t27 -64.5t40 -27 t58 -6v-18h-676z" />
<glyph unicode="&#xce;" horiz-adv-x="829" d="M80 0v18q37 0 58 6t40 27t27 64.5t8 115.5v1012q0 45 -3 76t-12.5 51t-17.5 31.5t-27 16.5t-32.5 6t-40.5 1v17h676v-17q-32 0 -47.5 -1.5t-35.5 -10.5t-28.5 -28t-15 -54t-6.5 -88v-1012q0 -72 8 -115.5t27 -64.5t40 -27t58 -6v-18h-676zM80 1505l338 396l338 -396h-84 l-254 168l-254 -168h-84z" />
<glyph unicode="&#xcf;" horiz-adv-x="829" d="M80 0v18q37 0 58 6t40 27t27 64.5t8 115.5v1012q0 45 -3 76t-12.5 51t-17.5 31.5t-27 16.5t-32.5 6t-40.5 1v17h676v-17q-32 0 -47.5 -1.5t-35.5 -10.5t-28.5 -28t-15 -54t-6.5 -88v-1012q0 -72 8 -115.5t27 -64.5t40 -27t58 -6v-18h-676zM80 1706q0 58 42.5 99.5 t102.5 41.5q57 0 99.5 -41.5t42.5 -99.5q0 -60 -42.5 -102.5t-99.5 -42.5q-60 0 -102.5 42.5t-42.5 102.5zM465 1706q0 58 42.5 99.5t102.5 41.5q57 0 99.5 -41.5t42.5 -99.5q0 -60 -42.5 -102.5t-99.5 -42.5q-60 0 -102.5 42.5t-42.5 102.5z" />
<glyph unicode="&#xd0;" horiz-adv-x="1685" d="M43 715v18h168v426q0 69 -11 125.5t-39 97.5t-71 41v19h606q93 0 178 -8.5t176 -31t167.5 -57.5t146 -92t117.5 -131t76 -178t28 -229t-28.5 -228t-76 -175.5t-117 -128.5t-145.5 -90t-167.5 -55.5t-176 -29.5t-178.5 -8h-606v18q42 0 70 38t39.5 95t11.5 130v434h-168z M606 18h90q42 0 69.5 1.5t62 7t56.5 16t48 28.5t42.5 45t34 65t27.5 89t19 116t12.5 147t3.5 182q0 140 -8 245.5t-21.5 181t-39 127t-52.5 82t-70 46.5t-83 21t-101 5h-90v-690h268v-18h-268v-697z" />
<glyph unicode="&#xd1;" horiz-adv-x="1720" d="M16 1425v17h654l696 -1006v547q0 61 -8.5 119.5t-29.5 118t-53.5 104t-84.5 72.5t-117 28v17h621v-17q-73 0 -129.5 -28t-89.5 -72t-54.5 -104.5t-29 -118t-7.5 -119.5v-983h-225l-772 1100v-639q0 -45 1.5 -77t8 -81.5t18 -85t34.5 -76t55 -65.5t81 -41.5t111 -16.5v-18 h-651v18q81 0 142 31.5t94.5 77t54.5 109t27 116t6 109.5v663l-97 138q-33 44 -66.5 75.5t-54.5 47t-51 25.5t-39.5 11t-36.5 3q-5 1 -8 1zM340 1647q35 81 78 138.5t84 86t83 43.5t77 14t62 -5t42 -10l16 -7l244 -95q42 -19 114.5 -30.5t152.5 1.5t106 64l8 -2 q-36 -77 -79.5 -133t-85 -84t-83 -44t-76.5 -16.5t-62 2t-43 8.5l-15 5l-244 96q-44 17 -114.5 29t-151 0t-105.5 -63z" />
<glyph unicode="&#xd2;" horiz-adv-x="1662" d="M84 711q0 203 91.5 373t264 273t391.5 103q165 0 306.5 -60t237.5 -162t150 -238.5t54 -288.5t-54 -286t-150.5 -232t-237 -154.5t-306.5 -56.5t-306.5 56.5t-236.5 154.5t-150 232t-54 286zM420 1737l332 102l458 -334h-168zM578 711q0 -98 0.5 -157.5t2.5 -132 t5.5 -113.5t10.5 -90t16 -74.5t23.5 -54.5t32.5 -42.5t42 -26t53.5 -16.5t66.5 -4q46 0 80 6t61 27t44.5 42t30 70.5t19 92t10.5 126.5t4.5 153.5t0.5 193.5t-1 194t-4.5 155.5t-10 129.5t-19 95.5t-30 74.5t-44 45.5t-61 29.5t-80.5 7q-62 0 -103.5 -13t-70.5 -54.5 t-44.5 -85t-23.5 -142t-9.5 -185.5t-1.5 -251z" />
<glyph unicode="&#xd3;" horiz-adv-x="1662" d="M84 711q0 203 91.5 373t264 273t391.5 103q165 0 306.5 -60t237.5 -162t150 -238.5t54 -288.5t-54 -285.5t-150.5 -231t-237 -154t-306.5 -56.5t-306.5 56.5t-236.5 154t-150 231t-54 285.5zM424 1505l459 334l331 -102l-622 -232h-168zM578 711q0 -98 0.5 -157.5 t2.5 -132t5.5 -113.5t10.5 -90t16 -74.5t23.5 -54.5t32.5 -42.5t42 -26t53.5 -16.5t66.5 -4q46 0 80 6t61 27t44.5 42t30 70.5t19 92t10.5 126.5t4.5 153.5t0.5 193.5t-1 194t-4.5 155.5t-10 129.5t-19 95.5t-30 74.5t-44 45.5t-61 29.5t-80.5 7q-62 0 -103.5 -13 t-70.5 -54.5t-44.5 -85t-23.5 -142t-9.5 -185.5t-1.5 -251z" />
<glyph unicode="&#xd4;" horiz-adv-x="1662" d="M84 711q0 203 91.5 373t264 273t391.5 103q165 0 306.5 -60t237.5 -162t150 -238.5t54 -288.5t-54 -285.5t-150.5 -231t-237 -154t-306.5 -56.5t-306.5 56.5t-236.5 154t-150 231t-54 285.5zM494 1505l337 396l338 -396h-84l-254 168l-253 -168h-84zM578 711 q0 -98 0.5 -157.5t2.5 -132t5.5 -113.5t10.5 -90t16 -74.5t23.5 -54.5t32.5 -42.5t42 -26t53.5 -16.5t66.5 -4q46 0 80 6t61 27t44.5 42t30 70.5t19 92t10.5 126.5t4.5 153.5t0.5 193.5t-1 194t-4.5 155.5t-10 129.5t-19 95.5t-30 74.5t-44 45.5t-61 29.5t-80.5 7 q-62 0 -103.5 -13t-70.5 -54.5t-44.5 -85t-23.5 -142t-9.5 -185.5t-1.5 -251z" />
<glyph unicode="&#xd5;" horiz-adv-x="1662" d="M84 711q0 203 91.5 373t264 273t391.5 103q165 0 306.5 -60t237.5 -162t150 -238.5t54 -288.5t-54 -286t-150.5 -232t-237 -154.5t-306.5 -56.5t-306.5 56.5t-236.5 154.5t-150 232t-54 286zM311 1647q35 81 78 138.5t84.5 86t83 43.5t76.5 14t62.5 -5t42.5 -10l16 -7 l243 -95q42 -19 114.5 -30.5t152.5 1.5t106 64l8 -2q-36 -77 -79.5 -133t-85 -84t-83 -44t-76.5 -16.5t-62 2t-42 8.5l-16 5l-244 96q-44 17 -114.5 29t-151 0t-105.5 -63zM578 711q0 -98 0.5 -157.5t2.5 -132t5.5 -113.5t10.5 -90t16 -74.5t23.5 -54.5t32.5 -42.5t42 -26 t53.5 -16.5t66.5 -4q46 0 80 6t61 27t44.5 42t30 70.5t19 92t10.5 126.5t4.5 153.5t0.5 193.5t-1 194t-4.5 155.5t-10 129.5t-19 95.5t-30 74.5t-44 45.5t-61 29.5t-80.5 7q-62 0 -103.5 -13t-70.5 -54.5t-44.5 -85t-23.5 -142t-9.5 -185.5t-1.5 -251z" />
<glyph unicode="&#xd6;" horiz-adv-x="1662" d="M84 711q0 203 91.5 373t264 273t391.5 103q165 0 306.5 -60t237.5 -162t150 -238.5t54 -288.5t-54 -285.5t-150.5 -231t-237 -154t-306.5 -56.5t-306.5 56.5t-236.5 154t-150 231t-54 285.5zM496 1706q0 58 42.5 99.5t102.5 41.5q57 0 99 -41.5t42 -99.5 q0 -60 -42 -102.5t-99 -42.5q-60 0 -102.5 42.5t-42.5 102.5zM578 711q0 -98 0.5 -157.5t2.5 -132t5.5 -113.5t10.5 -90t16 -74.5t23.5 -54.5t32.5 -42.5t42 -26t53.5 -16.5t66.5 -4q46 0 80 6t61 27t44.5 42t30 70.5t19 92t10.5 126.5t4.5 153.5t0.5 193.5t-1 194 t-4.5 155.5t-10 129.5t-19 95.5t-30 74.5t-44 45.5t-61 29.5t-80.5 7q-62 0 -103.5 -13t-70.5 -54.5t-44.5 -85t-23.5 -142t-9.5 -185.5t-1.5 -251zM881 1706q0 58 42.5 99.5t102.5 41.5q57 0 99 -41.5t42 -99.5q0 -60 -42 -102.5t-99 -42.5q-60 0 -102.5 42.5t-42.5 102.5z " />
<glyph unicode="&#xd7;" horiz-adv-x="1376" d="M121 156l364 364l-364 365l205 207l364 -365l367 365l203 -207l-365 -365l365 -362l-203 -207l-367 364l-364 -364z" />
<glyph unicode="&#xd8;" horiz-adv-x="1665" d="M86 711q0 152 54 288.5t150 238.5t237.5 162t306.5 60q196 0 354 -82l82 148h20l-86 -156q175 -97 276 -273.5t101 -385.5q0 -152 -54 -286t-150 -232t-236.5 -154.5t-306.5 -56.5q-197 0 -357 77l-71 -131h-23l78 140q-175 91 -275 262t-100 381zM580 711q0 -312 8 -412 l481 872q-15 150 -67 210.5t-168 60.5q-46 0 -81 -7t-62 -29.5t-45 -46t-30.5 -74t-19.5 -95.5t-10.5 -129.5t-4.5 -156t-1 -193.5zM592 264q17 -150 69.5 -207t172.5 -57q46 0 80 6t61 27t44.5 42t30 71t19 91.5t10 126.5t4 153.5t0.5 193.5q0 291 -10 424z" />
<glyph unicode="&#xd9;" horiz-adv-x="1507" d="M25 1423v19h585v-19q-60 0 -72 -27.5t-12 -134.5v-18v-794q0 -176 85 -260.5t237 -84.5q121 0 221 74q44 32 71 99.5t32 119.5l6 52v532q0 55 -7 111t-24.5 117t-44.5 107.5t-71.5 76.5t-100.5 30v19h536l2 -19q-66 0 -116 -30.5t-79 -76t-47 -108t-24 -116.5t-6 -111 v-532q0 -193 -111 -312q-71 -73 -189.5 -114t-240.5 -41q-85 0 -164 17.5t-149.5 56t-122.5 93.5t-82.5 136t-30.5 178v780v31q0 39 -0.5 56t-4 40t-12 31.5t-24.5 15t-40 6.5zM348 1737l332 102l459 -334h-168z" />
<glyph unicode="&#xda;" horiz-adv-x="1507" d="M25 1423v19h585v-19q-60 0 -72 -27.5t-12 -134.5v-18v-794q0 -176 85 -260.5t237 -84.5q121 0 221 74q44 32 71 99.5t32 119.5l6 52v532q0 55 -7 111t-24.5 117t-44.5 107.5t-71.5 76.5t-100.5 30v19h536l2 -19q-66 0 -116 -30.5t-79 -76t-47 -108t-24 -116.5t-6 -111 v-532q0 -193 -111 -312q-71 -73 -189.5 -114t-240.5 -41q-85 0 -164 17.5t-149.5 56t-122.5 93.5t-82.5 136t-30.5 178v780v31q0 39 -0.5 56t-4 40t-12 31.5t-24.5 15t-40 6.5zM438 1505l459 334l332 -102l-623 -232h-168z" />
<glyph unicode="&#xdb;" horiz-adv-x="1507" d="M25 1423v19h585v-19q-60 0 -72 -27.5t-12 -134.5v-18v-794q0 -176 85 -260.5t237 -84.5q121 0 221 74q44 32 71 99.5t32 119.5l6 52v532q0 55 -7 111t-24.5 117t-44.5 107.5t-71.5 76.5t-100.5 30v19h536l2 -19q-66 0 -116 -30.5t-79 -76t-47 -108t-24 -116.5t-6 -111 v-532q0 -193 -111 -312q-71 -73 -189.5 -114t-240.5 -41q-85 0 -164 17.5t-149.5 56t-122.5 93.5t-82.5 136t-30.5 178v780v31q0 39 -0.5 56t-4 40t-12 31.5t-24.5 15t-40 6.5zM395 1505l338 396l338 -396h-84l-254 168l-254 -168h-84z" />
<glyph unicode="&#xdc;" horiz-adv-x="1507" d="M25 1423v19h585v-19q-60 0 -72 -27.5t-12 -134.5v-18v-794q0 -176 85 -260.5t237 -84.5q121 0 221 74q44 32 71 99.5t32 119.5l6 52v532q0 55 -7 111t-24.5 117t-44.5 107.5t-71.5 76.5t-100.5 30v19h536l2 -19q-66 0 -116 -30.5t-79 -76t-47 -108t-24 -116.5t-6 -111 v-532q0 -193 -111 -312q-71 -73 -189.5 -114t-240.5 -41q-85 0 -164 17.5t-149.5 56t-122.5 93.5t-82.5 136t-30.5 178v780v31q0 39 -0.5 56t-4 40t-12 31.5t-24.5 15t-40 6.5zM399 1706q0 58 43 99.5t103 41.5q57 0 99 -41.5t42 -99.5q0 -60 -42 -102.5t-99 -42.5 q-60 0 -103 42.5t-43 102.5zM784 1706q0 58 43 99.5t103 41.5q57 0 99 -41.5t42 -99.5q0 -60 -42 -102.5t-99 -42.5q-60 0 -103 42.5t-43 102.5z" />
<glyph unicode="&#xdd;" horiz-adv-x="1591" d="M18 1427v15h617v-15h-1h-1h-1q-50 0 -58 -11q-16 -20 39 -122q21 -39 57 -100l299 -508q102 203 159 328q15 32 26.5 80.5t11.5 106.5t-15.5 107.5t-61 83t-116.5 33.5v17h594v-17q-99 0 -208 -104t-214 -315l-166 -336v-439q0 -17 -0.5 -43.5t-0.5 -40t0.5 -33t2 -29.5 t5 -23.5t8.5 -19.5t13 -12.5t19 -9t25 -2.5v-18h-551v18q37 0 54 23t19.5 50t1.5 98v42v334l-399 701q-44 77 -70.5 110.5t-41 40t-46.5 10.5zM471 1505l459 334l332 -102l-623 -232h-168z" />
<glyph unicode="&#xde;" horiz-adv-x="1495" d="M55 0v18q37 0 58.5 6.5t40.5 27.5t26.5 64.5t7.5 114.5v1012q0 39 -3 67.5t-7 48t-14.5 32t-17.5 19t-25.5 9.5t-29 3.5t-36.5 0.5v19h678v-19q-25 0 -35.5 -0.5t-29 -3.5t-25.5 -9.5t-18 -19t-14.5 -32t-7 -48t-3.5 -67.5v-49q77 0 135.5 -1.5t130.5 -6.5t125.5 -13.5 t112.5 -24t101.5 -36.5t82.5 -52.5t64.5 -71t39.5 -92.5t15 -116q0 -62 -15 -114t-39.5 -91t-64.5 -70t-82.5 -52t-101.5 -36t-112.5 -23.5t-125.5 -13t-130.5 -6t-135.5 -1.5v-142q0 -71 8 -114.5t27 -64.5t40.5 -27.5t57.5 -6.5v-18h-678zM600 391q162 0 209 11 q68 16 94 75q28 65 29 269v34q0 77 -1.5 131t-11.5 98t-15.5 71t-29 47t-37 29t-54.5 14t-65 5.5t-85 0.5h-33v-785z" />
<glyph unicode="&#xdf;" horiz-adv-x="1558" d="M57 0v16q50 0 83.5 54t33.5 161v768q0 121 32 214.5t85.5 152.5t129.5 96.5t157 52.5t176 15q57 0 104.5 -2.5t105 -11.5t102.5 -24t89 -42t73.5 -63t47.5 -88.5t18 -118.5q0 -64 -20 -116t-50 -84.5t-72 -56.5t-78.5 -35.5t-77.5 -18.5t-60 -8t-35 -1q47 0 92.5 -3.5 t108 -15t116 -30.5t108 -53.5t93 -81t62.5 -116t24 -154.5q0 -103 -27 -178t-74 -122.5t-123.5 -75t-163.5 -38t-206 -10.5q-132 0 -182 67q-26 28 -37 71t-2 81q17 56 67.5 83.5t106.5 8.5q54 -15 81.5 -65.5t10.5 -104.5q-16 -60 -61 -82q-12 -5 -22.5 -14t-3.5 -18t42 -9 q81 0 116.5 85.5t35.5 293.5q0 463 -348 463v18q35 0 60 8.5t46.5 30t35 59t21 95.5t7.5 139q0 91 -10.5 155.5t-23 95t-34 47.5t-33.5 19t-30 2q-46 0 -79.5 -35t-48 -85t-22.5 -100t-8 -85v-35v-1171h-539z" />
<glyph unicode="&#xe0;" horiz-adv-x="1161" d="M84 190q0 44 12 79t27.5 60.5t56 49.5t70.5 39t101 35t117 31.5t146 35.5v131q0 159 -78 234.5t-184 19.5q-45 -26 25 -51q47 -16 74 -78q23 -57 0 -111t-80 -79q-56 -22 -111 1.5t-78 78.5q-15 40 -8 81.5t33 69.5q58 62 137 105q41 22 89 32.5t76 10.5h28 q197 0 307 -112.5t110 -297.5v-305q0 -6 0.5 -16t6 -35.5t15 -44.5t30 -34t47.5 -14q6 0 14.5 1t25.5 9.5t21 24.5l12 -10q-22 -67 -94.5 -108t-169.5 -41q-5 0 -13 0.5t-32 4t-46.5 10t-50 20t-48 32.5t-36.5 49t-20 68q-21 -81 -95.5 -132.5t-180.5 -51.5q-27 0 -57 4.5 t-66.5 18.5t-65 36t-48 60.5t-19.5 88.5zM193 1339l331 103l459 -334h-168zM449 227q0 -9 4 -32.5t11.5 -41.5t24 -32.5t39.5 -14.5q49 0 86 78v316q-35 -8 -62 -22t-44 -28t-29 -37.5t-18 -39.5t-8.5 -45.5t-3 -42.5t-0.5 -43v-15z" />
<glyph unicode="&#xe1;" horiz-adv-x="1161" d="M84 190q0 44 12 79t27.5 60.5t56 49.5t70.5 39t101 35t117 31.5t146 35.5v131q0 159 -78 234.5t-184 19.5q-45 -26 25 -51q47 -16 74 -78q23 -57 0 -111t-80 -79q-56 -22 -111 1.5t-78 78.5q-15 40 -8 81.5t33 69.5q58 62 137 105q41 22 89 32.5t76 10.5h28 q197 0 307 -112.5t110 -297.5v-305q0 -6 0.5 -16t6 -35.5t15 -44.5t30 -34t47.5 -14q6 0 14.5 1t25.5 9.5t21 24.5l12 -10q-22 -67 -94.5 -108t-169.5 -41q-5 0 -13 0.5t-32 4t-46.5 10t-50 20t-48 32.5t-36.5 49t-20 68q-21 -81 -95.5 -132.5t-180.5 -51.5q-27 0 -57 4.5 t-66.5 18.5t-65 36t-48 60.5t-19.5 88.5zM276 1108l459 334l332 -103l-623 -231h-168zM449 227q0 -9 4 -32.5t11.5 -41.5t24 -32.5t39.5 -14.5q49 0 86 78v316q-35 -8 -62 -22t-44 -28t-29 -37.5t-18 -39.5t-8.5 -45.5t-3 -42.5t-0.5 -43v-15z" />
<glyph unicode="&#xe2;" horiz-adv-x="1161" d="M84 190q0 44 12 79t27.5 60.5t56 49.5t70.5 39t101 35t117 31.5t146 35.5v131q0 159 -78 234.5t-184 19.5q-45 -26 25 -51q47 -16 74 -78q23 -57 0 -111t-80 -79q-56 -22 -111 1.5t-78 78.5q-15 40 -8 81.5t33 69.5q58 62 137 105q41 22 89 32.5t76 10.5h28 q197 0 307 -112.5t110 -297.5v-305q0 -6 0.5 -16t6 -35.5t15 -44.5t30 -34t47.5 -14q6 0 14.5 1t25.5 9.5t21 24.5l12 -10q-22 -67 -94.5 -108t-169.5 -41q-5 0 -13 0.5t-32 4t-46.5 10t-50 20t-48 32.5t-36.5 49t-20 68q-21 -81 -95.5 -132.5t-180.5 -51.5q-27 0 -57 4.5 t-66.5 18.5t-65 36t-48 60.5t-19.5 88.5zM274 1049l338 395l338 -395h-84l-254 168l-254 -168h-84zM449 227q0 -9 4 -32.5t11.5 -41.5t24 -32.5t39.5 -14.5q49 0 86 78v316q-35 -8 -62 -22t-44 -28t-29 -37.5t-18 -39.5t-8.5 -45.5t-3 -42.5t-0.5 -43v-15z" />
<glyph unicode="&#xe3;" horiz-adv-x="1161" d="M70 1133q35 81 78 138.5t84 86t83 43.5t77 14t62 -5t42 -10l16 -7l244 -95q42 -19 114.5 -30.5t152 1.5t105.5 64l9 -2q-36 -77 -79.5 -133t-85 -84t-83.5 -44t-77 -16.5t-62 2t-42 8.5l-16 5l-243 96q-30 12 -80 21.5t-109.5 13t-111 -13.5t-70.5 -56zM84 190 q0 44 12 79t27.5 60.5t56 49.5t70.5 39t101 35t117 31.5t146 35.5v131q0 159 -78 234.5t-184 19.5q-45 -26 25 -51q47 -16 74 -78q23 -57 0 -111t-80 -79q-56 -22 -111 1.5t-78 78.5q-15 40 -8 81.5t33 69.5q58 62 137 105q41 22 89 32.5t76 10.5h28q197 0 307 -112.5 t110 -297.5v-305q0 -6 0.5 -16t6 -35.5t15 -44.5t30 -34t47.5 -14q6 0 14.5 1t25.5 9.5t21 24.5l12 -10q-22 -67 -94.5 -108t-169.5 -41q-5 0 -13 0.5t-32 4t-46.5 10t-50 20t-48 32.5t-36.5 49t-20 68q-21 -81 -95.5 -132.5t-180.5 -51.5q-27 0 -57 4.5t-66.5 18.5t-65 36 t-48 60.5t-19.5 88.5zM449 227q0 -9 4 -32.5t11.5 -41.5t24 -32.5t39.5 -14.5q49 0 86 78v316q-35 -8 -62 -22t-44 -28t-29 -37.5t-18 -39.5t-8.5 -45.5t-3 -42.5t-0.5 -43v-15z" />
<glyph unicode="&#xe4;" horiz-adv-x="1161" d="M84 190q0 44 12 79t27.5 60.5t56 49.5t70.5 39t101 35t117 31.5t146 35.5v131q0 159 -78 234.5t-184 19.5q-45 -26 25 -51q47 -16 74 -78q23 -57 0 -111t-80 -79q-56 -22 -111 1.5t-78 78.5q-15 40 -8 81.5t33 69.5q58 62 137 105q41 22 89 32.5t76 10.5h28 q197 0 307 -112.5t110 -297.5v-305q0 -6 0.5 -16t6 -35.5t15 -44.5t30 -34t47.5 -14q6 0 14.5 1t25.5 9.5t21 24.5l12 -10q-22 -67 -94.5 -108t-169.5 -41q-5 0 -13 0.5t-32 4t-46.5 10t-50 20t-48 32.5t-36.5 49t-20 68q-21 -81 -95.5 -132.5t-180.5 -51.5q-27 0 -57 4.5 t-66.5 18.5t-65 36t-48 60.5t-19.5 88.5zM260 1247q0 58 43 100t103 42q57 0 99 -42t42 -100q0 -60 -42 -102.5t-99 -42.5q-60 0 -103 42.5t-43 102.5zM449 227q0 -9 4 -32.5t11.5 -41.5t24 -32.5t39.5 -14.5q49 0 86 78v316q-35 -8 -62 -22t-44 -28t-29 -37.5t-18 -39.5 t-8.5 -45.5t-3 -42.5t-0.5 -43v-15zM645 1247q0 58 43 100t103 42q57 0 99 -42t42 -100q0 -60 -42 -102.5t-99 -42.5q-60 0 -103 42.5t-43 102.5z" />
<glyph unicode="&#xe5;" horiz-adv-x="1161" d="M84 190q0 44 12 79t27.5 60.5t56 49.5t70.5 39t101 35t117 31.5t146 35.5v131q0 159 -78 234.5t-184 19.5q-45 -26 25 -51q47 -16 74 -78q23 -57 0 -111t-80 -79q-56 -22 -111 1.5t-78 78.5q-15 40 -8 81.5t33 69.5q58 62 137 105q41 22 89 32.5t76 10.5h28 q197 0 307 -112.5t110 -297.5v-305q0 -6 0.5 -16t6 -35.5t15 -44.5t30 -34t47.5 -14q6 0 14.5 1t25.5 9.5t21 24.5l12 -10q-22 -67 -94.5 -108t-169.5 -41q-5 0 -13 0.5t-32 4t-46.5 10t-50 20t-48 32.5t-36.5 49t-20 68q-21 -81 -95.5 -132.5t-180.5 -51.5q-27 0 -57 4.5 t-66.5 18.5t-65 36t-48 60.5t-19.5 88.5zM395 1307q0 87 62 149t149 62q88 0 149.5 -61.5t61.5 -149.5q0 -86 -61.5 -147.5t-149.5 -61.5q-86 0 -148.5 61.5t-62.5 147.5zM449 227q0 -9 4 -32.5t11.5 -41.5t24 -32.5t39.5 -14.5q49 0 86 78v316q-35 -8 -62 -22t-44 -28 t-29 -37.5t-18 -39.5t-8.5 -45.5t-3 -42.5t-0.5 -43v-15zM526 1307q0 -34 23 -58t57 -24t57 24t23 58t-23 56.5t-57 22.5t-57 -22.5t-23 -56.5z" />
<glyph unicode="&#xe6;" horiz-adv-x="1490" d="M74 190q0 39 6 70t22 57t34.5 46t52.5 38.5t67 32.5t87 29t103.5 27t124.5 28v131q0 161 -70 236t-175 20q-2 -1 -4.5 -3t-7 -8t-4.5 -12t9 -14t27 -16q49 -19 74 -78q23 -57 0 -111t-80 -79q-56 -22 -110.5 1.5t-77.5 78.5q-15 40 -8.5 81.5t32.5 69.5q59 64 137 105 q41 22 84.5 33t66.5 11l23 1q149 0 275 -88q71 47 127 67.5t133 20.5q88 0 152.5 -20t119 -70t83 -145.5t28.5 -235.5h-494q0 -154 23 -243t67.5 -128t122.5 -51q89 -12 160.5 49t81.5 168h18q-4 -60 -27 -113t-66.5 -97.5t-115.5 -70.5t-165 -26q-112 0 -217.5 46 t-167.5 138q-35 -77 -122.5 -130.5t-205.5 -53.5q-9 0 -24 1t-53.5 12.5t-68 31t-53.5 62t-24 101.5zM406 240q0 -6 0.5 -15t4.5 -32.5t11.5 -41.5t24 -32.5t38.5 -14.5q36 0 70.5 23.5t56.5 58.5q-41 74 -41 158v154q-165 -43 -165 -258zM911 512h197q0 245 -1 268 q-7 136 -50 160q-12 6 -27 6q-22 0 -39.5 -9.5t-29.5 -30.5t-21 -42t-14.5 -58t-8.5 -63.5t-4 -73.5t-1.5 -72.5t-0.5 -75.5v-9z" />
<glyph unicode="&#xe7;" horiz-adv-x="1083" d="M92 477q0 107 33.5 195t100.5 154t175 102.5t250 36.5q109 0 189 -37.5t125 -87.5q26 -27 34 -71t-4 -85q-20 -60 -77.5 -86.5t-116.5 -3.5q-60 20 -86.5 77t-3.5 115q24 61 77 82q15 5 4 26q-20 39 -90 49l-40 3q-168 0 -168 -442q0 -166 68.5 -253t197.5 -87 q77 0 131 28t76 80l14 -6q0 -49 -26.5 -98.5t-75 -91t-126 -68t-169.5 -26.5h-23l-37 -103q137 30 212 -25.5t65 -150.5q-19 -160 -232 -160q-90 0 -141 45q-14 11 -22 32t-5 42q8 29 34 44.5t57 8.5q30 -6 46.5 -31t10.5 -55q-12 -37 -37 -45q-12 -6 4 -14q15 -8 43 -8 q38 0 59 28t21 64q0 13 -3.5 28.5t-14 37.5t-30 35.5t-51 23t-77.5 -1.5l80 207q-191 14 -321 152.5t-130 340.5z" />
<glyph unicode="&#xe8;" horiz-adv-x="1099" d="M76 471q0 101 29.5 184.5t79.5 140t117 95.5t139.5 56.5t150.5 17.5q70 0 128 -11.5t114.5 -43.5t95 -83.5t62.5 -136t24 -196.5h-557q0 -113 16.5 -192.5t50 -125.5t73 -69.5t95.5 -36.5q85 -19 168.5 36t112.5 177l18 -4q-22 -123 -136 -210t-296 -87q-132 0 -243.5 64 t-176.5 177t-65 248zM154 1339l331 103l459 -334h-168zM459 512h260q0 209 -27 321.5t-92 112.5q-44 0 -77.5 -68.5t-48.5 -165t-15 -200.5z" />
<glyph unicode="&#xe9;" horiz-adv-x="1099" d="M76 471q0 101 29.5 184.5t79.5 140t117 95.5t139.5 56.5t150.5 17.5q70 0 128 -11.5t114.5 -43.5t95 -83.5t62.5 -136t24 -196.5h-557q0 -113 16.5 -192.5t50 -125.5t73 -69.5t95.5 -36.5q85 -19 168.5 36t112.5 177l18 -4q-22 -123 -136 -210t-296 -87q-132 0 -243.5 64 t-176.5 177t-65 248zM227 1108l459 334l332 -103l-623 -231h-168zM459 512h260q0 209 -27 321.5t-92 112.5q-44 0 -77.5 -68.5t-48.5 -165t-15 -200.5z" />
<glyph unicode="&#xea;" horiz-adv-x="1099" d="M76 471q0 101 29.5 184.5t79.5 140t117 95.5t139.5 56.5t150.5 17.5q70 0 128 -11.5t114.5 -43.5t95 -83.5t62.5 -136t24 -196.5h-557q0 -113 16.5 -192.5t50 -125.5t73 -69.5t95.5 -36.5q85 -19 168.5 36t112.5 177l18 -4q-22 -123 -136 -210t-296 -87q-132 0 -243.5 64 t-176.5 177t-65 248zM240 1049l338 395l337 -395h-84l-253 168l-254 -168h-84zM459 512h260q0 209 -27 321.5t-92 112.5q-44 0 -77.5 -68.5t-48.5 -165t-15 -200.5z" />
<glyph unicode="&#xeb;" horiz-adv-x="1099" d="M76 471q0 101 29.5 184.5t79.5 140t117 95.5t139.5 56.5t150.5 17.5q70 0 128 -11.5t114.5 -43.5t95 -83.5t62.5 -136t24 -196.5h-557q0 -113 16.5 -192.5t50 -125.5t73 -69.5t95.5 -36.5q85 -19 168.5 36t112.5 177l18 -4q-22 -123 -136 -210t-296 -87q-132 0 -243.5 64 t-176.5 177t-65 248zM231 1247q0 58 43 100t103 42q57 0 99 -42t42 -100q0 -60 -42 -102.5t-99 -42.5q-60 0 -103 42.5t-43 102.5zM459 512h260q0 209 -27 321.5t-92 112.5q-44 0 -77.5 -68.5t-48.5 -165t-15 -200.5zM616 1247q0 58 43 100t103 42q57 0 99 -42t42 -100 q0 -60 -42 -102.5t-99 -42.5q-60 0 -103 42.5t-43 102.5z" />
<glyph unicode="&#xec;" horiz-adv-x="667" d="M-129 1339l332 103l459 -334h-168zM53 862v17l455 86v-734q0 -97 16.5 -149t67.5 -66v-16h-512v16q28 8 45 27t24.5 52t9 60t1.5 76v500q0 54 -22 81t-85 50z" />
<glyph unicode="&#xed;" horiz-adv-x="667" d="M-23 1108l459 334l332 -103l-623 -231h-168zM53 862v17l455 86v-734q0 -97 16.5 -149t67.5 -66v-16h-512v16q28 8 45 27t24.5 52t9 60t1.5 76v500q0 54 -22 81t-85 50z" />
<glyph unicode="&#xee;" horiz-adv-x="667" d="M-18 1049l337 395l338 -395h-84l-254 168l-253 -168h-84zM53 862v17l455 86v-734q0 -97 16.5 -149t67.5 -66v-16h-512v16q28 8 45 27t24.5 52t9 60t1.5 76v500q0 54 -22 81t-85 50z" />
<glyph unicode="&#xef;" horiz-adv-x="667" d="M-14 1247q0 59 42.5 100.5t102.5 41.5q57 0 99 -42t42 -100q0 -60 -42 -102.5t-99 -42.5q-60 0 -102.5 42.5t-42.5 102.5zM53 862v17l455 86v-734q0 -97 16.5 -149t67.5 -66v-16h-512v16q28 8 45 27t24.5 52t9 60t1.5 76v500q0 54 -22 81t-85 50zM371 1247 q0 59 42.5 100.5t102.5 41.5q57 0 99 -42t42 -100q0 -60 -42 -102.5t-99 -42.5q-60 0 -102.5 42.5t-42.5 102.5z" />
<glyph unicode="&#xf0;" horiz-adv-x="1255" d="M78 446q0 72 12.5 134t45 121.5t83.5 102t134.5 68t191.5 25.5q75 0 142.5 -40t76.5 -99q-3 324 -88 495l-361 -186l-8 16l361 187q-30 55 -68 91.5t-79.5 53t-75.5 22t-74 5.5v18q271 0 458 -108l183 94l10 -16l-174 -89q332 -203 332 -690q0 -310 -153.5 -489.5 t-430.5 -179.5q-241 0 -379.5 116.5t-138.5 347.5zM451 406q0 -227 6 -278q12 -88 57 -113q30 -15 82 -15q106 0 134.5 148t33.5 534q0 56 -39 92.5t-107 36.5q-72 0 -119.5 -106t-47.5 -299z" />
<glyph unicode="&#xf1;" horiz-adv-x="1214" d="M16 862v17l455 86v-199q41 85 116 142t156 57q66 0 122.5 -15t106.5 -48.5t78.5 -97t28.5 -151.5v-420q0 -97 17 -151t67 -66v-16h-512v16q53 16 67.5 68t14.5 149v412q0 88 -34 130t-107 42q-32 0 -65 -23t-56 -57v-506q0 -97 16.5 -149t67.5 -66v-16h-512v16 q28 8 45 26.5t24.5 51.5t9 60t1.5 77v500q0 54 -22 81t-85 50zM76 1133q35 81 78 138.5t84 86t83 43.5t77 14t62 -5t42 -10l16 -7l244 -95q42 -19 114.5 -30.5t152.5 1.5t106 64l8 -2q-36 -77 -79.5 -133t-85 -84t-83.5 -44t-77 -16.5t-62 2t-42 8.5l-16 5l-243 96 q-30 12 -80 21.5t-109.5 13t-111 -13.5t-70.5 -56z" />
<glyph unicode="&#xf2;" horiz-adv-x="1218" d="M84 473q0 104 31.5 191.5t94 155.5t165.5 106.5t237 38.5t237 -38.5t166 -106.5t94.5 -155.5t31.5 -191.5q0 -103 -31.5 -190.5t-94.5 -155.5t-166 -106.5t-237 -38.5t-237 38.5t-165.5 107t-94 155.5t-31.5 190zM190 1339l332 103l459 -334h-168zM498 473 q0 -303 17 -388t97 -85q79 0 96 86t17 387t-17 387t-96 86q-80 0 -97 -85t-17 -388z" />
<glyph unicode="&#xf3;" horiz-adv-x="1218" d="M84 473q0 104 31.5 191.5t94 155.5t165.5 106.5t237 38.5t237 -38.5t166 -106.5t94.5 -155.5t31.5 -191.5q0 -103 -31.5 -190.5t-94.5 -155.5t-166 -106.5t-237 -38.5t-237 38.5t-165.5 107t-94 155.5t-31.5 190zM266 1108l459 334l332 -103l-623 -231h-168zM498 473 q0 -303 17 -388t97 -85q79 0 96 86t17 387t-17 387t-96 86q-80 0 -97 -85t-17 -388z" />
<glyph unicode="&#xf4;" horiz-adv-x="1218" d="M84 473q0 104 31.5 191.5t94 155.5t165.5 106.5t237 38.5t237 -38.5t166 -106.5t94.5 -155.5t31.5 -191.5q0 -103 -31.5 -190.5t-94.5 -155.5t-166 -106.5t-237 -38.5t-237 38.5t-165.5 107t-94 155.5t-31.5 190zM274 1049l338 395l338 -395h-84l-254 168l-254 -168h-84z M498 473q0 -303 17 -388t97 -85q79 0 96 86t17 387t-17 387t-96 86q-80 0 -97 -85t-17 -388z" />
<glyph unicode="&#xf5;" horiz-adv-x="1218" d="M84 473q0 104 31.5 191.5t94 155.5t165.5 106.5t237 38.5t237 -38.5t166 -106.5t94.5 -155.5t31.5 -191.5q0 -103 -31.5 -190.5t-94.5 -155.5t-166 -106.5t-237 -38.5t-237 38.5t-165.5 107t-94 155.5t-31.5 190zM96 1133q35 81 78 138.5t84.5 86t83 43.5t76.5 14 t62.5 -5t43.5 -10l15 -7l243 -95q42 -19 114.5 -30.5t152.5 1.5t106 64l8 -2q-36 -77 -79.5 -133t-85 -84t-83 -44t-76.5 -16.5t-62 2t-43 8.5l-15 5l-244 96q-30 12 -80 21.5t-109.5 13t-111 -13.5t-70.5 -56zM498 473q0 -303 17 -388t97 -85q79 0 96 86t17 387t-17 387 t-96 86q-80 0 -97 -85t-17 -388z" />
<glyph unicode="&#xf6;" horiz-adv-x="1218" d="M84 473q0 104 31.5 191.5t94 155.5t165.5 106.5t237 38.5t237 -38.5t166 -106.5t94.5 -155.5t31.5 -191.5q0 -103 -31.5 -190.5t-94.5 -155.5t-166 -106.5t-237 -38.5t-237 38.5t-165.5 107t-94 155.5t-31.5 190zM274 1247q0 58 43 100t103 42q57 0 99 -42t42 -100 q0 -60 -42 -102.5t-99 -42.5q-60 0 -103 42.5t-43 102.5zM498 473q0 -303 17 -388t97 -85q79 0 96 86t17 387t-17 387t-96 86q-80 0 -97 -85t-17 -388zM659 1247q0 58 43 100t103 42q57 0 99 -42t42 -100q0 -60 -42 -102.5t-99 -42.5q-60 0 -103 42.5t-43 102.5z" />
<glyph unicode="&#xf7;" horiz-adv-x="1280" d="M92 440v252h1098v-252h-1098zM481 123q0 65 46 111.5t112 46.5t113 -46.5t47 -111.5q0 -67 -47 -113.5t-113 -46.5t-112 46.5t-46 113.5zM481 1010q0 65 46 112t112 47t113 -47t47 -112q0 -66 -47 -113t-113 -47t-112 47t-46 113z" />
<glyph unicode="&#xf8;" horiz-adv-x="1218" d="M84 473q0 104 31.5 191.5t94 155.5t165.5 106.5t237 38.5q121 0 242 -41l84 151h25l-89 -160q134 -56 200.5 -172.5t66.5 -269.5q0 -103 -31.5 -190.5t-94.5 -155.5t-166 -106.5t-237 -38.5t-237 38l-86 -157h-23l90 166q-135 57 -203.5 174.5t-68.5 269.5zM498 287 l225 403q-5 145 -27.5 200.5t-83.5 55.5q-80 0 -97 -85t-17 -388v-186zM500 244q5 -144 27 -194t85 -50q79 0 96 86t17 387q0 123 -2 174z" />
<glyph unicode="&#xf9;" horiz-adv-x="1255" d="M35 907v17l467 41v-664q0 -90 29 -130t104 -40q107 0 133 115v497q0 95 -5 114q-9 32 -50 43q-16 4 -41 7v17l442 41v-783q0 -73 20 -97t85 -32v-16l-394 -53q-24 -4 -38.5 6t-16.5 22l-2 11v167q-13 -86 -89.5 -147t-197.5 -61q-52 0 -97 8.5t-89 31t-75.5 57t-50.5 90 t-19 126.5v455q0 89 -8 109q-12 29 -62 40q-17 4 -45 8zM180 1339l332 103l459 -334h-168z" />
<glyph unicode="&#xfa;" horiz-adv-x="1255" d="M35 907v17l467 41v-664q0 -90 29 -130t104 -40q107 0 133 115v497q0 95 -5 114q-9 32 -50 43q-16 4 -41 7v17l442 41v-783q0 -73 20 -97t85 -32v-16l-394 -53q-24 -4 -38.5 6t-16.5 22l-2 11v167q-13 -86 -89.5 -147t-197.5 -61q-52 0 -97 8.5t-89 31t-75.5 57t-50.5 90 t-19 126.5v455q0 89 -8 109q-12 29 -62 40q-17 4 -45 8zM311 1108l459 334l332 -103l-623 -231h-168z" />
<glyph unicode="&#xfb;" horiz-adv-x="1255" d="M35 907v17l467 41v-664q0 -90 29 -130t104 -40q107 0 133 115v497q0 95 -5 114q-9 32 -50 43q-16 4 -41 7v17l442 41v-783q0 -73 20 -97t85 -32v-16l-394 -53q-24 -4 -38.5 6t-16.5 22l-2 11v167q-13 -86 -89.5 -147t-197.5 -61q-52 0 -97 8.5t-89 31t-75.5 57t-50.5 90 t-19 126.5v455q0 89 -8 109q-12 29 -62 40q-17 4 -45 8zM303 1049l338 395l338 -395h-84l-254 168l-254 -168h-84z" />
<glyph unicode="&#xfc;" horiz-adv-x="1255" d="M35 907v17l467 41v-664q0 -90 29 -130t104 -40q107 0 133 115v497q0 95 -5 114q-9 32 -50 43q-16 4 -41 7v17l442 41v-783q0 -73 20 -97t85 -32v-16l-394 -53q-24 -4 -38.5 6t-16.5 22l-2 11v167q-13 -86 -89.5 -147t-197.5 -61q-52 0 -97 8.5t-89 31t-75.5 57t-50.5 90 t-19 126.5v455q0 89 -8 109q-12 29 -62 40q-17 4 -45 8zM289 1247q0 59 42.5 100.5t102.5 41.5q57 0 99 -42t42 -100q0 -60 -42 -102.5t-99 -42.5q-60 0 -102.5 42.5t-42.5 102.5zM674 1247q0 59 42.5 100.5t102.5 41.5q57 0 99.5 -42t42.5 -100q0 -60 -42.5 -102.5 t-99.5 -42.5q-60 0 -102.5 42.5t-42.5 102.5z" />
<glyph unicode="&#xfd;" horiz-adv-x="1261" d="M23 930q102 -10 165 -127l467 -930q-44 -160 -90 -160q-19 1 -26 25q-21 65 -90 96q-66 29 -133.5 3.5t-98.5 -91.5q-28 -66 -3 -133t91 -98q44 -20 103.5 -14t93.5 34q95 78 170 324l256 735q86 205 141.5 270.5t161.5 65.5v16h-477v-16q72 0 114 -34t51.5 -82.5 t8.5 -97t-10 -82.5l-9 -34l-84 -248l-209 406q-4 7 -9 18.5t-13 41t-7 52.5t20 41.5t57 18.5v16h-641v-16zM227 1108l459 334l332 -103l-623 -231h-168z" />
<glyph unicode="&#xfe;" horiz-adv-x="1357" d="M27 1399v16l454 86v-690q44 77 129 115.5t224 38.5q102 0 185.5 -38.5t136.5 -104.5t81.5 -151.5t28.5 -181.5q0 -118 -31 -208.5t-81 -146t-121 -90.5t-143.5 -48.5t-156.5 -13.5q-160 0 -252 47v-340q0 -97 16.5 -148t67.5 -65v-19h-512v19q28 8 45 26.5t24.5 51.5 t9 59.5t1.5 75.5v1579q0 54 -21.5 81t-84.5 50zM481 285q8 -142 48 -213.5t120 -71.5q92 0 148.5 113.5t56.5 347.5q0 125 -20 219.5t-67 154.5t-118 60q-153 0 -168 -256v-354z" />
<glyph unicode="&#xff;" horiz-adv-x="1261" d="M23 930q102 -10 165 -127l467 -930q-44 -160 -90 -160q-19 1 -26 25q-21 65 -90 96q-66 29 -133.5 3.5t-98.5 -91.5q-28 -66 -3 -133t91 -98q44 -20 103.5 -14t93.5 34q95 78 170 324l256 735q86 205 141.5 270.5t161.5 65.5v16h-477v-16q72 0 114 -34t51.5 -82.5 t8.5 -97t-10 -82.5l-9 -34l-84 -248l-209 406q-4 7 -9 18.5t-13 41t-7 52.5t20 41.5t57 18.5v16h-641v-16zM328 1247q0 59 42.5 100.5t102.5 41.5q57 0 99 -42t42 -100q0 -60 -42 -102.5t-99 -42.5q-60 0 -102.5 42.5t-42.5 102.5zM713 1247q0 59 42.5 100.5t102.5 41.5 q57 0 99 -42t42 -100q0 -60 -42 -102.5t-99 -42.5q-60 0 -102.5 42.5t-42.5 102.5z" />
<glyph unicode="&#x152;" horiz-adv-x="2230" d="M88 711q0 153 48 288.5t136 238t223 162.5t300 60q51 0 133 -18h1128v-420h-18q0 82 -28.5 148.5t-74.5 107t-101 70.5t-110 43.5t-101 21.5t-75 9l-28 1h-74v-686h125q7 0 14 0.5t31 5t44.5 12.5t47.5 26t47 42.5t36 65t21 90.5h19v-502h-19q-5 51 -21 91.5t-35.5 65 t-47 42.5t-47.5 26t-45 12.5t-31.5 4.5h-13.5h-125v-701h74h31t76.5 6t107.5 17.5t114 39.5t108 67.5t76 105t31 147.5h19v-401h-1153q-13 -2 -34.5 -6.5t-32 -6.5t-28.5 -3.5t-40 -1.5q-165 0 -300 56.5t-223.5 155t-136 231.5t-47.5 286zM582 711q0 -176 5.5 -291 t19 -201.5t38.5 -131.5t60.5 -66t89.5 -21q130 0 181.5 67t51.5 246q0 57 1 400t1 393q0 183 -53 259.5t-182 76.5q-46 0 -78.5 -14.5t-56.5 -51t-39 -88.5t-24 -138.5t-12 -188.5t-3 -250z" />
<glyph unicode="&#x153;" horiz-adv-x="1675" d="M88 473q0 104 31.5 191.5t94 155.5t165.5 106.5t237 38.5q170 0 312 -80q140 80 268 80q69 0 124.5 -12t107.5 -44t87 -84t55.5 -136.5t20.5 -196.5h-485q0 -154 20.5 -241.5t60 -126t111.5 -54.5q81 -18 152 37t100 180h19q-11 -61 -36 -112.5t-68 -96.5t-114 -70.5 t-163 -25.5q-139 0 -260 75q-128 -75 -312 -75q-134 0 -237 38.5t-165.5 107t-94 155.5t-31.5 190zM502 473q0 -303 17 -388t97 -85q79 0 96 86t17 387t-17 387t-96 86q-80 0 -97 -85t-17 -388zM1106 510h188v16q0 120 -1.5 175.5t-9.5 124t-27 94.5t-52 26q-23 0 -40 -17.5 t-27.5 -53t-17 -72.5t-9 -93.5t-3.5 -97.5t-1 -102z" />
<glyph unicode="&#x178;" horiz-adv-x="1591" d="M18 1427v15h617v-15h-1h-1h-1q-50 0 -58 -11q-16 -20 39 -122q21 -39 57 -100l299 -508q102 203 159 328q15 32 26.5 80.5t11.5 106.5t-15.5 107.5t-61 83t-116.5 33.5v17h594v-17q-99 0 -208 -104t-214 -315l-166 -336v-439q0 -17 -0.5 -43.5t-0.5 -40t0.5 -33t2 -29.5 t5 -23.5t8.5 -19.5t13 -12.5t19 -9t25 -2.5v-18h-551v18q37 0 54 23t19.5 50t1.5 98v42v334l-399 701q-44 77 -70.5 110.5t-41 40t-46.5 10.5zM451 1706q0 58 42.5 99.5t102.5 41.5q57 0 99 -41.5t42 -99.5q0 -60 -42 -102.5t-99 -42.5q-60 0 -102.5 42.5t-42.5 102.5z M836 1706q0 58 42.5 99.5t102.5 41.5q57 0 99 -41.5t42 -99.5q0 -60 -42 -102.5t-99 -42.5q-60 0 -102.5 42.5t-42.5 102.5z" />
<glyph unicode="&#x2c6;" horiz-adv-x="675" d="M0 1087l338 396l338 -396h-84l-254 168l-254 -168h-84z" />
<glyph unicode="&#x2dc;" horiz-adv-x="978" d="M-43 1167q35 81 78 140t84 89t83 47.5t77 18.5t62 -1t43 -7l15 -6l244 -94q31 -14 80.5 -26.5t109.5 -20t111.5 7t71.5 53.5l8 -2q-36 -77 -79.5 -134t-85 -87t-83 -48.5t-76.5 -21t-62 -2t-42 4.5l-16 5l-244 97q-32 13 -80 24.5t-109 19.5t-112 -6t-70 -53z" />
<glyph unicode="&#x2000;" horiz-adv-x="1003" />
<glyph unicode="&#x2001;" horiz-adv-x="2007" />
<glyph unicode="&#x2002;" horiz-adv-x="1003" />
<glyph unicode="&#x2003;" horiz-adv-x="2007" />
<glyph unicode="&#x2004;" horiz-adv-x="669" />
<glyph unicode="&#x2005;" horiz-adv-x="501" />
<glyph unicode="&#x2006;" horiz-adv-x="334" />
<glyph unicode="&#x2007;" horiz-adv-x="334" />
<glyph unicode="&#x2008;" horiz-adv-x="250" />
<glyph unicode="&#x2009;" horiz-adv-x="401" />
<glyph unicode="&#x200a;" horiz-adv-x="111" />
<glyph unicode="&#x2010;" horiz-adv-x="909" d="M131 379v283h645v-283h-645z" />
<glyph unicode="&#x2011;" horiz-adv-x="909" d="M131 379v283h645v-283h-645z" />
<glyph unicode="&#x2012;" horiz-adv-x="909" d="M131 379v283h645v-283h-645z" />
<glyph unicode="&#x2013;" horiz-adv-x="1148" d="M0 406v221h1149v-221h-1149z" />
<glyph unicode="&#x2014;" horiz-adv-x="2160" d="M0 406v221h2161v-221h-2161z" />
<glyph unicode="&#x2018;" horiz-adv-x="602" d="M110.5 998.5q-10.5 64.5 9 130t45.5 118t58 96.5q23 36 74 80.5t119 83.5l14 -20q-51 -41 -86 -99t-37 -92.5t12 -44.5q89 -7 144 -59q63 -63 63.5 -151t-61.5 -152q-63 -61 -150 -61t-149 61q-45 45 -55.5 109.5z" />
<glyph unicode="&#x2019;" horiz-adv-x="630" d="M116.5 1292q-0.5 88 61.5 152q63 62 150.5 62t148.5 -62q45 -45 55.5 -109.5t-9 -130t-45.5 -118.5t-58 -97q-23 -36 -74 -80.5t-119 -83.5l-14 21q51 41 86 99t37 92t-12 44q-88 7 -144 60q-63 63 -63.5 151z" />
<glyph unicode="&#x201a;" horiz-adv-x="647" d="M112.5 196q-0.5 88 61.5 152q63 62 150.5 62t148.5 -62q45 -45 55.5 -109.5t-9 -130t-45.5 -118t-58 -96.5q-23 -36 -74 -80.5t-119 -83.5l-14 20q51 41 86 99t37 92.5t-13 44.5q-88 7 -143 59q-63 63 -63.5 151z" />
<glyph unicode="&#x201c;" horiz-adv-x="1218" d="M110.5 998.5q-10.5 64.5 9 130t45.5 118t58 96.5q23 36 74 80.5t119 83.5l14 -20q-51 -41 -86 -99t-37 -92.5t12 -44.5q89 -7 144 -59q63 -63 63.5 -151t-61.5 -152q-63 -61 -150 -61t-149 61q-45 45 -55.5 109.5zM677.5 998.5q-10.5 64.5 9.5 130t46 118t58 96.5 q24 37 74 81t118 83l14 -20q-51 -41 -86 -99t-37 -92.5t13 -44.5q88 -7 143 -59q63 -63 63.5 -151t-61.5 -152q-63 -61 -150.5 -61t-148.5 61q-45 45 -55.5 109.5z" />
<glyph unicode="&#x201d;" horiz-adv-x="1216" d="M114.5 1292q-0.5 88 61.5 152q63 62 150.5 62t148.5 -62q45 -45 55.5 -109.5t-9 -130t-45.5 -118.5t-58 -97q-23 -36 -74 -80.5t-119 -83.5l-14 21q51 41 86 99t37 92t-12 44q-88 7 -144 60q-63 63 -63.5 151zM681.5 1292q-0.5 88 61.5 152q63 62 150 62t149 -62 q45 -45 55.5 -109.5t-9 -130t-45.5 -118.5t-58 -97q-24 -37 -74 -81t-118 -83l-15 21q51 41 86 99t37 92t-12 44q-88 7 -144 60q-63 63 -63.5 151z" />
<glyph unicode="&#x201e;" horiz-adv-x="1196" d="M108.5 194q-0.5 88 61.5 152q63 62 150.5 62t148.5 -62q45 -45 55.5 -109.5t-9 -130t-45.5 -118.5t-58 -97q-54 -83 -193 -163l-14 20q51 41 86 99t37 92.5t-13 44.5q-88 7 -143 59q-63 63 -63.5 151zM675.5 194q-0.5 88 61.5 152q63 62 150 62t149 -62 q45 -45 55.5 -109.5t-9 -130t-45.5 -118.5t-58 -97q-54 -83 -193 -163l-14 20q51 41 86 99t37 92.5t-12 44.5q-89 7 -144 59q-63 63 -63.5 151z" />
<glyph unicode="&#x2022;" horiz-adv-x="1071" d="M254 696q0 124 86.5 210.5t208.5 86.5q125 0 212 -86.5t87 -210.5q0 -123 -87 -209t-212 -86q-122 0 -208.5 86t-86.5 209z" />
<glyph unicode="&#x2026;" horiz-adv-x="2015" d="M176 193q0 88 62 150.5t151 62.5q86 0 147.5 -62.5t61.5 -150.5q0 -89 -61 -150t-148 -61q-89 0 -151 61t-62 150zM766 193q0 88 62 150.5t151 62.5q86 0 147.5 -62.5t61.5 -150.5q0 -89 -61 -150t-148 -61q-89 0 -151 61t-62 150zM1399 193q0 88 62 150.5t151 62.5 q86 0 147.5 -62.5t61.5 -150.5q0 -89 -61 -150t-148 -61q-89 0 -151 61t-62 150z" />
<glyph unicode="&#x202f;" horiz-adv-x="401" />
<glyph unicode="&#x2039;" horiz-adv-x="788" d="M100 545l586 489v-100l-242 -389l242 -377v-100z" />
<glyph unicode="&#x203a;" horiz-adv-x="788" d="M100 68v100l242 377l-242 389v100l586 -489z" />
<glyph unicode="&#x205f;" horiz-adv-x="501" />
<glyph unicode="&#x20ac;" horiz-adv-x="1361" d="M29 610l8 19h211q-4 31 -4 92q0 63 4 94h-219l8 19h211q29 298 205 462t475 164q43 0 79.5 -1.5t66.5 -6t52.5 -8t43 -11.5t32.5 -11.5t27 -14t20 -13.5t19 -14.5t16 -13.5l-20 -311h-17q-11 77 -27.5 137.5t-34 101t-42.5 69t-46.5 43.5t-53 23.5t-55.5 10.5t-60 2 q-40 0 -70.5 -6t-54.5 -23t-40.5 -38.5t-28.5 -60.5t-19 -80t-11.5 -107t-6 -131t-1.5 -162h383l-10 -19h-373v-94v-92h351l-11 -19h-340q0 -96 2 -162.5t6 -132t11.5 -107t19.5 -80.5t29 -60.5t41 -38t53.5 -23t69.5 -6.5q44 0 77.5 6.5t72.5 29.5t68 63.5t56 114t45 175.5 h17l20 -311q-31 -21 -51 -32t-64 -29t-104.5 -26.5t-136.5 -8.5q-300 0 -476 164.5t-204 463.5h-219z" />
<glyph unicode="&#x2122;" horiz-adv-x="1546" d="M25 1266v176h600v-176h-19q-2 44 -24 77.5t-52.5 49.5t-56 23t-43.5 7h-20v-465q0 -34 1.5 -49t9.5 -26t25 -11v-18h-245v18q24 0 30.5 18.5t6.5 67.5v465h-21q-19 0 -44.5 -7t-55 -23t-51 -49.5t-23.5 -77.5h-18zM664 854v18q62 0 90 56t28 147v295q-14 25 -28 37 t-23 14t-24 2v19h237l201 -383l145 383h205v-19q-29 0 -34 -11t-5 -54v-426q0 -42 7.5 -51t39.5 -9v-18h-256v18q31 0 37 8.5t6 51.5v452l-198 -536h-25l-266 498v-271q0 -203 123 -203v-18h-260z" />
<glyph unicode="&#x25fc;" horiz-adv-x="942" d="M0 0v942h942v-942h-942z" />
<glyph unicode="&#xfb01;" horiz-adv-x="1320" d="M37 928v18h133q0 133 31 236t81.5 167t122 104.5t145 56.5t157.5 16q75 0 155.5 -15.5t156 -53.5t105.5 -91q23 -43 20.5 -99t-30.5 -102q-40 -58 -111 -72.5t-131 23.5q-62 40 -76 110t27 132q34 58 103 74q27 6 0 26q-47 34 -154 45l-67 4q-36 0 -64 -14t-47.5 -37.5 t-33.5 -63.5t-22 -82.5t-12.5 -105t-6 -120.5t-1.5 -138h221q130 0 235.5 15.5t145.5 30.5l41 16v-777q0 -98 16.5 -150.5t67.5 -64.5v-16h-512v16q28 8 45 27t24.5 52t9 60t1.5 76v533v10q0 29 -0.5 44t-4 39.5t-11 37.5t-22.5 23t-36 10h-221v-697q0 -97 16.5 -149 t67.5 -66v-16h-512v16q28 8 45 27t24.5 52t9 60t1.5 76v697h-133z" />
<glyph unicode="&#xfb02;" horiz-adv-x="1271" d="M16 928v18h134v164q0 103 27.5 182t66.5 121.5t90 69.5t90.5 35t75.5 8q3 -1 17 0.5t42.5 -2t58 -9t62.5 -20t57 -35.5l420 68v-1297q0 -98 16.5 -150.5t67.5 -64.5v-16h-512v16q28 8 45 27t24.5 52t9 60t1.5 76v1063q0 62 -13 95t-59 53q-33 9 -61 9.5t-50.5 -6.5 t-40 -23.5t-31 -39t-23 -56t-16 -71t-10.5 -87.5t-5.5 -103t-1.5 -119h219v-18h-219v-697q0 -97 16.5 -149t67.5 -66v-16h-512v16q28 8 45 27t24.5 52t9 60t1.5 76v697h-134z" />
</font>
</defs>
</svg>
